<svg xmlns="http://www.w3.org/2000/svg">
<defs>
<font id="Tram Joanneum Regular">
<font-face  font-family="Tram Joanneum" units-per-em="1000" ascent="750" descent="-250" font-style="normal" font-weight="400" font-stretch="normal" cap-height="656" x-height="492" underline-position="-75" underline-thickness="50" />

<glyph glyph-name="NULL" d="" />
<glyph glyph-name="CR" unicode="&#xd;" horiz-adv-x="250" d="" />
<glyph glyph-name="space" unicode="&#x20;" horiz-adv-x="236" d="" />
<glyph glyph-name="exclam" unicode="&#x21;" horiz-adv-x="272" d="M179 656 L93 656 L93 339 L107 184 L165 184 L179 339 L179 656 Z M136 92 C90 92 88 90 88 44 C88 -2 90 -4 136 -4 C182 -4 184 -2 184 44 C184 90 182 92 136 92 L136 92 Z " />
<glyph glyph-name="quotedbl" unicode="&#x22;" horiz-adv-x="325" d="M48 696 L48 601 L63 445 L103 445 L118 601 L118 696 L48 696 Z M207 696 L207 601 L222 445 L262 445 L277 601 L277 696 L207 696 Z " />
<glyph glyph-name="numbersign" unicode="&#x23;" horiz-adv-x="619" d="M571 443 L577 501 L480 501 L495 656 L428 656 L413 501 L240 501 L255 656 L188 656 L173 501 L77 501 L71 443 L167 443 L144 213 L48 213 L42 155 L138 155 L123 0 L190 0 L205 155 L378 155 L363 0 L430 0 L445 155 L542 155 L548 213 L451 213 L474 443 L571 443 Z M211 213 L234 443 L407 443 L384 213 L211 213 Z " />
<glyph glyph-name="dollar" unicode="&#x24;" horiz-adv-x="529" d="M224 374 C169 382 134 402 134 485 C134 571 176 596 265 596 C327 596 376 589 437 579 L445 642 C393 654 341 661 298 664 L298 777 L232 767 L232 664 C114 657 54 610 54 479 C54 353 124 311 211 299 L297 287 C358 278 391 256 391 173 C391 93 362 60 265 60 C206 60 151 67 78 80 L70 16 C130 1 185 -6 232 -8 L232 -120 L298 -110 L298 -8 C428 0 473 53 473 180 C473 303 418 347 309 362 L224 374 Z " />
<glyph glyph-name="percent" unicode="&#x25;" horiz-adv-x="837" d="M191 609 C254 609 267 574 267 472 C267 370 255 335 191 335 C127 335 115 369 115 472 C115 574 127 609 191 609 L191 609 Z M191 662 C88 662 48 611 48 472 C48 334 88 282 191 282 C294 282 334 334 334 472 C334 611 294 662 191 662 L191 662 Z M645 322 C709 322 722 286 722 184 C722 83 710 47 645 47 C581 47 569 81 569 184 C569 286 581 322 645 322 L645 322 Z M645 375 C542 375 502 323 502 184 C502 46 542 -6 645 -6 C749 -6 789 46 789 184 C789 323 749 375 645 375 L645 375 Z M264 0 L639 656 L572 656 L196 0 L264 0 Z " />
<glyph glyph-name="ampersand" unicode="&#x26;" horiz-adv-x="648" d="M484 160 L506 317 L586 317 L586 383 L446 383 L423 225 L264 392 C171 490 157 513 157 542 C157 583 186 602 265 602 C311 602 371 596 422 587 L431 644 C373 658 311 665 265 665 C152 665 81 629 81 542 C81 488 107 453 175 381 C86 282 45 233 45 160 C45 39 140 -9 275 -9 C380 -9 445 22 467 72 L536 0 L634 0 L484 160 Z M275 56 C164 56 125 93 125 160 C125 216 159 257 224 328 L409 132 C400 84 363 56 275 56 L275 56 Z " />
<glyph glyph-name="quotesingle" unicode="&#x27;" horiz-adv-x="166" d="M48 696 L48 601 L63 445 L103 445 L118 601 L118 696 L48 696 Z " />
<glyph glyph-name="parenleft" unicode="&#x28;" horiz-adv-x="274" d="M166 750 C106 687 76 572 76 304 C76 36 106 -79 166 -142 L210 -90 C170 -35 158 75 158 304 C158 533 170 643 210 698 L166 750 Z " />
<glyph glyph-name="parenright" unicode="&#x29;" horiz-adv-x="274" d="M108 -142 C168 -79 198 36 198 304 C198 572 168 687 108 750 L64 698 C104 643 116 533 116 304 C116 75 104 -35 64 -90 L108 -142 Z " />
<glyph glyph-name="asterisk" unicode="&#x2a;" horiz-adv-x="558" d="M321 537 L298 696 L260 696 L237 537 L80 565 L68 529 L213 460 L136 317 L167 294 L279 411 L391 294 L422 317 L345 460 L490 529 L478 565 L321 537 Z " />
<glyph glyph-name="plus" unicode="&#x2b;" horiz-adv-x="540" d="M306 308 L306 474 L234 474 L234 308 L64 308 L64 240 L234 240 L234 74 L306 74 L306 240 L476 240 L476 308 L306 308 Z " />
<glyph glyph-name="comma" unicode="&#x2c;" horiz-adv-x="250" d="M125 96 C77 96 75 94 75 46 C75 -2 79 -3 121 -4 C121 -40 109 -75 76 -107 L104 -126 C160 -82 175 -28 175 46 C175 94 173 96 125 96 L125 96 Z " />
<glyph glyph-name="hyphen" unicode="&#x2d;" horiz-adv-x="360" d="M50 308 L50 240 L310 240 L310 308 L50 308 Z " />
<glyph glyph-name="period" unicode="&#x2e;" horiz-adv-x="250" d="M125 96 C77 96 75 94 75 46 C75 -2 77 -4 125 -4 C173 -4 175 -2 175 46 C175 94 173 96 125 96 L125 96 Z " />
<glyph glyph-name="slash" unicode="&#x2f;" horiz-adv-x="355" d="M148 -136 L273 744 L207 744 L82 -136 L148 -136 Z " />
<glyph glyph-name="zero" unicode="0" horiz-adv-x="580" d="M290 668 C116 668 58 566 58 328 C58 90 116 -12 290 -12 C464 -12 522 90 522 328 C522 566 464 668 290 668 L290 668 Z M290 54 C168 54 144 118 144 328 C144 538 168 602 290 602 C412 602 436 538 436 328 C436 118 412 54 290 54 L290 54 Z " />
<glyph glyph-name="one" unicode="1" horiz-adv-x="448" d="M81 0 L390 0 L390 70 L275 70 L275 662 L62 631 L70 573 L196 573 L196 70 L81 70 L81 0 Z " />
<glyph glyph-name="two" unicode="2" horiz-adv-x="532" d="M147 70 C147 187 158 208 282 285 C434 380 464 412 464 507 C464 631 385 665 255 665 C201 665 133 656 75 641 L83 578 C142 590 200 597 255 597 C357 597 385 569 385 507 C385 444 365 426 240 348 C98 260 68 219 68 74 L68 0 L455 0 L455 70 L147 70 Z " />
<glyph glyph-name="three" unicode="3" horiz-adv-x="517" d="M353 339 C411 356 439 410 439 484 C439 630 364 665 235 665 C185 665 117 657 64 641 L72 578 C124 590 185 597 235 597 C340 597 361 555 361 484 C361 414 340 370 235 370 L171 370 L171 300 L235 300 C345 300 371 264 371 180 C371 90 345 60 235 60 C186 60 134 65 68 78 L60 15 C124 -2 185 -9 235 -9 C366 -9 452 20 452 180 C452 285 414 322 353 337 L353 339 Z " />
<glyph glyph-name="four" unicode="4" horiz-adv-x="580" d="M368 397 L368 216 L135 216 L135 218 L289 652 L212 663 L56 216 L56 146 L368 146 L368 0 L447 0 L447 146 L552 146 L552 216 L447 216 L447 397 L368 397 Z " />
<glyph glyph-name="five" unicode="5" horiz-adv-x="538" d="M155 586 L440 586 L449 656 L79 656 L79 276 L154 276 C168 319 204 339 271 339 C352 339 395 309 395 199 C395 85 352 59 259 59 C199 59 169 63 81 79 L72 16 C148 -7 219 -9 269 -9 C407 -9 478 47 478 199 C478 347 407 407 281 407 C223 407 183 391 157 359 L155 359 L155 586 Z " />
<glyph glyph-name="six" unicode="6" horiz-adv-x="560" d="M288 600 C338 600 395 592 456 578 L464 641 C401 659 345 668 288 668 C117 668 60 566 60 328 C60 90 117 -12 288 -12 C416 -12 497 32 497 197 C497 362 416 406 297 406 C206 406 146 361 146 361 C146 539 182 600 288 600 L288 600 Z M288 54 C171 54 146 126 146 298 C146 298 196 338 288 338 C388 338 415 294 415 196 C415 98 388 54 288 54 L288 54 Z " />
<glyph glyph-name="seven" unicode="7" horiz-adv-x="507" d="M33 485 L108 495 L108 586 L378 586 L378 584 L163 0 L243 0 L458 586 L458 656 L33 656 L33 485 Z " />
<glyph glyph-name="eight" unicode="8" horiz-adv-x="560" d="M416 336 C465 377 492 416 492 485 C492 623 404 668 280 668 C156 668 68 623 68 485 C68 399 103 359 144 336 L144 334 C87 301 50 247 50 179 C50 23 154 -12 280 -12 C406 -12 510 23 510 179 C510 262 480 310 416 334 L416 336 Z M280 602 C368 602 412 574 412 486 C412 423 397 395 351 358 L241 375 C213 379 148 399 148 486 C148 574 192 602 280 602 L280 602 Z M280 54 C190 54 133 80 133 178 C133 236 158 274 210 312 L312 295 C401 282 427 260 427 178 C427 80 370 54 280 54 L280 54 Z " />
<glyph glyph-name="nine" unicode="9" horiz-adv-x="560" d="M272 56 C222 56 165 64 104 78 L96 15 C159 -3 215 -12 272 -12 C443 -12 500 90 500 328 C500 566 443 668 272 668 C144 668 63 624 63 459 C63 294 144 250 263 250 C354 250 414 295 414 295 C414 117 378 56 272 56 L272 56 Z M272 602 C389 602 414 530 414 358 C414 358 364 318 272 318 C172 318 145 362 145 460 C145 558 172 602 272 602 L272 602 Z " />
<glyph glyph-name="colon" unicode="&#x3a;" horiz-adv-x="250" d="M125 96 C77 96 75 94 75 46 C75 -2 77 -4 125 -4 C173 -4 175 -2 175 46 C175 94 173 96 125 96 L125 96 Z M125 426 C77 426 75 424 75 376 C75 328 77 326 125 326 C173 326 175 328 175 376 C175 424 173 426 125 426 L125 426 Z " />
<glyph glyph-name="semicolon" unicode="&#x3b;" horiz-adv-x="250" d="M125 426 C77 426 75 424 75 376 C75 328 77 326 125 326 C173 326 175 328 175 376 C175 424 173 426 125 426 L125 426 Z M125 96 C77 96 75 94 75 46 C75 -2 79 -3 121 -4 C121 -40 109 -75 76 -107 L104 -126 C160 -82 175 -28 175 46 C175 94 173 96 125 96 L125 96 Z " />
<glyph glyph-name="less" unicode="&#x3c;" horiz-adv-x="540" d="M472 52 L472 125 L129 273 L129 275 L472 423 L472 496 L52 307 L52 241 L472 52 Z " />
<glyph glyph-name="equal" unicode="&#x3d;" horiz-adv-x="540" d="M64 399 L64 331 L476 331 L476 399 L64 399 Z M64 219 L64 151 L476 151 L476 219 L64 219 Z " />
<glyph glyph-name="greater" unicode="&#x3e;" horiz-adv-x="540" d="M68 496 L68 423 L411 275 L411 273 L68 125 L68 52 L488 241 L488 307 L68 496 Z " />
<glyph glyph-name="question" unicode="&#x3f;" horiz-adv-x="479" d="M231 665 C172 665 104 656 46 641 L54 578 C119 591 167 597 231 597 C314 597 346 575 346 513 C346 456 332 440 263 407 C179 367 142 337 153 258 L163 184 L225 184 L225 251 C225 298 242 321 306 351 C387 389 425 414 425 514 C425 612 373 665 231 665 L231 665 Z M196 92 C150 92 148 90 148 44 C148 -2 150 -4 196 -4 C242 -4 244 -2 244 44 C244 90 242 92 196 92 L196 92 Z " />
<glyph glyph-name="at" unicode="&#x40;" horiz-adv-x="726" d="M642 361 C642 485 536 501 375 501 C191 501 74 453 74 149 C74 -155 191 -203 375 -203 C464 -203 542 -193 631 -173 L624 -116 C523 -135 451 -141 375 -141 C226 -141 153 -92 153 149 C153 389 226 439 375 439 C533 439 564 425 564 356 L564 303 L422 283 C336 271 266 242 266 134 C266 35 333 -9 409 -9 C473 -9 526 12 574 50 L588 0 L642 0 L642 361 Z M564 97 C529 73 482 56 424 56 C374 56 343 80 343 134 C343 190 366 215 431 224 L564 243 L564 97 Z " />
<glyph glyph-name="A" unicode="A" horiz-adv-x="588" d="M566 0 L346 656 L242 656 L22 0 L106 0 L156 154 L432 154 L482 0 L566 0 Z M179 226 L255 462 C275 526 292 582 292 582 L296 582 C296 582 313 526 333 462 L409 226 L179 226 Z " />
<glyph glyph-name="B" unicode="B" horiz-adv-x="577" d="M424 333 C466 343 514 390 514 475 C514 599 447 656 324 656 L80 656 L80 0 L324 0 C456 0 528 40 528 183 C528 284 473 324 424 331 L424 333 Z M160 72 L160 294 L324 294 C418 294 444 261 444 183 C444 104 418 72 324 72 L160 72 Z M324 584 C399 584 432 553 432 475 C432 397 399 366 324 366 L160 366 L160 584 L324 584 Z " />
<glyph glyph-name="C" unicode="C" horiz-adv-x="535" d="M305 61 C186 61 144 126 144 328 C144 530 186 595 305 595 C351 595 406 590 469 578 L477 641 C417 657 356 665 305 665 C141 665 56 585 56 328 C56 71 141 -9 305 -9 C356 -9 417 -1 477 15 L469 78 C406 66 351 61 305 61 L305 61 Z " />
<glyph glyph-name="D" unicode="D" horiz-adv-x="599" d="M80 656 L80 0 L260 0 C406 0 543 23 543 328 C543 633 406 656 260 656 L80 656 Z M160 72 L160 584 C394 588 457 593 457 328 C457 107 412 72 260 72 L160 72 Z " />
<glyph glyph-name="E" unicode="E" horiz-adv-x="534" d="M476 656 L80 656 L80 0 L482 0 L482 72 L160 72 L160 295 L452 295 L452 367 L160 367 L160 584 L476 584 L476 656 Z " />
<glyph glyph-name="F" unicode="F" horiz-adv-x="516" d="M160 287 L448 287 L448 359 L160 359 L160 584 L472 584 L472 656 L80 656 L80 0 L160 0 L160 287 Z " />
<glyph glyph-name="G" unicode="G" horiz-adv-x="596" d="M309 348 L309 276 L450 276 L450 77 C402 65 367 61 309 61 C187 61 144 124 144 328 C144 532 187 595 309 595 C379 595 426 591 507 578 L515 641 C436 659 373 665 309 665 C141 665 56 583 56 328 C56 73 141 -9 309 -9 C387 -9 464 5 528 25 L528 348 L309 348 Z " />
<glyph glyph-name="H" unicode="H" horiz-adv-x="620" d="M460 656 L460 367 L160 367 L160 656 L80 656 L80 0 L160 0 L160 295 L460 295 L460 0 L540 0 L540 656 L460 656 Z " />
<glyph glyph-name="I" unicode="I" horiz-adv-x="264" d="M172 656 L92 656 L92 0 L172 0 L172 656 Z " />
<glyph glyph-name="J" unicode="J" horiz-adv-x="394" d="M236 656 L236 183 C236 88 211 64 130 64 C101 64 62 71 34 77 L26 15 C70 0 111 -6 156 -6 C249 -6 316 37 316 171 L316 656 L236 656 Z " />
<glyph glyph-name="K" unicode="K" horiz-adv-x="573" d="M551 0 L327 332 L543 656 L449 656 L259 367 L160 367 L160 656 L80 656 L80 0 L160 0 L160 295 L261 295 L458 0 L551 0 Z " />
<glyph glyph-name="L" unicode="L" horiz-adv-x="481" d="M80 656 L80 0 L466 0 L466 72 L160 72 L160 656 L80 656 Z " />
<glyph glyph-name="M" unicode="M" horiz-adv-x="748" d="M375 254 L373 254 L186 656 L80 656 L80 0 L160 0 L160 408 C160 479 157 550 157 550 L161 550 C161 550 186 483 215 422 L339 163 L409 163 L533 422 C562 483 587 550 587 550 L591 550 C591 550 588 479 588 408 L588 0 L668 0 L668 656 L562 656 L375 254 Z " />
<glyph glyph-name="N" unicode="N" horiz-adv-x="630" d="M470 656 L470 251 C470 193 474 120 474 120 L470 120 C470 120 442 178 415 226 L167 656 L80 656 L80 0 L160 0 L160 405 C160 463 156 535 156 535 L160 535 C160 535 187 478 215 430 L463 0 L550 0 L550 656 L470 656 Z " />
<glyph glyph-name="O" unicode="O" horiz-adv-x="606" d="M303 669 C135 669 56 583 56 328 C56 73 135 -13 303 -13 C471 -13 550 73 550 328 C550 583 471 669 303 669 L303 669 Z M303 55 C181 55 144 124 144 328 C144 532 181 601 303 601 C425 601 462 532 462 328 C462 124 425 55 303 55 L303 55 Z " />
<glyph glyph-name="P" unicode="P" horiz-adv-x="549" d="M80 656 L80 0 L160 0 L160 242 L301 242 C454 242 514 304 514 446 C514 588 453 656 301 656 L80 656 Z M160 314 L160 584 L301 584 C385 584 431 560 431 446 C431 332 385 314 301 314 L160 314 Z " />
<glyph glyph-name="Q" unicode="Q" horiz-adv-x="606" d="M303 669 C135 669 56 583 56 328 C56 93 122 1 264 -11 L264 -120 L342 -109 L342 -11 C483 1 550 93 550 328 C550 583 471 669 303 669 L303 669 Z M264 180 L264 58 C173 73 144 147 144 328 C144 532 181 601 303 601 C425 601 462 532 462 328 C462 147 433 73 342 58 L342 180 L264 180 Z " />
<glyph glyph-name="R" unicode="R" horiz-adv-x="578" d="M536 0 L422 219 C405 251 395 261 382 269 L382 271 C443 282 514 323 514 459 C514 593 449 656 301 656 L80 656 L80 0 L160 0 L160 262 L261 262 C298 262 313 258 326 235 L445 0 L536 0 Z M160 334 L160 584 L301 584 C397 584 431 548 431 459 C431 370 397 334 301 334 L160 334 Z " />
<glyph glyph-name="S" unicode="S" horiz-adv-x="529" d="M224 374 C169 382 134 402 134 485 C134 571 176 596 265 596 C327 596 376 589 437 579 L445 642 C379 657 312 665 265 665 C126 665 54 622 54 479 C54 353 124 311 211 299 L297 287 C358 278 391 256 391 173 C391 93 362 60 265 60 C206 60 151 67 78 80 L70 16 C145 -2 211 -9 265 -9 C421 -9 473 43 473 180 C473 303 418 347 309 362 L224 374 Z " />
<glyph glyph-name="T" unicode="T" horiz-adv-x="522" d="M500 656 L22 656 L22 584 L221 584 L221 0 L301 0 L301 584 L500 584 L500 656 Z " />
<glyph glyph-name="U" unicode="U" horiz-adv-x="620" d="M542 656 L462 656 L462 222 C462 143 433 61 310 61 C187 61 158 143 158 222 L158 656 L78 656 L78 231 C78 152 101 -10 310 -10 C519 -10 542 152 542 231 L542 656 Z " />
<glyph glyph-name="V" unicode="V" horiz-adv-x="574" d="M466 656 L326 214 C303 141 289 83 289 83 L285 83 C285 83 271 141 248 214 L108 656 L22 656 L239 0 L335 0 L552 656 L466 656 Z " />
<glyph glyph-name="W" unicode="W" horiz-adv-x="820" d="M790 656 L707 656 L627 285 C608 197 595 112 595 112 L591 112 C591 112 573 193 549 285 L453 646 L367 646 L271 285 C247 193 229 112 229 112 L225 112 C225 112 212 197 193 285 L113 656 L30 656 L182 0 L268 0 L378 409 C397 479 409 552 409 552 L411 552 C411 552 423 478 442 409 L552 0 L638 0 L790 656 Z " />
<glyph glyph-name="X" unicode="X" horiz-adv-x="578" d="M546 0 L347 329 L540 656 L449 656 L336 462 C308 413 290 379 290 379 L288 379 C288 379 270 413 242 462 L129 656 L38 656 L230 329 L32 0 L126 0 L239 193 C265 237 288 279 288 279 L290 279 C290 279 313 237 339 193 L452 0 L546 0 Z " />
<glyph glyph-name="Y" unicode="Y" horiz-adv-x="560" d="M454 656 L336 434 C307 379 282 325 282 325 L278 325 C278 325 254 380 225 434 L106 656 L18 656 L240 249 L240 0 L320 0 L320 249 L542 656 L454 656 Z " />
<glyph glyph-name="Z" unicode="Z" horiz-adv-x="550" d="M487 656 L57 656 L57 584 L397 584 L397 582 L53 74 L53 0 L491 0 L491 72 L143 72 L143 74 L487 582 L487 656 Z " />
<glyph glyph-name="bracketleft" unicode="&#x5b;" horiz-adv-x="314" d="M98 -136 L276 -136 L276 -68 L176 -68 L176 676 L276 676 L276 744 L98 744 L98 -136 Z " />
<glyph glyph-name="backslash" unicode="&#x5c;" horiz-adv-x="355" d="M273 -136 L148 744 L82 744 L207 -136 L273 -136 Z " />
<glyph glyph-name="bracketright" unicode="&#x5d;" horiz-adv-x="314" d="M216 744 L38 744 L38 676 L138 676 L138 -68 L38 -68 L38 -136 L216 -136 L216 744 Z " />
<glyph glyph-name="asciicircum" unicode="&#x5e;" horiz-adv-x="476" d="M434 364 L278 696 L198 696 L42 364 L119 364 L191 520 C220 583 236 626 236 626 L240 626 C240 626 256 583 285 520 L357 364 L434 364 Z " />
<glyph glyph-name="underscore" unicode="&#x5f;" horiz-adv-x="381" d="M18 -126 L18 -194 L363 -194 L363 -126 L18 -126 Z " />
<glyph glyph-name="grave" unicode="&#x60;" horiz-adv-x="269" d="M72 696 L147 557 L197 557 L158 696 L72 696 Z " />
<glyph glyph-name="a" unicode="a" horiz-adv-x="490" d="M420 363 C420 473 347 501 253 501 C202 501 131 487 75 465 L82 408 C143 425 200 438 242 438 C306 438 344 423 344 356 L344 303 L200 283 C114 271 45 242 45 134 C45 37 111 -9 187 -9 C251 -9 306 12 354 50 L368 0 L420 0 L420 363 Z M344 97 C309 73 260 56 202 56 C152 56 121 80 121 134 C121 190 144 215 209 224 L344 243 L344 97 Z " />
<glyph glyph-name="b" unicode="b" horiz-adv-x="521" d="M148 395 C148 395 210 430 278 430 C350 430 391 386 391 246 C391 106 350 62 278 62 C210 62 148 97 148 97 L148 395 Z M292 501 C242 501 191 481 148 450 L148 702 L72 691 L72 0 L124 0 L138 50 C173 22 229 -9 292 -9 C394 -9 471 57 471 246 C471 435 394 501 292 501 L292 501 Z " />
<glyph glyph-name="c" unicode="c" horiz-adv-x="441" d="M254 54 C158 54 129 103 129 246 C129 389 158 438 254 438 C301 438 336 433 384 423 L391 480 C341 494 291 501 254 501 C120 501 48 446 48 246 C48 46 120 -9 254 -9 C291 -9 341 -2 391 12 L384 69 C336 59 301 54 254 54 L254 54 Z " />
<glyph glyph-name="d" unicode="d" horiz-adv-x="521" d="M373 97 C373 97 311 62 243 62 C171 62 130 106 130 246 C130 386 171 430 243 430 C311 430 373 395 373 395 L373 97 Z M229 501 C127 501 50 435 50 246 C50 57 127 -9 229 -9 C292 -9 348 22 383 50 L397 0 L449 0 L449 702 L373 691 L373 450 C330 481 279 501 229 501 L229 501 Z " />
<glyph glyph-name="e" unicode="e" horiz-adv-x="486" d="M432 246 C432 425 379 501 243 501 C107 501 50 425 50 246 C50 50 117 -9 256 -9 C304 -9 353 -2 406 12 L399 69 C351 59 312 54 256 54 C168 54 131 95 131 210 L432 210 L432 246 Z M131 272 C131 399 166 440 242 440 C318 440 353 399 353 272 L131 272 Z " />
<glyph glyph-name="f" unicode="f" horiz-adv-x="339" d="M189 591 C189 630 203 643 241 643 C264 643 293 639 313 637 L321 691 C290 699 256 705 222 705 C148 705 113 675 113 598 L113 492 L34 492 L34 426 L113 426 L113 0 L189 0 L189 426 L294 426 L303 492 L189 492 L189 591 Z " />
<glyph glyph-name="g" unicode="g" horiz-adv-x="517" d="M169 183 C182 180 215 177 241 177 C349 177 428 205 428 339 C428 382 420 413 407 435 L493 435 L484 495 L362 478 C328 497 285 501 241 501 C134 501 54 472 54 339 C54 262 82 221 119 201 L99 147 C82 101 97 75 114 60 L93 44 C74 30 40 -10 40 -59 C40 -167 109 -203 257 -203 C405 -203 474 -167 474 -59 C474 33 424 69 323 79 L214 90 C165 95 156 109 163 148 L169 183 Z M313 15 C367 10 399 -3 399 -59 C399 -118 369 -143 257 -143 C145 -143 115 -118 115 -59 C115 -12 127 12 155 36 C166 32 182 28 210 25 L313 15 Z M241 235 C153 235 128 263 128 339 C128 415 153 443 241 443 C329 443 354 415 354 339 C354 263 329 235 241 235 L241 235 Z " />
<glyph glyph-name="h" unicode="h" horiz-adv-x="522" d="M148 702 L72 691 L72 0 L148 0 L148 395 C148 395 208 430 290 430 C347 430 376 408 376 344 L376 0 L452 0 L452 352 C452 440 412 501 302 501 C243 501 190 479 148 449 L148 702 Z " />
<glyph glyph-name="i" unicode="i" horiz-adv-x="240" d="M158 492 L82 492 L82 0 L158 0 L158 492 Z M120 680 C79 680 77 678 77 637 C77 596 79 594 120 594 C161 594 163 596 163 637 C163 678 161 680 120 680 L120 680 Z " />
<glyph glyph-name="j" unicode="j" horiz-adv-x="240" d="M161 492 L85 492 L85 0 C85 -59 81 -107 56 -191 L113 -200 C144 -140 161 -83 161 0 L161 492 Z M123 680 C82 680 80 678 80 637 C80 596 82 594 123 594 C164 594 166 596 166 637 C166 678 164 680 123 680 L123 680 Z " />
<glyph glyph-name="k" unicode="k" horiz-adv-x="482" d="M464 0 L290 264 L454 492 L363 492 L226 299 L148 299 L148 702 L72 691 L72 0 L148 0 L148 229 L226 229 L373 0 L464 0 Z " />
<glyph glyph-name="l" unicode="l" horiz-adv-x="271" d="M187 57 C159 57 148 69 148 104 L148 702 L72 691 L72 94 C72 29 104 -4 164 -4 C189 -4 211 -1 234 8 L227 62 C214 59 198 57 187 57 L187 57 Z " />
<glyph glyph-name="m" unicode="m" horiz-adv-x="762" d="M399 443 C389 464 358 501 288 501 C230 501 168 470 137 443 L124 492 L72 492 L72 0 L148 0 L148 396 C178 416 228 430 272 430 C330 430 344 397 344 324 L344 0 L420 0 L420 353 C420 369 418 385 416 396 C450 416 499 430 543 430 C601 430 616 397 616 324 L616 0 L692 0 L692 353 C692 457 643 501 559 501 C487 501 432 467 399 443 L399 443 Z " />
<glyph glyph-name="n" unicode="n" horiz-adv-x="522" d="M125 492 L72 492 L72 0 L148 0 L148 395 C148 395 208 430 290 430 C347 430 376 408 376 344 L376 0 L452 0 L452 352 C452 440 412 501 302 501 C239 501 183 475 139 442 L125 492 Z " />
<glyph glyph-name="o" unicode="o" horiz-adv-x="508" d="M254 504 C121 504 48 448 48 246 C48 44 121 -12 254 -12 C387 -12 460 44 460 246 C460 448 387 504 254 504 L254 504 Z M254 50 C152 50 129 102 129 246 C129 390 152 442 254 442 C356 442 379 390 379 246 C379 102 356 50 254 50 L254 50 Z " />
<glyph glyph-name="p" unicode="p" horiz-adv-x="520" d="M148 395 C148 395 210 430 278 430 C350 430 391 386 391 246 C391 106 350 62 278 62 C210 62 148 97 148 97 L148 395 Z M292 -9 C394 -9 471 57 471 246 C471 435 394 501 292 501 C229 501 173 470 138 442 L124 492 L72 492 L72 -200 L148 -189 L148 42 C191 11 242 -9 292 -9 L292 -9 Z " />
<glyph glyph-name="q" unicode="q" horiz-adv-x="521" d="M373 97 C373 97 311 62 243 62 C171 62 130 106 130 246 C130 386 171 430 243 430 C311 430 373 395 373 395 L373 97 Z M229 -9 C279 -9 330 11 373 42 L373 -200 L449 -189 L449 492 L397 492 L383 442 C348 470 292 501 229 501 C127 501 50 435 50 246 C50 57 127 -9 229 -9 L229 -9 Z " />
<glyph glyph-name="r" unicode="r" horiz-adv-x="329" d="M294 501 C229 501 171 472 139 437 L124 492 L72 492 L72 0 L148 0 L149 392 C181 412 238 424 294 424 L294 501 Z " />
<glyph glyph-name="s" unicode="s" horiz-adv-x="451" d="M123 362 C123 422 152 439 219 439 C270 439 319 432 372 422 L379 479 C320 494 266 501 219 501 C119 501 52 473 52 360 C52 266 102 232 171 222 L263 209 C307 203 326 183 326 132 C326 77 303 54 219 54 C174 54 130 59 69 71 L61 13 C108 -2 186 -9 219 -9 C374 -9 399 49 399 131 C399 216 373 263 274 277 L182 290 C139 296 123 321 123 362 L123 362 Z " />
<glyph glyph-name="t" unicode="t" horiz-adv-x="373" d="M183 426 L331 426 L340 492 L183 492 L183 634 L107 622 L107 492 L28 492 L28 426 L107 426 L107 116 C107 29 149 -4 226 -4 C263 -4 298 2 330 12 L322 66 C293 60 276 57 252 57 C205 57 183 72 183 116 L183 426 Z " />
<glyph glyph-name="u" unicode="u" horiz-adv-x="522" d="M397 0 L450 0 L450 492 L374 492 L374 97 C374 97 314 62 232 62 C175 62 146 85 146 148 L146 492 L70 492 L70 140 C70 52 110 -9 220 -9 C283 -9 339 17 383 50 L397 0 Z " />
<glyph glyph-name="v" unicode="v" horiz-adv-x="480" d="M378 492 L277 199 C255 134 242 82 242 82 L238 82 C238 82 225 134 203 199 L102 492 L20 492 L201 0 L279 0 L460 492 L378 492 Z " />
<glyph glyph-name="w" unicode="w" horiz-adv-x="686" d="M583 492 L515 206 C501 147 492 92 492 92 L488 92 C488 92 476 151 461 206 L384 490 L302 490 L225 206 C210 151 198 92 198 92 L194 92 C194 92 185 147 171 206 L103 492 L23 492 L155 0 L233 0 L316 295 C330 345 342 406 342 406 L344 406 C344 406 356 345 370 295 L453 0 L531 0 L663 492 L583 492 Z " />
<glyph glyph-name="x" unicode="x" horiz-adv-x="476" d="M447 492 L359 492 L276 362 C258 333 239 300 239 300 L237 300 C237 300 218 333 200 362 L117 492 L29 492 L187 254 L27 0 L113 0 L203 147 C222 178 237 208 237 208 L239 208 C239 208 254 178 273 147 L363 0 L449 0 L289 254 L447 492 Z " />
<glyph glyph-name="y" unicode="y" horiz-adv-x="480" d="M378 492 L277 199 C255 134 242 82 242 82 L238 82 C238 82 225 134 203 199 L102 492 L20 492 L201 0 L191 -34 C168 -111 145 -130 75 -138 L84 -203 C197 -193 220 -163 266 -36 L279 0 L460 492 L378 492 Z " />
<glyph glyph-name="z" unicode="z" horiz-adv-x="452" d="M133 66 L133 68 L401 428 L401 492 L49 492 L49 426 L315 426 L315 424 L47 64 L47 0 L403 0 L403 66 L133 66 Z " />
<glyph glyph-name="braceleft" unicode="&#x7b;" horiz-adv-x="347" d="M131 -40 C131 -105 175 -136 230 -136 L309 -136 L309 -68 L252 -68 C220 -68 209 -56 209 -32 L209 178 C209 267 182 293 149 303 L149 305 C182 315 209 341 209 430 L209 640 C209 664 220 676 252 676 L309 676 L309 744 L230 744 C175 744 131 713 131 648 L131 430 C131 350 116 337 52 337 L52 271 C116 271 131 258 131 178 L131 -40 Z " />
<glyph glyph-name="bar" unicode="&#x7c;" horiz-adv-x="250" d="M92 -136 L158 -136 L158 744 L92 744 L92 -136 Z " />
<glyph glyph-name="braceright" unicode="&#x7d;" horiz-adv-x="347" d="M216 648 C216 713 172 744 117 744 L38 744 L38 676 L95 676 C127 676 138 664 138 640 L138 430 C138 341 165 315 198 305 L198 303 C165 293 138 267 138 178 L138 -32 C138 -56 127 -68 95 -68 L38 -68 L38 -136 L117 -136 C172 -136 216 -105 216 -40 L216 178 C216 258 231 271 295 271 L295 337 C231 337 216 350 216 430 L216 648 Z " />
<glyph glyph-name="asciitilde" unicode="&#x7e;" horiz-adv-x="474" d="M357 347 C354 330 344 305 333 298 C323 292 310 291 290 299 L203 334 C178 344 151 350 123 342 C89 331 59 303 52 229 L118 219 C121 236 130 261 141 268 C151 274 164 275 184 267 L271 232 C296 222 323 216 351 224 C385 235 415 263 422 337 L357 347 Z " />
<glyph glyph-name="nbspace" unicode="&#xa0;" horiz-adv-x="236" d="" />
<glyph glyph-name="exclamdown" unicode="&#xa1;" horiz-adv-x="272" d="M179 153 L165 308 L107 308 L93 153 L93 -164 L179 -164 L179 153 Z M136 400 C182 400 184 402 184 448 C184 494 182 496 136 496 C90 496 88 494 88 448 C88 402 90 400 136 400 L136 400 Z " />
<glyph glyph-name="cent" unicode="&#xa2;" horiz-adv-x="441" d="M254 54 C158 54 129 103 129 246 C129 389 158 438 254 438 C301 438 336 433 384 423 L391 480 C354 490 318 496 287 499 L287 612 L221 603 L221 500 C108 491 48 429 48 246 C48 63 108 1 221 -8 L221 -120 L287 -111 L287 -7 C318 -4 354 2 391 12 L384 69 C336 59 301 54 254 54 L254 54 Z " />
<glyph glyph-name="sterling" unicode="&#xa3;" horiz-adv-x="551" d="M425 295 L434 361 L217 361 L217 471 C217 562 247 595 338 595 C381 595 430 589 486 578 L494 641 C440 655 381 665 338 665 C225 665 137 634 137 477 L137 361 L46 361 L46 295 L137 295 L137 72 L46 72 L46 0 L509 0 L509 72 L217 72 L217 295 L425 295 Z " />
<glyph glyph-name="currency" unicode="&#xa4;" horiz-adv-x="684" d="M562 37 L622 97 L525 194 C540 224 548 265 548 317 C548 369 540 409 525 440 L622 537 L562 597 L464 499 C433 514 392 521 342 521 C291 521 251 514 219 499 L122 597 L62 537 L159 440 C143 409 136 369 136 317 C136 265 143 224 159 194 L62 97 L122 37 L219 134 C251 119 291 113 342 113 C392 113 433 119 464 134 L562 37 Z M342 177 C249 177 216 207 216 317 C216 427 249 457 342 457 C435 457 468 427 468 317 C468 207 435 177 342 177 L342 177 Z " />
<glyph glyph-name="yen" unicode="&#xa5;" horiz-adv-x="568" d="M458 656 L340 434 C311 379 286 325 286 325 L282 325 C282 325 258 380 229 434 L110 656 L22 656 L147 427 L75 427 L67 371 L177 371 L224 285 L75 285 L67 229 L244 229 L244 0 L324 0 L324 229 L493 229 L501 285 L343 285 L390 371 L493 371 L501 427 L421 427 L546 656 L458 656 Z " />
<glyph glyph-name="brokenbar" unicode="&#xa6;" horiz-adv-x="250" d="M92 -136 L158 -136 L158 253 L92 253 L92 -136 Z M92 355 L158 355 L158 744 L92 744 L92 355 Z " />
<glyph glyph-name="section" unicode="&#xa7;" horiz-adv-x="488" d="M137 527 C137 582 160 602 244 602 C295 602 343 594 396 584 L403 641 C344 656 291 664 244 664 C89 664 66 609 66 527 C66 477 82 454 120 413 C87 399 48 369 48 249 C48 87 116 67 244 67 C271 67 302 69 302 69 C318 54 351 22 351 -26 C351 -80 328 -100 244 -100 C199 -100 153 -94 92 -82 L85 -139 C132 -154 211 -162 244 -162 C399 -162 422 -107 422 -26 C422 30 393 60 368 85 C401 99 440 129 440 249 C440 411 372 431 244 431 C225 431 207 431 186 429 C148 470 137 498 137 527 L137 527 Z M244 127 C150 127 124 145 124 249 C124 353 150 371 244 371 C338 371 364 353 364 249 C364 145 338 127 244 127 L244 127 Z " />
<glyph glyph-name="dieresis" unicode="&#xa8;" horiz-adv-x="414" d="M116 680 C74 680 72 678 72 636 C72 594 74 592 116 592 C158 592 160 594 160 636 C160 678 158 680 116 680 L116 680 Z M298 680 C256 680 254 678 254 636 C254 594 256 592 298 592 C340 592 342 594 342 636 C342 678 340 680 298 680 L298 680 Z " />
<glyph glyph-name="copyright" unicode="&#xa9;" horiz-adv-x="776" d="M389 668 C181 668 58 546 58 328 C58 110 182 -12 389 -12 C595 -12 718 110 718 328 C718 546 595 668 389 668 L389 668 Z M389 39 C214 39 114 140 114 328 C114 516 214 617 389 617 C562 617 661 516 661 328 C661 140 562 39 389 39 L389 39 Z M391 187 C329 187 298 223 298 327 C298 431 328 467 391 467 C435 467 464 463 505 455 L512 507 C467 518 420 523 391 523 C292 523 227 481 227 327 C227 173 292 131 391 131 C420 131 467 136 512 147 L505 199 C464 191 435 187 391 187 L391 187 Z " />
<glyph glyph-name="ordfeminine" unicode="&#xaa;" horiz-adv-x="354" d="M296 569 C296 642 252 662 181 662 C149 662 99 653 58 638 L64 591 C105 603 150 610 174 610 C209 610 234 608 234 564 L234 534 L149 522 C79 512 40 490 40 415 C40 349 91 322 135 322 C180 322 208 332 242 360 L250 328 L296 328 L296 569 Z M234 401 C234 401 203 374 153 374 C122 374 102 385 102 419 C102 452 113 467 157 473 L234 484 L234 401 Z " />
<glyph glyph-name="guillemotleft" unicode="&#xab;" horiz-adv-x="482" d="M249 274 L345 82 L410 92 L330 274 L410 456 L345 466 L249 274 Z M66 274 L162 82 L227 92 L147 274 L227 456 L162 466 L66 274 Z " />
<glyph glyph-name="logicalnot" unicode="&#xac;" horiz-adv-x="540" d="M64 308 L64 240 L404 240 L404 79 L476 79 L476 308 L64 308 Z " />
<glyph glyph-name="registered" unicode="&#xae;" horiz-adv-x="776" d="M389 668 C181 668 58 546 58 328 C58 110 182 -12 389 -12 C595 -12 718 110 718 328 C718 546 595 668 389 668 L389 668 Z M389 39 C214 39 114 140 114 328 C114 516 214 617 389 617 C562 617 661 516 661 328 C661 140 562 39 389 39 L389 39 Z M547 136 L486 259 C476 277 470 285 463 290 L463 291 C497 300 536 322 536 400 C536 484 490 518 403 518 L266 518 L266 136 L325 136 L326 282 L385 282 C401 282 409 278 416 266 L480 136 L547 136 Z M326 335 L326 465 L403 465 C461 465 474 444 474 400 C474 356 461 335 403 335 L326 335 Z " />
<glyph glyph-name="macron" unicode="&#xaf;" horiz-adv-x="406" d="M72 665 L72 607 L334 607 L334 665 L72 665 Z " />
<glyph glyph-name="degree" unicode="&#xb0;" horiz-adv-x="428" d="M84 538 C84 461 137 408 214 408 C291 408 344 461 344 538 C344 615 291 668 214 668 C137 668 84 615 84 538 L84 538 Z M134 538 C134 586 166 621 214 621 C262 621 294 586 294 538 C294 490 262 455 214 455 C166 455 134 490 134 538 L134 538 Z " />
<glyph glyph-name="plusminus" unicode="&#xb1;" horiz-adv-x="540" d="M306 360 L306 474 L234 474 L234 360 L64 360 L64 292 L234 292 L234 178 L306 178 L306 292 L476 292 L476 360 L306 360 Z M64 142 L64 74 L476 74 L476 142 L64 142 Z " />
<glyph glyph-name="twosuperior" unicode="&#xb2;" horiz-adv-x="332" d="M104 344 C104 389 113 405 187 447 C275 497 286 514 286 568 C286 639 242 662 162 662 C133 662 91 658 47 647 L55 597 C98 604 125 608 162 608 C206 608 225 597 225 568 C225 535 214 526 144 488 C57 440 42 410 42 336 L42 288 L284 288 L284 344 L104 344 Z " />
<glyph glyph-name="threesuperior" unicode="&#xb3;" horiz-adv-x="326" d="M226 474 C259 487 273 509 273 557 C273 642 230 662 148 662 C117 662 80 656 44 647 L51 597 C84 603 117 608 148 608 C195 608 213 598 213 555 C213 512 195 502 148 502 L107 502 L107 446 L148 446 C199 446 216 436 216 391 C216 346 199 336 148 336 C118 336 88 339 49 346 L42 296 C79 287 121 282 148 282 C229 282 278 297 278 389 C278 439 264 463 226 473 L226 474 Z " />
<glyph glyph-name="acute" unicode="&#xb4;" horiz-adv-x="269" d="M111 696 L72 557 L122 557 L197 696 L111 696 Z " />
<glyph glyph-name="micro" unicode="&#xb5;" horiz-adv-x="524" d="M399 0 L452 0 L452 492 L376 492 L376 97 C376 97 316 62 234 62 C181 62 148 82 148 139 L148 492 L72 492 L72 -200 L148 -189 L148 15 C161 2 193 -9 222 -9 C285 -9 341 17 385 50 L399 0 Z " />
<glyph glyph-name="paragraph" unicode="&#xb6;" horiz-adv-x="545" d="M463 656 L259 656 C118 656 46 610 46 449 C46 303 106 253 225 245 L225 -200 L301 -189 L301 244 L387 244 L387 -200 L463 -189 L463 656 Z M123 450 C123 563 165 590 259 590 L387 590 L387 310 L259 310 C164 310 123 337 123 450 L123 450 Z " />
<glyph glyph-name="periodcentered" unicode="&#xb7;" horiz-adv-x="250" d="M125 324 C77 324 75 322 75 274 C75 226 77 224 125 224 C173 224 175 226 175 274 C175 322 173 324 125 324 L125 324 Z " />
<glyph glyph-name="cedilla" unicode="&#xb8;" horiz-adv-x="234" d="M95 9 L72 -157 L123 -166 L162 9 L95 9 Z " />
<glyph glyph-name="onesuperior" unicode="&#xb9;" horiz-adv-x="290" d="M48 288 L262 288 L262 344 L187 344 L187 661 L36 639 L41 590 L125 590 L125 344 L48 344 L48 288 Z " />
<glyph glyph-name="ordmasculine" unicode="&#xba;" horiz-adv-x="363" d="M181 662 C92 662 40 627 40 492 C40 357 92 322 181 322 C270 322 323 357 323 492 C323 627 270 662 181 662 L181 662 Z M181 371 C125 371 106 399 106 492 C106 584 125 613 181 613 C237 613 257 585 257 492 C257 399 237 371 181 371 L181 371 Z " />
<glyph glyph-name="guillemotright" unicode="&#xbb;" horiz-adv-x="482" d="M233 274 L137 466 L72 456 L152 274 L72 92 L137 82 L233 274 Z M416 274 L320 466 L255 456 L335 274 L255 92 L320 82 L416 274 Z " />
<glyph glyph-name="onequarter" unicode="&#xbc;" horiz-adv-x="800" d="M645 204 L645 123 L535 123 L535 125 L633 365 L569 373 L469 121 L469 67 L645 67 L645 0 L707 0 L707 67 L770 67 L770 123 L707 123 L707 204 L645 204 Z M258 0 L633 656 L566 656 L190 0 L258 0 Z M52 288 L266 288 L266 344 L191 344 L191 661 L40 639 L45 590 L129 590 L129 344 L52 344 L52 288 Z " />
<glyph glyph-name="onehalf" unicode="&#xbd;" horiz-adv-x="816" d="M258 0 L633 656 L566 656 L190 0 L258 0 Z M52 288 L266 288 L266 344 L191 344 L191 661 L40 639 L45 590 L129 590 L129 344 L52 344 L52 288 Z M592 56 C592 101 601 117 675 159 C763 209 774 226 774 280 C774 351 730 374 650 374 C621 374 579 370 535 359 L543 309 C586 316 613 320 650 320 C694 320 713 309 713 280 C713 247 702 238 632 200 C545 152 530 122 530 48 L530 0 L772 0 L772 56 L592 56 Z " />
<glyph glyph-name="threequarters" unicode="&#xbe;" horiz-adv-x="828" d="M673 204 L673 123 L563 123 L563 125 L661 365 L597 373 L497 121 L497 67 L673 67 L673 0 L735 0 L735 67 L798 67 L798 123 L735 123 L735 204 L673 204 Z M265 0 L640 656 L573 656 L197 0 L265 0 Z M238 474 C271 487 285 509 285 557 C285 642 242 662 160 662 C129 662 92 656 56 647 L63 597 C96 603 129 608 160 608 C207 608 225 598 225 555 C225 512 207 502 160 502 L119 502 L119 446 L160 446 C211 446 228 436 228 391 C228 346 211 336 160 336 C130 336 100 339 61 346 L54 296 C91 287 133 282 160 282 C241 282 290 297 290 389 C290 439 276 463 238 473 L238 474 Z " />
<glyph glyph-name="questiondown" unicode="&#xbf;" horiz-adv-x="479" d="M248 -171 C307 -171 375 -162 433 -147 L425 -84 C360 -97 312 -103 248 -103 C165 -103 133 -81 133 -19 C133 38 147 54 216 87 C300 127 337 157 326 236 L316 310 L254 310 L254 243 C254 196 237 173 173 143 C92 105 54 80 54 -20 C54 -118 106 -171 248 -171 L248 -171 Z M283 402 C329 402 331 404 331 450 C331 496 329 498 283 498 C237 498 235 496 235 450 C235 404 237 402 283 402 L283 402 Z " />
<glyph glyph-name="Agrave" unicode="&#xc0;" horiz-adv-x="588" d="M566 0 L346 656 L242 656 L22 0 L106 0 L156 154 L432 154 L482 0 L566 0 Z M179 226 L255 462 C275 526 292 582 292 582 L296 582 C296 582 313 526 333 462 L409 226 L179 226 Z M189 866 L264 727 L314 727 L275 866 L189 866 Z " />
<glyph glyph-name="Aacute" unicode="&#xc1;" horiz-adv-x="588" d="M566 0 L346 656 L242 656 L22 0 L106 0 L156 154 L432 154 L482 0 L566 0 Z M179 226 L255 462 C275 526 292 582 292 582 L296 582 C296 582 313 526 333 462 L409 226 L179 226 Z M311 866 L272 727 L322 727 L397 866 L311 866 Z " />
<glyph glyph-name="Acircumflex" unicode="&#xc2;" horiz-adv-x="588" d="M566 0 L346 656 L242 656 L22 0 L106 0 L156 154 L432 154 L482 0 L566 0 Z M179 226 L255 462 C275 526 292 582 292 582 L296 582 C296 582 313 526 333 462 L409 226 L179 226 Z M436 761 L327 866 L261 866 L152 761 L200 734 L293 817 L295 817 L388 734 L436 761 Z " />
<glyph glyph-name="Atilde" unicode="&#xc3;" horiz-adv-x="588" d="M566 0 L346 656 L242 656 L22 0 L106 0 L156 154 L432 154 L482 0 L566 0 Z M179 226 L255 462 C275 526 292 582 292 582 L296 582 C296 582 313 526 333 462 L409 226 L179 226 Z M394 856 C391 834 384 819 374 814 C368 811 357 808 338 816 L266 845 C245 853 222 856 200 849 C174 841 151 818 142 758 L194 750 C197 772 204 787 214 792 C220 795 231 798 250 790 L322 761 C343 753 366 750 388 757 C414 765 437 788 446 848 L394 856 Z " />
<glyph glyph-name="Adieresis" unicode="&#xc4;" horiz-adv-x="588" d="M566 0 L346 656 L242 656 L22 0 L106 0 L156 154 L432 154 L482 0 L566 0 Z M179 226 L255 462 C275 526 292 582 292 582 L296 582 C296 582 313 526 333 462 L409 226 L179 226 Z M203 850 C161 850 159 848 159 806 C159 764 161 762 203 762 C245 762 247 764 247 806 C247 848 245 850 203 850 L203 850 Z M385 850 C343 850 341 848 341 806 C341 764 343 762 385 762 C427 762 429 764 429 806 C429 848 427 850 385 850 L385 850 Z " />
<glyph glyph-name="Aring" unicode="&#xc5;" horiz-adv-x="588" d="M566 0 L346 656 L242 656 L22 0 L106 0 L156 154 L432 154 L482 0 L566 0 Z M179 226 L255 462 C275 526 292 582 292 582 L296 582 C296 582 313 526 333 462 L409 226 L179 226 Z M294 880 C335 880 343 868 343 822 C343 776 335 762 294 762 C253 762 245 776 245 822 C245 868 253 880 294 880 L294 880 Z M294 919 C222 919 195 888 195 822 C195 756 222 723 294 723 C366 723 393 756 393 822 C393 888 366 919 294 919 L294 919 Z " />
<glyph glyph-name="AE" unicode="&#xc6;" horiz-adv-x="940" d="M880 656 L450 656 L8 0 L107 0 L206 151 L484 151 L484 0 L886 0 L886 72 L564 72 L564 295 L856 295 L856 367 L564 367 L564 584 L880 584 L880 656 Z M253 223 L420 476 C458 533 480 576 480 576 L484 576 L484 223 L253 223 Z " />
<glyph glyph-name="Ccedilla" unicode="&#xc7;" horiz-adv-x="535" d="M305 61 C186 61 144 126 144 328 C144 530 186 595 305 595 C351 595 406 590 469 578 L477 641 C417 657 356 665 305 665 C141 665 56 585 56 328 C56 99 123 10 254 -6 L233 -157 L284 -166 L319 -9 C367 -7 422 0 477 15 L469 78 C406 66 351 61 305 61 L305 61 Z " />
<glyph glyph-name="Egrave" unicode="&#xc8;" horiz-adv-x="534" d="M476 656 L80 656 L80 0 L482 0 L482 72 L160 72 L160 295 L452 295 L452 367 L160 367 L160 584 L476 584 L476 656 Z M171 866 L246 727 L296 727 L257 866 L171 866 Z " />
<glyph glyph-name="Eacute" unicode="&#xc9;" horiz-adv-x="534" d="M476 656 L80 656 L80 0 L482 0 L482 72 L160 72 L160 295 L452 295 L452 367 L160 367 L160 584 L476 584 L476 656 Z M293 866 L254 727 L304 727 L379 866 L293 866 Z " />
<glyph glyph-name="Ecircumflex" unicode="&#xca;" horiz-adv-x="534" d="M476 656 L80 656 L80 0 L482 0 L482 72 L160 72 L160 295 L452 295 L452 367 L160 367 L160 584 L476 584 L476 656 Z M422 761 L313 866 L247 866 L138 761 L186 734 L279 817 L281 817 L374 734 L422 761 Z " />
<glyph glyph-name="Edieresis" unicode="&#xcb;" horiz-adv-x="534" d="M476 656 L80 656 L80 0 L482 0 L482 72 L160 72 L160 295 L452 295 L452 367 L160 367 L160 584 L476 584 L476 656 Z M192 850 C150 850 148 848 148 806 C148 764 150 762 192 762 C234 762 236 764 236 806 C236 848 234 850 192 850 L192 850 Z M374 850 C332 850 330 848 330 806 C330 764 332 762 374 762 C416 762 418 764 418 806 C418 848 416 850 374 850 L374 850 Z " />
<glyph glyph-name="Igrave" unicode="&#xcc;" horiz-adv-x="264" d="M172 656 L92 656 L92 0 L172 0 L172 656 Z M27 866 L102 727 L152 727 L113 866 L27 866 Z " />
<glyph glyph-name="Iacute" unicode="&#xcd;" horiz-adv-x="264" d="M172 656 L92 656 L92 0 L172 0 L172 656 Z M149 866 L110 727 L160 727 L235 866 L149 866 Z " />
<glyph glyph-name="Icircumflex" unicode="&#xce;" horiz-adv-x="264" d="M172 656 L92 656 L92 0 L172 0 L172 656 Z M274 761 L165 866 L99 866 L-10 761 L38 734 L131 817 L133 817 L226 734 L274 761 Z " />
<glyph glyph-name="Idieresis" unicode="&#xcf;" horiz-adv-x="264" d="M172 656 L92 656 L92 0 L172 0 L172 656 Z M41 850 C-1 850 -3 848 -3 806 C-3 764 -1 762 41 762 C83 762 85 764 85 806 C85 848 83 850 41 850 L41 850 Z M223 850 C181 850 179 848 179 806 C179 764 181 762 223 762 C265 762 267 764 267 806 C267 848 265 850 223 850 L223 850 Z " />
<glyph glyph-name="Eth" unicode="&#xd0;" horiz-adv-x="615" d="M96 656 L96 356 L14 356 L14 300 L96 300 L96 0 L276 0 C422 0 559 23 559 328 C559 633 422 656 276 656 L96 656 Z M176 72 L176 300 L292 300 L292 356 L176 356 L176 584 L276 584 C428 584 473 549 473 328 C473 107 428 72 276 72 L176 72 Z " />
<glyph glyph-name="Ntilde" unicode="&#xd1;" horiz-adv-x="630" d="M470 656 L470 251 C470 193 474 120 474 120 L470 120 C470 120 442 178 415 226 L167 656 L80 656 L80 0 L160 0 L160 405 C160 463 156 535 156 535 L160 535 C160 535 187 478 215 430 L463 0 L550 0 L550 656 L470 656 Z M415 856 C412 834 405 819 395 814 C389 811 378 808 359 816 L287 845 C266 853 243 856 221 849 C195 841 172 818 163 758 L215 750 C218 772 225 787 235 792 C241 795 252 798 271 790 L343 761 C364 753 387 750 409 757 C435 765 458 788 467 848 L415 856 Z " />
<glyph glyph-name="Ograve" unicode="&#xd2;" horiz-adv-x="606" d="M303 669 C135 669 56 583 56 328 C56 73 135 -13 303 -13 C471 -13 550 73 550 328 C550 583 471 669 303 669 L303 669 Z M303 55 C181 55 144 124 144 328 C144 532 181 601 303 601 C425 601 462 532 462 328 C462 124 425 55 303 55 L303 55 Z M198 866 L273 727 L323 727 L284 866 L198 866 Z " />
<glyph glyph-name="Oacute" unicode="&#xd3;" horiz-adv-x="606" d="M303 669 C135 669 56 583 56 328 C56 73 135 -13 303 -13 C471 -13 550 73 550 328 C550 583 471 669 303 669 L303 669 Z M303 55 C181 55 144 124 144 328 C144 532 181 601 303 601 C425 601 462 532 462 328 C462 124 425 55 303 55 L303 55 Z M320 866 L281 727 L331 727 L406 866 L320 866 Z " />
<glyph glyph-name="Ocircumflex" unicode="&#xd4;" horiz-adv-x="606" d="M303 669 C135 669 56 583 56 328 C56 73 135 -13 303 -13 C471 -13 550 73 550 328 C550 583 471 669 303 669 L303 669 Z M303 55 C181 55 144 124 144 328 C144 532 181 601 303 601 C425 601 462 532 462 328 C462 124 425 55 303 55 L303 55 Z M445 761 L336 866 L270 866 L161 761 L209 734 L302 817 L304 817 L397 734 L445 761 Z " />
<glyph glyph-name="Otilde" unicode="&#xd5;" horiz-adv-x="606" d="M303 669 C135 669 56 583 56 328 C56 73 135 -13 303 -13 C471 -13 550 73 550 328 C550 583 471 669 303 669 L303 669 Z M303 55 C181 55 144 124 144 328 C144 532 181 601 303 601 C425 601 462 532 462 328 C462 124 425 55 303 55 L303 55 Z M403 856 C400 834 393 819 383 814 C377 811 366 808 347 816 L275 845 C254 853 231 856 209 849 C183 841 160 818 151 758 L203 750 C206 772 213 787 223 792 C229 795 240 798 259 790 L331 761 C352 753 375 750 397 757 C423 765 446 788 455 848 L403 856 Z " />
<glyph glyph-name="Odieresis" unicode="&#xd6;" horiz-adv-x="606" d="M303 669 C135 669 56 583 56 328 C56 73 135 -13 303 -13 C471 -13 550 73 550 328 C550 583 471 669 303 669 L303 669 Z M303 55 C181 55 144 124 144 328 C144 532 181 601 303 601 C425 601 462 532 462 328 C462 124 425 55 303 55 L303 55 Z M215 850 C173 850 171 848 171 806 C171 764 173 762 215 762 C257 762 259 764 259 806 C259 848 257 850 215 850 L215 850 Z M397 850 C355 850 353 848 353 806 C353 764 355 762 397 762 C439 762 441 764 441 806 C441 848 439 850 397 850 L397 850 Z " />
<glyph glyph-name="multiply" unicode="&#xd7;" horiz-adv-x="540" d="M270 322 L115 477 L67 429 L222 274 L67 119 L115 71 L270 226 L425 71 L473 119 L318 274 L473 429 L425 477 L270 322 Z " />
<glyph glyph-name="Oslash" unicode="&#xd8;" horiz-adv-x="606" d="M303 669 C135 669 56 583 56 328 C56 198 76 112 118 59 L47 -66 L109 -66 L159 22 C196 -2 244 -13 303 -13 C471 -13 550 73 550 328 C550 457 529 543 487 596 L559 722 L497 722 L447 634 C409 658 362 669 303 669 L303 669 Z M303 55 C256 55 222 65 197 89 L440 514 C456 471 462 411 462 328 C462 124 425 55 303 55 L303 55 Z M144 328 C144 532 181 601 303 601 C349 601 384 591 408 567 L165 142 C150 184 144 245 144 328 L144 328 Z " />
<glyph glyph-name="Ugrave" unicode="&#xd9;" horiz-adv-x="620" d="M542 656 L462 656 L462 222 C462 143 433 61 310 61 C187 61 158 143 158 222 L158 656 L78 656 L78 231 C78 152 101 -10 310 -10 C519 -10 542 152 542 231 L542 656 Z M205 866 L280 727 L330 727 L291 866 L205 866 Z " />
<glyph glyph-name="Uacute" unicode="&#xda;" horiz-adv-x="620" d="M542 656 L462 656 L462 222 C462 143 433 61 310 61 C187 61 158 143 158 222 L158 656 L78 656 L78 231 C78 152 101 -10 310 -10 C519 -10 542 152 542 231 L542 656 Z M327 866 L288 727 L338 727 L413 866 L327 866 Z " />
<glyph glyph-name="Ucircumflex" unicode="&#xdb;" horiz-adv-x="620" d="M542 656 L462 656 L462 222 C462 143 433 61 310 61 C187 61 158 143 158 222 L158 656 L78 656 L78 231 C78 152 101 -10 310 -10 C519 -10 542 152 542 231 L542 656 Z M452 761 L343 866 L277 866 L168 761 L216 734 L309 817 L311 817 L404 734 L452 761 Z " />
<glyph glyph-name="Udieresis" unicode="&#xdc;" horiz-adv-x="620" d="M542 656 L462 656 L462 222 C462 143 433 61 310 61 C187 61 158 143 158 222 L158 656 L78 656 L78 231 C78 152 101 -10 310 -10 C519 -10 542 152 542 231 L542 656 Z M222 850 C180 850 178 848 178 806 C178 764 180 762 222 762 C264 762 266 764 266 806 C266 848 264 850 222 850 L222 850 Z M404 850 C362 850 360 848 360 806 C360 764 362 762 404 762 C446 762 448 764 448 806 C448 848 446 850 404 850 L404 850 Z " />
<glyph glyph-name="Yacute" unicode="&#xdd;" horiz-adv-x="564" d="M456 656 L338 434 C309 379 284 325 284 325 L280 325 C280 325 256 380 227 434 L108 656 L20 656 L242 249 L242 0 L322 0 L322 249 L544 656 L456 656 Z M299 866 L260 727 L310 727 L385 866 L299 866 Z " />
<glyph glyph-name="Thorn" unicode="&#xde;" horiz-adv-x="549" d="M160 540 L160 656 L80 656 L80 0 L160 0 L160 126 L301 126 C454 126 514 188 514 330 C514 472 453 540 301 540 L160 540 Z M160 198 L160 468 L301 468 C385 468 431 444 431 330 C431 216 385 198 301 198 L160 198 Z " />
<glyph glyph-name="germandbls" unicode="&#xdf;" horiz-adv-x="539" d="M412 174 C412 88 388 51 327 51 C294 51 261 54 223 61 L216 7 C251 -4 291 -9 328 -9 C432 -9 489 41 489 174 C489 302 438 359 342 359 L342 377 C342 404 353 418 386 459 C418 499 434 527 434 566 C434 642 388 705 253 705 C124 705 72 643 72 554 L72 0 L148 0 L148 541 C148 623 194 645 253 645 C323 645 358 619 358 572 C358 541 347 524 324 493 C272 424 267 397 275 340 L281 297 L327 297 C388 297 412 260 412 174 L412 174 Z " />
<glyph glyph-name="agrave" unicode="&#xe0;" horiz-adv-x="490" d="M420 363 C420 473 347 501 253 501 C202 501 131 487 75 465 L82 408 C143 425 200 438 242 438 C306 438 344 423 344 356 L344 303 L200 283 C114 271 45 242 45 134 C45 37 111 -9 187 -9 C251 -9 306 12 354 50 L368 0 L420 0 L420 363 Z M344 97 C309 73 260 56 202 56 C152 56 121 80 121 134 C121 190 144 215 209 224 L344 243 L344 97 Z M141 696 L216 557 L266 557 L227 696 L141 696 Z " />
<glyph glyph-name="aacute" unicode="&#xe1;" horiz-adv-x="490" d="M420 363 C420 473 347 501 253 501 C202 501 131 487 75 465 L82 408 C143 425 200 438 242 438 C306 438 344 423 344 356 L344 303 L200 283 C114 271 45 242 45 134 C45 37 111 -9 187 -9 C251 -9 306 12 354 50 L368 0 L420 0 L420 363 Z M344 97 C309 73 260 56 202 56 C152 56 121 80 121 134 C121 190 144 215 209 224 L344 243 L344 97 Z M263 696 L224 557 L274 557 L349 696 L263 696 Z " />
<glyph glyph-name="acircumflex" unicode="&#xe2;" horiz-adv-x="490" d="M420 363 C420 473 347 501 253 501 C202 501 131 487 75 465 L82 408 C143 425 200 438 242 438 C306 438 344 423 344 356 L344 303 L200 283 C114 271 45 242 45 134 C45 37 111 -9 187 -9 C251 -9 306 12 354 50 L368 0 L420 0 L420 363 Z M344 97 C309 73 260 56 202 56 C152 56 121 80 121 134 C121 190 144 215 209 224 L344 243 L344 97 Z M388 591 L279 696 L213 696 L104 591 L152 564 L245 647 L247 647 L340 564 L388 591 Z " />
<glyph glyph-name="atilde" unicode="&#xe3;" horiz-adv-x="490" d="M420 363 C420 473 347 501 253 501 C202 501 131 487 75 465 L82 408 C143 425 200 438 242 438 C306 438 344 423 344 356 L344 303 L200 283 C114 271 45 242 45 134 C45 37 111 -9 187 -9 C251 -9 306 12 354 50 L368 0 L420 0 L420 363 Z M344 97 C309 73 260 56 202 56 C152 56 121 80 121 134 C121 190 144 215 209 224 L344 243 L344 97 Z M346 686 C343 664 336 649 326 644 C320 641 309 638 290 646 L218 675 C197 683 174 686 152 679 C126 671 103 648 94 588 L146 580 C149 602 156 617 166 622 C172 625 183 628 202 620 L274 591 C295 583 318 580 340 587 C366 595 389 618 398 678 L346 686 Z " />
<glyph glyph-name="adieresis" unicode="&#xe4;" horiz-adv-x="490" d="M420 363 C420 473 347 501 253 501 C202 501 131 487 75 465 L82 408 C143 425 200 438 242 438 C306 438 344 423 344 356 L344 303 L200 283 C114 271 45 242 45 134 C45 37 111 -9 187 -9 C251 -9 306 12 354 50 L368 0 L420 0 L420 363 Z M344 97 C309 73 260 56 202 56 C152 56 121 80 121 134 C121 190 144 215 209 224 L344 243 L344 97 Z M158 680 C116 680 114 678 114 636 C114 594 116 592 158 592 C200 592 202 594 202 636 C202 678 200 680 158 680 L158 680 Z M340 680 C298 680 296 678 296 636 C296 594 298 592 340 592 C382 592 384 594 384 636 C384 678 382 680 340 680 L340 680 Z " />
<glyph glyph-name="aring" unicode="&#xe5;" horiz-adv-x="490" d="M420 363 C420 473 347 501 253 501 C202 501 131 487 75 465 L82 408 C143 425 200 438 242 438 C306 438 344 423 344 356 L344 303 L200 283 C114 271 45 242 45 134 C45 37 111 -9 187 -9 C251 -9 306 12 354 50 L368 0 L420 0 L420 363 Z M344 97 C309 73 260 56 202 56 C152 56 121 80 121 134 C121 190 144 215 209 224 L344 243 L344 97 Z M246 710 C287 710 295 698 295 652 C295 606 287 592 246 592 C205 592 197 606 197 652 C197 698 205 710 246 710 L246 710 Z M246 749 C174 749 147 718 147 652 C147 586 174 553 246 553 C318 553 345 586 345 652 C345 718 318 749 246 749 L246 749 Z " />
<glyph glyph-name="ae" unicode="&#xe6;" horiz-adv-x="771" d="M717 246 C717 425 664 501 528 501 C479 501 427 480 397 447 C368 488 317 501 254 501 C203 501 132 487 76 465 L83 408 C144 425 201 438 243 438 C307 438 341 423 341 356 L341 303 L201 283 C115 271 45 242 45 134 C45 35 118 -9 195 -9 C265 -9 317 12 377 63 L378 63 C410 9 463 -9 541 -9 C589 -9 638 -2 691 12 L684 69 C636 59 597 54 541 54 C458 54 419 95 419 210 L717 210 L717 246 Z M357 110 C319 77 259 56 203 56 C153 56 122 80 122 134 C122 190 145 215 210 224 L341 243 C341 188 345 144 357 110 L357 110 Z M419 272 L419 390 C445 422 489 440 527 440 C603 440 638 399 638 272 L419 272 Z " />
<glyph glyph-name="ccedilla" unicode="&#xe7;" horiz-adv-x="441" d="M254 54 C158 54 129 103 129 246 C129 389 158 438 254 438 C301 438 336 433 384 423 L391 480 C341 494 291 501 254 501 C120 501 48 446 48 246 C48 76 99 11 197 -5 L176 -157 L227 -166 L262 -9 C298 -8 344 -1 391 12 L384 69 C336 59 301 54 254 54 L254 54 Z " />
<glyph glyph-name="egrave" unicode="&#xe8;" horiz-adv-x="486" d="M432 246 C432 425 379 501 243 501 C107 501 50 425 50 246 C50 50 117 -9 256 -9 C304 -9 353 -2 406 12 L399 69 C351 59 312 54 256 54 C168 54 131 95 131 210 L432 210 L432 246 Z M131 272 C131 399 166 440 242 440 C318 440 353 399 353 272 L131 272 Z M138 696 L213 557 L263 557 L224 696 L138 696 Z " />
<glyph glyph-name="eacute" unicode="&#xe9;" horiz-adv-x="486" d="M432 246 C432 425 379 501 243 501 C107 501 50 425 50 246 C50 50 117 -9 256 -9 C304 -9 353 -2 406 12 L399 69 C351 59 312 54 256 54 C168 54 131 95 131 210 L432 210 L432 246 Z M131 272 C131 399 166 440 242 440 C318 440 353 399 353 272 L131 272 Z M260 696 L221 557 L271 557 L346 696 L260 696 Z " />
<glyph glyph-name="ecircumflex" unicode="&#xea;" horiz-adv-x="486" d="M432 246 C432 425 379 501 243 501 C107 501 50 425 50 246 C50 50 117 -9 256 -9 C304 -9 353 -2 406 12 L399 69 C351 59 312 54 256 54 C168 54 131 95 131 210 L432 210 L432 246 Z M131 272 C131 399 166 440 242 440 C318 440 353 399 353 272 L131 272 Z M385 591 L276 696 L210 696 L101 591 L149 564 L242 647 L244 647 L337 564 L385 591 Z " />
<glyph glyph-name="edieresis" unicode="&#xeb;" horiz-adv-x="486" d="M432 246 C432 425 379 501 243 501 C107 501 50 425 50 246 C50 50 117 -9 256 -9 C304 -9 353 -2 406 12 L399 69 C351 59 312 54 256 54 C168 54 131 95 131 210 L432 210 L432 246 Z M131 272 C131 399 166 440 242 440 C318 440 353 399 353 272 L131 272 Z M153 680 C111 680 109 678 109 636 C109 594 111 592 153 592 C195 592 197 594 197 636 C197 678 195 680 153 680 L153 680 Z M335 680 C293 680 291 678 291 636 C291 594 293 592 335 592 C377 592 379 594 379 636 C379 678 377 680 335 680 L335 680 Z " />
<glyph glyph-name="igrave" unicode="&#xec;" horiz-adv-x="240" d="M17 696 L92 557 L142 557 L103 696 L17 696 Z M158 492 L82 492 L82 0 L158 0 L158 492 Z " />
<glyph glyph-name="iacute" unicode="&#xed;" horiz-adv-x="240" d="M139 696 L100 557 L150 557 L225 696 L139 696 Z M158 492 L82 492 L82 0 L158 0 L158 492 Z " />
<glyph glyph-name="icircumflex" unicode="&#xee;" horiz-adv-x="240" d="M262 591 L153 696 L87 696 L-22 591 L26 564 L119 647 L121 647 L214 564 L262 591 Z M158 492 L82 492 L82 0 L158 0 L158 492 Z " />
<glyph glyph-name="idieresis" unicode="&#xef;" horiz-adv-x="240" d="M29 680 C-13 680 -15 678 -15 636 C-15 594 -13 592 29 592 C71 592 73 594 73 636 C73 678 71 680 29 680 L29 680 Z M211 680 C169 680 167 678 167 636 C167 594 169 592 211 592 C253 592 255 594 255 636 C255 678 253 680 211 680 L211 680 Z M158 492 L82 492 L82 0 L158 0 L158 492 Z " />
<glyph glyph-name="eth" unicode="&#xf0;" horiz-adv-x="508" d="M236 554 L336 569 C348 532 357 491 363 449 C324 481 277 501 227 501 C125 501 48 434 48 240 C48 49 120 -12 252 -12 C384 -12 456 49 456 240 C456 394 438 501 409 580 L500 593 L492 643 L389 628 C375 655 359 679 343 700 L282 691 C295 668 307 644 318 617 L228 604 L236 554 Z M376 240 C376 100 340 50 252 50 C164 50 128 100 128 240 C128 380 165 430 241 430 C309 430 368 395 368 395 C374 349 376 306 376 240 L376 240 Z " />
<glyph glyph-name="ntilde" unicode="&#xf1;" horiz-adv-x="522" d="M125 492 L72 492 L72 0 L148 0 L148 395 C148 395 208 430 290 430 C347 430 376 408 376 344 L376 0 L452 0 L452 352 C452 440 412 501 302 501 C239 501 183 475 139 442 L125 492 Z M362 686 C359 664 352 649 342 644 C336 641 325 638 306 646 L234 675 C213 683 190 686 168 679 C142 671 119 648 110 588 L162 580 C165 602 172 617 182 622 C188 625 199 628 218 620 L290 591 C311 583 334 580 356 587 C382 595 405 618 414 678 L362 686 Z " />
<glyph glyph-name="ograve" unicode="&#xf2;" horiz-adv-x="508" d="M254 504 C121 504 48 448 48 246 C48 44 121 -12 254 -12 C387 -12 460 44 460 246 C460 448 387 504 254 504 L254 504 Z M254 50 C152 50 129 102 129 246 C129 390 152 442 254 442 C356 442 379 390 379 246 C379 102 356 50 254 50 L254 50 Z M149 696 L224 557 L274 557 L235 696 L149 696 Z " />
<glyph glyph-name="oacute" unicode="&#xf3;" horiz-adv-x="508" d="M254 504 C121 504 48 448 48 246 C48 44 121 -12 254 -12 C387 -12 460 44 460 246 C460 448 387 504 254 504 L254 504 Z M254 50 C152 50 129 102 129 246 C129 390 152 442 254 442 C356 442 379 390 379 246 C379 102 356 50 254 50 L254 50 Z M271 696 L232 557 L282 557 L357 696 L271 696 Z " />
<glyph glyph-name="ocircumflex" unicode="&#xf4;" horiz-adv-x="508" d="M254 504 C121 504 48 448 48 246 C48 44 121 -12 254 -12 C387 -12 460 44 460 246 C460 448 387 504 254 504 L254 504 Z M254 50 C152 50 129 102 129 246 C129 390 152 442 254 442 C356 442 379 390 379 246 C379 102 356 50 254 50 L254 50 Z M396 591 L287 696 L221 696 L112 591 L160 564 L253 647 L255 647 L348 564 L396 591 Z " />
<glyph glyph-name="otilde" unicode="&#xf5;" horiz-adv-x="508" d="M254 504 C121 504 48 448 48 246 C48 44 121 -12 254 -12 C387 -12 460 44 460 246 C460 448 387 504 254 504 L254 504 Z M254 50 C152 50 129 102 129 246 C129 390 152 442 254 442 C356 442 379 390 379 246 C379 102 356 50 254 50 L254 50 Z M354 686 C351 664 344 649 334 644 C328 641 317 638 298 646 L226 675 C205 683 182 686 160 679 C134 671 111 648 102 588 L154 580 C157 602 164 617 174 622 C180 625 191 628 210 620 L282 591 C303 583 326 580 348 587 C374 595 397 618 406 678 L354 686 Z " />
<glyph glyph-name="odieresis" unicode="&#xf6;" horiz-adv-x="508" d="M254 504 C121 504 48 448 48 246 C48 44 121 -12 254 -12 C387 -12 460 44 460 246 C460 448 387 504 254 504 L254 504 Z M254 50 C152 50 129 102 129 246 C129 390 152 442 254 442 C356 442 379 390 379 246 C379 102 356 50 254 50 L254 50 Z M166 680 C124 680 122 678 122 636 C122 594 124 592 166 592 C208 592 210 594 210 636 C210 678 208 680 166 680 L166 680 Z M348 680 C306 680 304 678 304 636 C304 594 306 592 348 592 C390 592 392 594 392 636 C392 678 390 680 348 680 L348 680 Z " />
<glyph glyph-name="divide" unicode="&#xf7;" horiz-adv-x="540" d="M64 308 L64 240 L476 240 L476 308 L64 308 Z M270 482 C228 482 226 480 226 438 C226 396 228 394 270 394 C312 394 314 396 314 438 C314 480 312 482 270 482 L270 482 Z M270 154 C228 154 226 152 226 110 C226 68 228 66 270 66 C312 66 314 68 314 110 C314 152 312 154 270 154 L270 154 Z " />
<glyph glyph-name="oslash" unicode="&#xf8;" horiz-adv-x="508" d="M45 -66 L107 -66 L148 6 C177 -7 213 -12 254 -12 C387 -12 460 44 460 246 C460 350 441 415 404 454 L463 558 L401 558 L359 485 C330 499 295 504 254 504 C121 504 48 448 48 246 C48 142 67 77 104 38 L45 -66 Z M254 50 C223 50 200 54 182 65 L362 382 C375 351 379 307 379 246 C379 102 356 50 254 50 L254 50 Z M129 246 C129 390 152 442 254 442 C284 442 308 437 326 427 L145 110 C133 141 129 185 129 246 L129 246 Z " />
<glyph glyph-name="ugrave" unicode="&#xf9;" horiz-adv-x="522" d="M397 0 L450 0 L450 492 L374 492 L374 97 C374 97 314 62 232 62 C175 62 146 85 146 148 L146 492 L70 492 L70 140 C70 52 110 -9 220 -9 C283 -9 339 17 383 50 L397 0 Z M155 696 L230 557 L280 557 L241 696 L155 696 Z " />
<glyph glyph-name="uacute" unicode="&#xfa;" horiz-adv-x="522" d="M397 0 L450 0 L450 492 L374 492 L374 97 C374 97 314 62 232 62 C175 62 146 85 146 148 L146 492 L70 492 L70 140 C70 52 110 -9 220 -9 C283 -9 339 17 383 50 L397 0 Z M277 696 L238 557 L288 557 L363 696 L277 696 Z " />
<glyph glyph-name="ucircumflex" unicode="&#xfb;" horiz-adv-x="522" d="M397 0 L450 0 L450 492 L374 492 L374 97 C374 97 314 62 232 62 C175 62 146 85 146 148 L146 492 L70 492 L70 140 C70 52 110 -9 220 -9 C283 -9 339 17 383 50 L397 0 Z M402 591 L293 696 L227 696 L118 591 L166 564 L259 647 L261 647 L354 564 L402 591 Z " />
<glyph glyph-name="udieresis" unicode="&#xfc;" horiz-adv-x="522" d="M397 0 L450 0 L450 492 L374 492 L374 97 C374 97 314 62 232 62 C175 62 146 85 146 148 L146 492 L70 492 L70 140 C70 52 110 -9 220 -9 C283 -9 339 17 383 50 L397 0 Z M172 680 C130 680 128 678 128 636 C128 594 130 592 172 592 C214 592 216 594 216 636 C216 678 214 680 172 680 L172 680 Z M354 680 C312 680 310 678 310 636 C310 594 312 592 354 592 C396 592 398 594 398 636 C398 678 396 680 354 680 L354 680 Z " />
<glyph glyph-name="yacute" unicode="&#xfd;" horiz-adv-x="480" d="M378 492 L277 199 C255 134 242 82 242 82 L238 82 C238 82 225 134 203 199 L102 492 L20 492 L201 0 L191 -34 C168 -111 145 -130 75 -138 L84 -203 C197 -193 220 -163 266 -36 L279 0 L460 492 L378 492 Z M257 696 L218 557 L268 557 L343 696 L257 696 Z " />
<glyph glyph-name="thorn" unicode="&#xfe;" horiz-adv-x="521" d="M292 -9 C394 -9 471 57 471 246 C471 435 394 501 292 501 C242 501 193 481 150 450 L150 702 L72 691 L72 -200 L150 -189 L150 42 C193 11 242 -9 292 -9 L292 -9 Z M150 395 C150 395 210 430 278 430 C350 430 390 386 390 246 C390 106 350 62 278 62 C210 62 150 97 150 97 L150 395 Z " />
<glyph glyph-name="ydieresis" unicode="&#xff;" horiz-adv-x="480" d="M378 492 L277 199 C255 134 242 82 242 82 L238 82 C238 82 225 134 203 199 L102 492 L20 492 L201 0 L191 -34 C168 -111 145 -130 75 -138 L84 -203 C197 -193 220 -163 266 -36 L279 0 L460 492 L378 492 Z M152 680 C110 680 108 678 108 636 C108 594 110 592 152 592 C194 592 196 594 196 636 C196 678 194 680 152 680 L152 680 Z M334 680 C292 680 290 678 290 636 C290 594 292 592 334 592 C376 592 378 594 378 636 C378 678 376 680 334 680 L334 680 Z " />
<glyph glyph-name="Amacron" unicode="&#x100;" horiz-adv-x="588" d="M566 0 L346 656 L242 656 L22 0 L106 0 L156 154 L432 154 L482 0 L566 0 Z M179 226 L255 462 C275 526 292 582 292 582 L296 582 C296 582 313 526 333 462 L409 226 L179 226 Z M163 835 L163 777 L425 777 L425 835 L163 835 Z " />
<glyph glyph-name="amacron" unicode="&#x101;" horiz-adv-x="490" d="M420 363 C420 473 347 501 253 501 C202 501 131 487 75 465 L82 408 C143 425 200 438 242 438 C306 438 344 423 344 356 L344 303 L200 283 C114 271 45 242 45 134 C45 37 111 -9 187 -9 C251 -9 306 12 354 50 L368 0 L420 0 L420 363 Z M344 97 C309 73 260 56 202 56 C152 56 121 80 121 134 C121 190 144 215 209 224 L344 243 L344 97 Z M115 665 L115 607 L377 607 L377 665 L115 665 Z " />
<glyph glyph-name="Abreve" unicode="&#x102;" horiz-adv-x="588" d="M566 0 L346 656 L242 656 L22 0 L106 0 L156 154 L432 154 L482 0 L566 0 Z M179 226 L255 462 C275 526 292 582 292 582 L296 582 C296 582 313 526 333 462 L409 226 L179 226 Z M149 859 C152 813 167 790 182 777 C198 763 229 745 294 745 C359 745 390 763 406 777 C421 790 436 813 439 859 L384 867 C382 847 376 829 368 821 C358 811 342 799 294 799 C246 799 230 811 220 821 C212 829 206 847 204 867 L149 859 Z " />
<glyph glyph-name="abreve" unicode="&#x103;" horiz-adv-x="490" d="M420 363 C420 473 347 501 253 501 C202 501 131 487 75 465 L82 408 C143 425 200 438 242 438 C306 438 344 423 344 356 L344 303 L200 283 C114 271 45 242 45 134 C45 37 111 -9 187 -9 C251 -9 306 12 354 50 L368 0 L420 0 L420 363 Z M344 97 C309 73 260 56 202 56 C152 56 121 80 121 134 C121 190 144 215 209 224 L344 243 L344 97 Z M101 689 C104 643 119 620 134 607 C150 593 181 575 246 575 C311 575 342 593 358 607 C373 620 388 643 391 689 L336 697 C334 677 328 659 320 651 C310 641 294 629 246 629 C198 629 182 641 172 651 C164 659 158 677 156 697 L101 689 Z " />
<glyph glyph-name="Aogonek" unicode="&#x104;" horiz-adv-x="588" d="M566 0 L346 656 L242 656 L22 0 L106 0 L156 154 L432 154 L482 0 L497 0 L458 -29 C419 -57 401 -81 401 -124 C401 -185 444 -202 493 -202 C513 -202 540 -200 561 -195 L556 -147 C536 -150 520 -151 506 -151 C477 -151 462 -144 462 -120 C462 -99 471 -88 504 -57 L566 0 Z M179 226 L255 462 C275 526 292 582 292 582 L296 582 C296 582 313 526 333 462 L409 226 L179 226 Z " />
<glyph glyph-name="aogonek" unicode="&#x105;" horiz-adv-x="490" d="M362 8 L312 -29 C273 -57 255 -81 255 -124 C255 -185 298 -202 347 -202 C367 -202 394 -200 415 -195 L410 -147 C390 -150 374 -151 360 -151 C331 -151 316 -144 316 -120 C316 -99 325 -88 358 -57 L420 0 L420 363 C420 473 347 501 253 501 C202 501 131 487 75 465 L82 408 C143 425 200 438 242 438 C306 438 344 423 344 356 L344 303 L200 283 C114 271 45 242 45 134 C45 37 111 -9 187 -9 C251 -9 306 12 354 50 L366 8 L362 8 Z M344 97 C309 73 260 56 202 56 C152 56 121 80 121 134 C121 190 144 215 209 224 L344 243 L344 97 Z " />
<glyph glyph-name="Cacute" unicode="&#x106;" horiz-adv-x="535" d="M305 61 C186 61 144 126 144 328 C144 530 186 595 305 595 C351 595 406 590 469 578 L477 641 C417 657 356 665 305 665 C141 665 56 585 56 328 C56 71 141 -9 305 -9 C356 -9 417 -1 477 15 L469 78 C406 66 351 61 305 61 L305 61 Z M311 866 L272 727 L322 727 L397 866 L311 866 Z " />
<glyph glyph-name="cacute" unicode="&#x107;" horiz-adv-x="441" d="M254 54 C158 54 129 103 129 246 C129 389 158 438 254 438 C301 438 336 433 384 423 L391 480 C341 494 291 501 254 501 C120 501 48 446 48 246 C48 46 120 -9 254 -9 C291 -9 341 -2 391 12 L384 69 C336 59 301 54 254 54 L254 54 Z M262 696 L223 557 L273 557 L348 696 L262 696 Z " />
<glyph glyph-name="Ccircumflex" unicode="&#x108;" horiz-adv-x="535" d="M305 61 C186 61 144 126 144 328 C144 530 186 595 305 595 C351 595 406 590 469 578 L477 641 C417 657 356 665 305 665 C141 665 56 585 56 328 C56 71 141 -9 305 -9 C356 -9 417 -1 477 15 L469 78 C406 66 351 61 305 61 L305 61 Z M436 761 L327 866 L261 866 L152 761 L200 734 L293 817 L295 817 L388 734 L436 761 Z " />
<glyph glyph-name="ccircumflex" unicode="&#x109;" horiz-adv-x="441" d="M254 54 C158 54 129 103 129 246 C129 389 158 438 254 438 C301 438 336 433 384 423 L391 480 C341 494 291 501 254 501 C120 501 48 446 48 246 C48 46 120 -9 254 -9 C291 -9 341 -2 391 12 L384 69 C336 59 301 54 254 54 L254 54 Z M387 591 L278 696 L212 696 L103 591 L151 564 L244 647 L246 647 L339 564 L387 591 Z " />
<glyph glyph-name="Cdotaccent" unicode="&#x10a;" horiz-adv-x="535" d="M305 61 C186 61 144 126 144 328 C144 530 186 595 305 595 C351 595 406 590 469 578 L477 641 C417 657 356 665 305 665 C141 665 56 585 56 328 C56 71 141 -9 305 -9 C356 -9 417 -1 477 15 L469 78 C406 66 351 61 305 61 L305 61 Z M294 850 C252 850 250 848 250 806 C250 764 252 762 294 762 C336 762 338 764 338 806 C338 848 336 850 294 850 L294 850 Z " />
<glyph glyph-name="cdotaccent" unicode="&#x10b;" horiz-adv-x="441" d="M254 54 C158 54 129 103 129 246 C129 389 158 438 254 438 C301 438 336 433 384 423 L391 480 C341 494 291 501 254 501 C120 501 48 446 48 246 C48 46 120 -9 254 -9 C291 -9 341 -2 391 12 L384 69 C336 59 301 54 254 54 L254 54 Z M245 680 C203 680 201 678 201 636 C201 594 203 592 245 592 C287 592 289 594 289 636 C289 678 287 680 245 680 L245 680 Z " />
<glyph glyph-name="Ccaron" unicode="&#x10c;" horiz-adv-x="535" d="M305 61 C186 61 144 126 144 328 C144 530 186 595 305 595 C351 595 406 590 469 578 L477 641 C417 657 356 665 305 665 C141 665 56 585 56 328 C56 71 141 -9 305 -9 C356 -9 417 -1 477 15 L469 78 C406 66 351 61 305 61 L305 61 Z M152 843 L261 738 L327 738 L436 843 L388 870 L295 787 L293 787 L200 870 L152 843 Z " />
<glyph glyph-name="ccaron" unicode="&#x10d;" horiz-adv-x="441" d="M254 54 C158 54 129 103 129 246 C129 389 158 438 254 438 C301 438 336 433 384 423 L391 480 C341 494 291 501 254 501 C120 501 48 446 48 246 C48 46 120 -9 254 -9 C291 -9 341 -2 391 12 L384 69 C336 59 301 54 254 54 L254 54 Z M103 673 L212 568 L278 568 L387 673 L339 700 L246 617 L244 617 L151 700 L103 673 Z " />
<glyph glyph-name="Dcaron" unicode="&#x10e;" horiz-adv-x="599" d="M80 656 L80 0 L260 0 C406 0 543 23 543 328 C543 633 406 656 260 656 L80 656 Z M160 72 L160 584 C394 588 457 593 457 328 C457 107 412 72 260 72 L160 72 Z M155 843 L264 738 L330 738 L439 843 L391 870 L298 787 L296 787 L203 870 L155 843 Z " />
<glyph glyph-name="dcaron" unicode="&#x10f;" horiz-adv-x="601" d="M529 696 L529 521 L575 521 L605 644 L605 696 L529 696 Z M373 97 C373 97 311 62 243 62 C171 62 130 106 130 246 C130 386 171 430 243 430 C311 430 373 395 373 395 L373 97 Z M229 501 C127 501 50 435 50 246 C50 57 127 -9 229 -9 C292 -9 348 22 383 50 L397 0 L449 0 L449 702 L373 691 L373 450 C330 481 279 501 229 501 L229 501 Z " />
<glyph glyph-name="Dcroat" unicode="&#x110;" horiz-adv-x="617" d="M98 656 L98 356 L16 356 L16 300 L98 300 L98 0 L278 0 C424 0 561 23 561 328 C561 633 424 656 278 656 L98 656 Z M178 72 L178 300 L294 300 L294 356 L178 356 L178 584 L278 584 C430 584 475 549 475 328 C475 107 430 72 278 72 L178 72 Z " />
<glyph glyph-name="dcroat" unicode="&#x111;" horiz-adv-x="525" d="M229 501 C127 501 50 435 50 246 C50 57 127 -9 229 -9 C292 -9 348 22 383 50 L397 0 L449 0 L449 558 L529 558 L529 608 L449 608 L449 702 L373 691 L373 608 L252 608 L252 558 L373 558 L373 450 C330 481 279 501 229 501 L229 501 Z M373 97 C373 97 311 62 243 62 C171 62 130 106 130 246 C130 386 171 430 243 430 C311 430 373 395 373 395 L373 97 Z " />
<glyph glyph-name="Emacron" unicode="&#x112;" horiz-adv-x="534" d="M476 656 L80 656 L80 0 L482 0 L482 72 L160 72 L160 295 L452 295 L452 367 L160 367 L160 584 L476 584 L476 656 Z M149 835 L149 777 L411 777 L411 835 L149 835 Z " />
<glyph glyph-name="emacron" unicode="&#x113;" horiz-adv-x="486" d="M432 246 C432 425 379 501 243 501 C107 501 50 425 50 246 C50 50 117 -9 256 -9 C304 -9 353 -2 406 12 L399 69 C351 59 312 54 256 54 C168 54 131 95 131 210 L432 210 L432 246 Z M131 272 C131 399 166 440 242 440 C318 440 353 399 353 272 L131 272 Z M110 665 L110 607 L372 607 L372 665 L110 665 Z " />
<glyph glyph-name="Ebreve" unicode="&#x114;" horiz-adv-x="534" d="M476 656 L80 656 L80 0 L482 0 L482 72 L160 72 L160 295 L452 295 L452 367 L160 367 L160 584 L476 584 L476 656 Z M135 853 C138 807 153 784 168 771 C184 757 215 739 280 739 C345 739 376 757 392 771 C407 784 422 807 425 853 L370 861 C368 841 362 823 354 815 C344 805 328 793 280 793 C232 793 216 805 206 815 C198 823 192 841 190 861 L135 853 Z " />
<glyph glyph-name="ebreve" unicode="&#x115;" horiz-adv-x="486" d="M432 246 C432 425 379 501 243 501 C107 501 50 425 50 246 C50 50 117 -9 256 -9 C304 -9 353 -2 406 12 L399 69 C351 59 312 54 256 54 C168 54 131 95 131 210 L432 210 L432 246 Z M131 272 C131 399 166 440 242 440 C318 440 353 399 353 272 L131 272 Z M96 689 C99 643 114 620 129 607 C145 593 176 575 241 575 C306 575 337 593 353 607 C368 620 383 643 386 689 L331 697 C329 677 323 659 315 651 C305 641 289 629 241 629 C193 629 177 641 167 651 C159 659 153 677 151 697 L96 689 Z " />
<glyph glyph-name="Edotaccent" unicode="&#x116;" horiz-adv-x="534" d="M476 656 L80 656 L80 0 L482 0 L482 72 L160 72 L160 295 L452 295 L452 367 L160 367 L160 584 L476 584 L476 656 Z M281 850 C239 850 237 848 237 806 C237 764 239 762 281 762 C323 762 325 764 325 806 C325 848 323 850 281 850 L281 850 Z " />
<glyph glyph-name="edotaccent" unicode="&#x117;" horiz-adv-x="486" d="M432 246 C432 425 379 501 243 501 C107 501 50 425 50 246 C50 50 117 -9 256 -9 C304 -9 353 -2 406 12 L399 69 C351 59 312 54 256 54 C168 54 131 95 131 210 L432 210 L432 246 Z M131 272 C131 399 166 440 242 440 C318 440 353 399 353 272 L131 272 Z M241 680 C199 680 197 678 197 636 C197 594 199 592 241 592 C283 592 285 594 285 636 C285 678 283 680 241 680 L241 680 Z " />
<glyph glyph-name="Eogonek" unicode="&#x118;" horiz-adv-x="534" d="M476 656 L80 656 L80 0 L413 0 L374 -29 C335 -57 317 -81 317 -124 C317 -185 360 -202 409 -202 C429 -202 456 -200 477 -195 L472 -147 C452 -150 436 -151 422 -151 C393 -151 378 -144 378 -120 C378 -99 387 -88 420 -57 L482 0 L482 72 L160 72 L160 295 L452 295 L452 367 L160 367 L160 584 L476 584 L476 656 Z " />
<glyph glyph-name="eogonek" unicode="&#x119;" horiz-adv-x="486" d="M432 246 C432 425 379 501 243 501 C107 501 50 425 50 246 C50 50 117 -9 256 -9 C276 -9 296 -8 317 -5 L285 -29 C246 -57 228 -81 228 -124 C228 -185 271 -202 320 -202 C340 -202 367 -200 388 -195 L383 -147 C363 -150 347 -151 333 -151 C304 -151 289 -144 289 -120 C289 -99 298 -88 331 -57 L406 12 L399 69 C351 59 312 54 256 54 C168 54 131 95 131 210 L432 210 L432 246 Z M131 272 C131 399 166 440 242 440 C318 440 353 399 353 272 L131 272 Z " />
<glyph glyph-name="Ecaron" unicode="&#x11a;" horiz-adv-x="534" d="M476 656 L80 656 L80 0 L482 0 L482 72 L160 72 L160 295 L452 295 L452 367 L160 367 L160 584 L476 584 L476 656 Z M138 843 L247 738 L313 738 L422 843 L374 870 L281 787 L279 787 L186 870 L138 843 Z " />
<glyph glyph-name="ecaron" unicode="&#x11b;" horiz-adv-x="486" d="M432 246 C432 425 379 501 243 501 C107 501 50 425 50 246 C50 50 117 -9 256 -9 C304 -9 353 -2 406 12 L399 69 C351 59 312 54 256 54 C168 54 131 95 131 210 L432 210 L432 246 Z M131 272 C131 399 166 440 242 440 C318 440 353 399 353 272 L131 272 Z M101 673 L210 568 L276 568 L385 673 L337 700 L244 617 L242 617 L149 700 L101 673 Z " />
<glyph glyph-name="Gcircumflex" unicode="&#x11c;" horiz-adv-x="596" d="M309 348 L309 276 L450 276 L450 77 C402 65 367 61 309 61 C187 61 144 124 144 328 C144 532 187 595 309 595 C379 595 426 591 507 578 L515 641 C436 659 373 665 309 665 C141 665 56 583 56 328 C56 73 141 -9 309 -9 C387 -9 464 5 528 25 L528 348 L309 348 Z M457 761 L348 866 L282 866 L173 761 L221 734 L314 817 L316 817 L409 734 L457 761 Z " />
<glyph glyph-name="gcircumflex" unicode="&#x11d;" horiz-adv-x="517" d="M169 183 C182 180 215 177 241 177 C349 177 428 205 428 339 C428 382 420 413 407 435 L493 435 L484 495 L362 478 C328 497 285 501 241 501 C134 501 54 472 54 339 C54 262 82 221 119 201 L99 147 C82 101 97 75 114 60 L93 44 C74 30 40 -10 40 -59 C40 -167 109 -203 257 -203 C405 -203 474 -167 474 -59 C474 33 424 69 323 79 L214 90 C165 95 156 109 163 148 L169 183 Z M313 15 C367 10 399 -3 399 -59 C399 -118 369 -143 257 -143 C145 -143 115 -118 115 -59 C115 -12 127 12 155 36 C166 32 182 28 210 25 L313 15 Z M241 235 C153 235 128 263 128 339 C128 415 153 443 241 443 C329 443 354 415 354 339 C354 263 329 235 241 235 L241 235 Z M383 591 L274 696 L208 696 L99 591 L147 564 L240 647 L242 647 L335 564 L383 591 Z " />
<glyph glyph-name="Gbreve" unicode="&#x11e;" horiz-adv-x="596" d="M309 348 L309 276 L450 276 L450 77 C402 65 367 61 309 61 C187 61 144 124 144 328 C144 532 187 595 309 595 C379 595 426 591 507 578 L515 641 C436 659 373 665 309 665 C141 665 56 583 56 328 C56 73 141 -9 309 -9 C387 -9 464 5 528 25 L528 348 L309 348 Z M170 859 C173 813 188 790 203 777 C219 763 250 745 315 745 C380 745 411 763 427 777 C442 790 457 813 460 859 L405 867 C403 847 397 829 389 821 C379 811 363 799 315 799 C267 799 251 811 241 821 C233 829 227 847 225 867 L170 859 Z " />
<glyph glyph-name="gbreve" unicode="&#x11f;" horiz-adv-x="517" d="M169 183 C182 180 215 177 241 177 C349 177 428 205 428 339 C428 382 420 413 407 435 L493 435 L484 495 L362 478 C328 497 285 501 241 501 C134 501 54 472 54 339 C54 262 82 221 119 201 L99 147 C82 101 97 75 114 60 L93 44 C74 30 40 -10 40 -59 C40 -167 109 -203 257 -203 C405 -203 474 -167 474 -59 C474 33 424 69 323 79 L214 90 C165 95 156 109 163 148 L169 183 Z M313 15 C367 10 399 -3 399 -59 C399 -118 369 -143 257 -143 C145 -143 115 -118 115 -59 C115 -12 127 12 155 36 C166 32 182 28 210 25 L313 15 Z M241 235 C153 235 128 263 128 339 C128 415 153 443 241 443 C329 443 354 415 354 339 C354 263 329 235 241 235 L241 235 Z M113 689 C116 643 131 620 146 607 C162 593 193 575 258 575 C323 575 354 593 370 607 C385 620 400 643 403 689 L348 697 C346 677 340 659 332 651 C322 641 306 629 258 629 C210 629 194 641 184 651 C176 659 170 677 168 697 L113 689 Z " />
<glyph glyph-name="Gdotaccent" unicode="&#x120;" horiz-adv-x="596" d="M309 348 L309 276 L450 276 L450 77 C402 65 367 61 309 61 C187 61 144 124 144 328 C144 532 187 595 309 595 C379 595 426 591 507 578 L515 641 C436 659 373 665 309 665 C141 665 56 583 56 328 C56 73 141 -9 309 -9 C387 -9 464 5 528 25 L528 348 L309 348 Z M315 850 C273 850 271 848 271 806 C271 764 273 762 315 762 C357 762 359 764 359 806 C359 848 357 850 315 850 L315 850 Z " />
<glyph glyph-name="gdotaccent" unicode="&#x121;" horiz-adv-x="517" d="M169 183 C182 180 215 177 241 177 C349 177 428 205 428 339 C428 382 420 413 407 435 L493 435 L484 495 L362 478 C328 497 285 501 241 501 C134 501 54 472 54 339 C54 262 82 221 119 201 L99 147 C82 101 97 75 114 60 L93 44 C74 30 40 -10 40 -59 C40 -167 109 -203 257 -203 C405 -203 474 -167 474 -59 C474 33 424 69 323 79 L214 90 C165 95 156 109 163 148 L169 183 Z M313 15 C367 10 399 -3 399 -59 C399 -118 369 -143 257 -143 C145 -143 115 -118 115 -59 C115 -12 127 12 155 36 C166 32 182 28 210 25 L313 15 Z M241 235 C153 235 128 263 128 339 C128 415 153 443 241 443 C329 443 354 415 354 339 C354 263 329 235 241 235 L241 235 Z M241 680 C199 680 197 678 197 636 C197 594 199 592 241 592 C283 592 285 594 285 636 C285 678 283 680 241 680 L241 680 Z " />
<glyph glyph-name="Gcommaaccent" unicode="&#x122;" horiz-adv-x="596" d="M309 348 L309 276 L450 276 L450 77 C402 65 367 61 309 61 C187 61 144 124 144 328 C144 532 187 595 309 595 C379 595 426 591 507 578 L515 641 C436 659 373 665 309 665 C141 665 56 583 56 328 C56 73 141 -9 309 -9 C387 -9 464 5 528 25 L528 348 L309 348 Z M280 -74 L280 -249 L326 -249 L356 -126 L356 -74 L280 -74 Z " />
<glyph glyph-name="gcommaaccent" unicode="&#x123;" horiz-adv-x="517" d="M169 183 C182 180 215 177 241 177 C349 177 428 205 428 339 C428 382 420 413 407 435 L493 435 L484 495 L362 478 C328 497 285 501 241 501 C134 501 54 472 54 339 C54 262 82 221 119 201 L99 147 C82 101 97 75 114 60 L93 44 C74 30 40 -10 40 -59 C40 -167 109 -203 257 -203 C405 -203 474 -167 474 -59 C474 33 424 69 323 79 L214 90 C165 95 156 109 163 148 L169 183 Z M313 15 C367 10 399 -3 399 -59 C399 -118 369 -143 257 -143 C145 -143 115 -118 115 -59 C115 -12 127 12 155 36 C166 32 182 28 210 25 L313 15 Z M241 235 C153 235 128 263 128 339 C128 415 153 443 241 443 C329 443 354 415 354 339 C354 263 329 235 241 235 L241 235 Z M283 573 L283 748 L237 748 L207 625 L207 573 L283 573 Z " />
<glyph glyph-name="Hcircumflex" unicode="&#x124;" horiz-adv-x="620" d="M460 656 L460 367 L160 367 L160 656 L80 656 L80 0 L160 0 L160 295 L460 295 L460 0 L540 0 L540 656 L460 656 Z M452 761 L343 866 L277 866 L168 761 L216 734 L309 817 L311 817 L404 734 L452 761 Z " />
<glyph glyph-name="hcircumflex" unicode="&#x125;" horiz-adv-x="522" d="M148 702 L72 691 L72 0 L148 0 L148 395 C148 395 208 430 290 430 C347 430 376 408 376 344 L376 0 L452 0 L452 352 C452 440 412 501 302 501 C243 501 190 479 148 449 L148 702 Z M252 801 L143 906 L77 906 L-32 801 L16 774 L109 857 L111 857 L204 774 L252 801 Z " />
<glyph glyph-name="Hbar" unicode="&#x126;" horiz-adv-x="648" d="M474 656 L474 533 L174 533 L174 656 L94 656 L94 533 L18 533 L18 477 L94 477 L94 0 L174 0 L174 295 L474 295 L474 0 L554 0 L554 477 L630 477 L630 533 L554 533 L554 656 L474 656 Z M174 367 L174 477 L474 477 L474 367 L174 367 Z " />
<glyph glyph-name="hbar" unicode="&#x127;" horiz-adv-x="522" d="M148 702 L72 691 L72 608 L-4 608 L-4 558 L72 558 L72 0 L148 0 L148 395 C148 395 208 430 290 430 C347 430 376 408 376 344 L376 0 L452 0 L452 352 C452 440 412 501 302 501 C243 501 190 479 148 449 L148 558 L271 558 L271 608 L148 608 L148 702 Z " />
<glyph glyph-name="Itilde" unicode="&#x128;" horiz-adv-x="264" d="M172 656 L92 656 L92 0 L172 0 L172 656 Z M232 856 C229 834 222 819 212 814 C206 811 195 808 176 816 L104 845 C83 853 60 856 38 849 C12 841 -11 818 -20 758 L32 750 C35 772 42 787 52 792 C58 795 69 798 88 790 L160 761 C181 753 204 750 226 757 C252 765 275 788 284 848 L232 856 Z " />
<glyph glyph-name="itilde" unicode="&#x129;" horiz-adv-x="240" d="M158 492 L82 492 L82 0 L158 0 L158 492 Z M220 686 C217 664 210 649 200 644 C194 641 183 638 164 646 L92 675 C71 683 48 686 26 679 C0 671 -23 648 -32 588 L20 580 C23 602 30 617 40 622 C46 625 57 628 76 620 L148 591 C169 583 192 580 214 587 C240 595 263 618 272 678 L220 686 Z " />
<glyph glyph-name="Imacron" unicode="&#x12a;" horiz-adv-x="264" d="M172 656 L92 656 L92 0 L172 0 L172 656 Z M1 835 L1 777 L263 777 L263 835 L1 835 Z " />
<glyph glyph-name="imacron" unicode="&#x12b;" horiz-adv-x="240" d="M158 492 L82 492 L82 0 L158 0 L158 492 Z M-11 665 L-11 607 L251 607 L251 665 L-11 665 Z " />
<glyph glyph-name="Iogonek" unicode="&#x12e;" horiz-adv-x="264" d="M172 656 L92 656 L92 0 L103 0 L64 -29 C25 -57 7 -81 7 -124 C7 -185 50 -202 99 -202 C119 -202 146 -200 167 -195 L162 -147 C142 -150 126 -151 112 -151 C83 -151 68 -144 68 -120 C68 -99 77 -88 110 -57 L172 0 L172 656 Z " />
<glyph glyph-name="iogonek" unicode="&#x12f;" horiz-adv-x="240" d="M158 492 L82 492 L82 0 L89 0 L50 -29 C11 -57 -7 -81 -7 -124 C-7 -185 36 -202 85 -202 C105 -202 132 -200 153 -195 L148 -147 C128 -150 112 -151 98 -151 C69 -151 54 -144 54 -120 C54 -99 63 -88 96 -57 L158 0 L158 492 Z M120 680 C79 680 77 678 77 637 C77 596 79 594 120 594 C161 594 163 596 163 637 C163 678 161 680 120 680 L120 680 Z " />
<glyph glyph-name="Idotaccent" unicode="&#x130;" horiz-adv-x="264" d="M172 656 L92 656 L92 0 L172 0 L172 656 Z M132 850 C90 850 88 848 88 806 C88 764 90 762 132 762 C174 762 176 764 176 806 C176 848 174 850 132 850 L132 850 Z " />
<glyph glyph-name="dotlessi" unicode="&#x131;" horiz-adv-x="240" d="M158 492 L82 492 L82 0 L158 0 L158 492 Z " />
<glyph glyph-name="IJ" unicode="&#x132;" horiz-adv-x="655" d="M172 656 L92 656 L92 0 L172 0 L172 656 Z M497 656 L497 183 C497 88 472 64 391 64 C362 64 323 71 295 77 L287 15 C331 0 372 -6 417 -6 C510 -6 577 37 577 171 L577 656 L497 656 Z " />
<glyph glyph-name="ij" unicode="&#x133;" horiz-adv-x="467" d="M156 492 L80 492 L80 0 L156 0 L156 492 Z M118 680 C77 680 75 678 75 637 C75 596 77 594 118 594 C159 594 161 596 161 637 C161 678 159 680 118 680 L118 680 Z M387 492 L311 492 L311 0 C311 -59 307 -107 282 -191 L339 -200 C370 -140 387 -83 387 0 L387 492 Z M349 680 C308 680 306 678 306 637 C306 596 308 594 349 594 C390 594 392 596 392 637 C392 678 390 680 349 680 L349 680 Z " />
<glyph glyph-name="Jcircumflex" unicode="&#x134;" horiz-adv-x="404" d="M236 656 L236 183 C236 88 211 64 130 64 C101 64 62 71 34 77 L26 15 C70 0 111 -6 156 -6 C249 -6 316 37 316 171 L316 656 L236 656 Z M418 761 L309 866 L243 866 L134 761 L182 734 L275 817 L277 817 L370 734 L418 761 Z " />
<glyph glyph-name="jcircumflex" unicode="&#x135;" horiz-adv-x="240" d="M161 492 L85 492 L85 0 C85 -59 81 -107 56 -191 L113 -200 C144 -140 161 -83 161 0 L161 492 Z M265 591 L156 696 L90 696 L-19 591 L29 564 L122 647 L124 647 L217 564 L265 591 Z " />
<glyph glyph-name="Kcommaaccent" unicode="&#x136;" horiz-adv-x="573" d="M551 0 L327 332 L543 656 L449 656 L259 367 L160 367 L160 656 L80 656 L80 0 L160 0 L160 295 L261 295 L458 0 L551 0 Z M263 -74 L263 -249 L309 -249 L339 -126 L339 -74 L263 -74 Z " />
<glyph glyph-name="kcommaaccent" unicode="&#x137;" horiz-adv-x="480" d="M464 0 L290 264 L454 492 L363 492 L226 299 L148 299 L148 702 L72 691 L72 0 L148 0 L148 229 L226 229 L373 0 L464 0 Z M219 -74 L219 -249 L265 -249 L295 -126 L295 -74 L219 -74 Z " />
<glyph glyph-name="Lacute" unicode="&#x139;" horiz-adv-x="481" d="M80 656 L80 0 L466 0 L466 72 L160 72 L160 656 L80 656 Z M137 866 L98 727 L148 727 L223 866 L137 866 Z " />
<glyph glyph-name="lacute" unicode="&#x13a;" horiz-adv-x="271" d="M187 57 C159 57 148 69 148 104 L148 702 L72 691 L72 94 C72 29 104 -4 164 -4 C189 -4 211 -1 234 8 L227 62 C214 59 198 57 187 57 L187 57 Z M128 906 L89 767 L139 767 L214 906 L128 906 Z " />
<glyph glyph-name="Lcommaaccent" unicode="&#x13b;" horiz-adv-x="481" d="M80 656 L80 0 L466 0 L466 72 L160 72 L160 656 L80 656 Z M243 -74 L243 -249 L289 -249 L319 -126 L319 -74 L243 -74 Z " />
<glyph glyph-name="lcommaaccent" unicode="&#x13c;" horiz-adv-x="271" d="M187 57 C159 57 148 69 148 104 L148 702 L72 691 L72 94 C72 29 104 -4 164 -4 C189 -4 211 -1 234 8 L227 62 C214 59 198 57 187 57 L187 57 Z M112 -74 L112 -249 L158 -249 L188 -126 L188 -74 L112 -74 Z " />
<glyph glyph-name="Lcaron" unicode="&#x13d;" horiz-adv-x="481" d="M240 656 L240 481 L286 481 L316 604 L316 656 L240 656 Z M80 656 L80 0 L466 0 L466 72 L160 72 L160 656 L80 656 Z " />
<glyph glyph-name="lcaron" unicode="&#x13e;" horiz-adv-x="271" d="M230 696 L230 521 L276 521 L306 644 L306 696 L230 696 Z M187 57 C159 57 148 69 148 104 L148 702 L72 691 L72 94 C72 29 104 -4 164 -4 C189 -4 211 -1 234 8 L227 62 C214 59 198 57 187 57 L187 57 Z " />
<glyph glyph-name="Ldot" unicode="&#x13f;" horiz-adv-x="481" d="M80 656 L80 0 L466 0 L466 72 L160 72 L160 656 L80 656 Z M311 358 C269 358 267 356 267 314 C267 272 269 270 311 270 C353 270 355 272 355 314 C355 356 353 358 311 358 L311 358 Z " />
<glyph glyph-name="ldot" unicode="&#x140;" horiz-adv-x="327" d="M187 57 C159 57 148 69 148 104 L148 702 L72 691 L72 94 C72 29 104 -4 164 -4 C189 -4 211 -1 234 8 L227 62 C214 59 198 57 187 57 L187 57 Z M271 358 C229 358 227 356 227 314 C227 272 229 270 271 270 C313 270 315 272 315 314 C315 356 313 358 271 358 L271 358 Z " />
<glyph glyph-name="Lslash" unicode="&#x141;" horiz-adv-x="505" d="M104 656 L104 356 L18 344 L18 288 L104 300 L104 0 L490 0 L490 72 L184 72 L184 312 L337 334 L337 390 L184 368 L184 656 L104 656 Z " />
<glyph glyph-name="lslash" unicode="&#x142;" horiz-adv-x="271" d="M187 57 C159 57 148 69 148 104 L148 336 L242 350 L242 406 L148 392 L148 702 L72 691 L72 382 L8 373 L8 317 L72 326 L72 94 C72 29 104 -4 164 -4 C189 -4 211 -1 234 8 L227 62 C214 59 198 57 187 57 L187 57 Z " />
<glyph glyph-name="Nacute" unicode="&#x143;" horiz-adv-x="630" d="M470 656 L470 251 C470 193 474 120 474 120 L470 120 C470 120 442 178 415 226 L167 656 L80 656 L80 0 L160 0 L160 405 C160 463 156 535 156 535 L160 535 C160 535 187 478 215 430 L463 0 L550 0 L550 656 L470 656 Z M332 866 L293 727 L343 727 L418 866 L332 866 Z " />
<glyph glyph-name="nacute" unicode="&#x144;" horiz-adv-x="522" d="M125 492 L72 492 L72 0 L148 0 L148 395 C148 395 208 430 290 430 C347 430 376 408 376 344 L376 0 L452 0 L452 352 C452 440 412 501 302 501 C239 501 183 475 139 442 L125 492 Z M279 696 L240 557 L290 557 L365 696 L279 696 Z " />
<glyph glyph-name="Ncommaaccent" unicode="&#x145;" horiz-adv-x="630" d="M470 656 L470 251 C470 193 474 120 474 120 L470 120 C470 120 442 178 415 226 L167 656 L80 656 L80 0 L160 0 L160 405 C160 463 156 535 156 535 L160 535 C160 535 187 478 215 430 L463 0 L550 0 L550 656 L470 656 Z M277 -74 L277 -249 L323 -249 L353 -126 L353 -74 L277 -74 Z " />
<glyph glyph-name="ncommaaccent" unicode="&#x146;" horiz-adv-x="522" d="M125 492 L72 492 L72 0 L148 0 L148 395 C148 395 208 430 290 430 C347 430 376 408 376 344 L376 0 L452 0 L452 352 C452 440 412 501 302 501 C239 501 183 475 139 442 L125 492 Z M224 -74 L224 -249 L270 -249 L300 -126 L300 -74 L224 -74 Z " />
<glyph glyph-name="Ncaron" unicode="&#x147;" horiz-adv-x="630" d="M470 656 L470 251 C470 193 474 120 474 120 L470 120 C470 120 442 178 415 226 L167 656 L80 656 L80 0 L160 0 L160 405 C160 463 156 535 156 535 L160 535 C160 535 187 478 215 430 L463 0 L550 0 L550 656 L470 656 Z M173 843 L282 738 L348 738 L457 843 L409 870 L316 787 L314 787 L221 870 L173 843 Z " />
<glyph glyph-name="ncaron" unicode="&#x148;" horiz-adv-x="522" d="M125 492 L72 492 L72 0 L148 0 L148 395 C148 395 208 430 290 430 C347 430 376 408 376 344 L376 0 L452 0 L452 352 C452 440 412 501 302 501 C239 501 183 475 139 442 L125 492 Z M120 673 L229 568 L295 568 L404 673 L356 700 L263 617 L261 617 L168 700 L120 673 Z " />
<glyph glyph-name="Omacron" unicode="&#x14c;" horiz-adv-x="606" d="M303 669 C135 669 56 583 56 328 C56 73 135 -13 303 -13 C471 -13 550 73 550 328 C550 583 471 669 303 669 L303 669 Z M303 55 C181 55 144 124 144 328 C144 532 181 601 303 601 C425 601 462 532 462 328 C462 124 425 55 303 55 L303 55 Z M172 835 L172 777 L434 777 L434 835 L172 835 Z " />
<glyph glyph-name="omacron" unicode="&#x14d;" horiz-adv-x="508" d="M254 504 C121 504 48 448 48 246 C48 44 121 -12 254 -12 C387 -12 460 44 460 246 C460 448 387 504 254 504 L254 504 Z M254 50 C152 50 129 102 129 246 C129 390 152 442 254 442 C356 442 379 390 379 246 C379 102 356 50 254 50 L254 50 Z M123 665 L123 607 L385 607 L385 665 L123 665 Z " />
<glyph glyph-name="Obreve" unicode="&#x14e;" horiz-adv-x="606" d="M303 669 C135 669 56 583 56 328 C56 73 135 -13 303 -13 C471 -13 550 73 550 328 C550 583 471 669 303 669 L303 669 Z M303 55 C181 55 144 124 144 328 C144 532 181 601 303 601 C425 601 462 532 462 328 C462 124 425 55 303 55 L303 55 Z M158 859 C161 813 176 790 191 777 C207 763 238 745 303 745 C368 745 399 763 415 777 C430 790 445 813 448 859 L393 867 C391 847 385 829 377 821 C367 811 351 799 303 799 C255 799 239 811 229 821 C221 829 215 847 213 867 L158 859 Z " />
<glyph glyph-name="obreve" unicode="&#x14f;" horiz-adv-x="508" d="M254 504 C121 504 48 448 48 246 C48 44 121 -12 254 -12 C387 -12 460 44 460 246 C460 448 387 504 254 504 L254 504 Z M254 50 C152 50 129 102 129 246 C129 390 152 442 254 442 C356 442 379 390 379 246 C379 102 356 50 254 50 L254 50 Z M109 689 C112 643 127 620 142 607 C158 593 189 575 254 575 C319 575 350 593 366 607 C381 620 396 643 399 689 L344 697 C342 677 336 659 328 651 C318 641 302 629 254 629 C206 629 190 641 180 651 C172 659 166 677 164 697 L109 689 Z " />
<glyph glyph-name="Ohungarumlaut" unicode="&#x150;" horiz-adv-x="606" d="M303 669 C135 669 56 583 56 328 C56 73 135 -13 303 -13 C471 -13 550 73 550 328 C550 583 471 669 303 669 L303 669 Z M303 55 C181 55 144 124 144 328 C144 532 181 601 303 601 C425 601 462 532 462 328 C462 124 425 55 303 55 L303 55 Z M252 866 L213 727 L263 727 L333 866 L252 866 Z M385 866 L346 727 L396 727 L466 866 L385 866 Z " />
<glyph glyph-name="ohungarumlaut" unicode="&#x151;" horiz-adv-x="508" d="M254 504 C121 504 48 448 48 246 C48 44 121 -12 254 -12 C387 -12 460 44 460 246 C460 448 387 504 254 504 L254 504 Z M254 50 C152 50 129 102 129 246 C129 390 152 442 254 442 C356 442 379 390 379 246 C379 102 356 50 254 50 L254 50 Z M203 696 L164 557 L214 557 L284 696 L203 696 Z M336 696 L297 557 L347 557 L417 696 L336 696 Z " />
<glyph glyph-name="OE" unicode="&#x152;" horiz-adv-x="868" d="M808 656 L339 656 C193 656 56 633 56 328 C56 23 193 0 339 0 L814 0 L814 72 L492 72 L492 295 L784 295 L784 367 L492 367 L492 584 L808 584 L808 656 Z M142 328 C142 549 187 584 339 584 L412 584 L412 72 L339 72 C187 72 142 107 142 328 L142 328 Z " />
<glyph glyph-name="oe" unicode="&#x153;" horiz-adv-x="809" d="M758 246 C758 425 705 501 569 501 C511 501 450 486 417 420 C384 486 332 504 251 504 C118 504 45 448 45 246 C45 44 118 -12 251 -12 C329 -12 384 7 417 73 C450 7 504 -9 582 -9 C630 -9 679 -2 732 12 L725 69 C677 59 638 54 582 54 C494 54 457 95 457 210 L758 210 L758 246 Z M251 50 C149 50 126 102 126 246 C126 390 149 442 251 442 C353 442 376 390 376 246 C376 102 353 50 251 50 L251 50 Z M457 272 C457 399 492 440 568 440 C644 440 679 399 679 272 L457 272 Z " />
<glyph glyph-name="Racute" unicode="&#x154;" horiz-adv-x="578" d="M536 0 L422 219 C405 251 395 261 382 269 L382 271 C443 282 514 323 514 459 C514 593 449 656 301 656 L80 656 L80 0 L160 0 L160 262 L261 262 C298 262 313 258 326 235 L445 0 L536 0 Z M160 334 L160 584 L301 584 C397 584 431 548 431 459 C431 370 397 334 301 334 L160 334 Z M302 866 L263 727 L313 727 L388 866 L302 866 Z " />
<glyph glyph-name="racute" unicode="&#x155;" horiz-adv-x="329" d="M294 501 C229 501 171 472 139 437 L124 492 L72 492 L72 0 L148 0 L149 392 C181 412 238 424 294 424 L294 501 Z M200 696 L161 557 L211 557 L286 696 L200 696 Z " />
<glyph glyph-name="Rcommaaccent" unicode="&#x156;" horiz-adv-x="578" d="M536 0 L422 219 C405 251 395 261 382 269 L382 271 C443 282 514 323 514 459 C514 593 449 656 301 656 L80 656 L80 0 L160 0 L160 262 L261 262 C298 262 313 258 326 235 L445 0 L536 0 Z M160 334 L160 584 L301 584 C397 584 431 548 431 459 C431 370 397 334 301 334 L160 334 Z M257 -74 L257 -249 L303 -249 L333 -126 L333 -74 L257 -74 Z " />
<glyph glyph-name="rcommaaccent" unicode="&#x157;" horiz-adv-x="329" d="M294 501 C229 501 171 472 139 437 L124 492 L72 492 L72 0 L148 0 L149 392 C181 412 238 424 294 424 L294 501 Z M73 -74 L73 -249 L119 -249 L149 -126 L149 -74 L73 -74 Z " />
<glyph glyph-name="Rcaron" unicode="&#x158;" horiz-adv-x="578" d="M536 0 L422 219 C405 251 395 261 382 269 L382 271 C443 282 514 323 514 459 C514 593 449 656 301 656 L80 656 L80 0 L160 0 L160 262 L261 262 C298 262 313 258 326 235 L445 0 L536 0 Z M160 334 L160 584 L301 584 C397 584 431 548 431 459 C431 370 397 334 301 334 L160 334 Z M143 843 L252 738 L318 738 L427 843 L379 870 L286 787 L284 787 L191 870 L143 843 Z " />
<glyph glyph-name="rcaron" unicode="&#x159;" horiz-adv-x="329" d="M294 501 C229 501 171 472 139 437 L124 492 L72 492 L72 0 L148 0 L149 392 C181 412 238 424 294 424 L294 501 Z M42 673 L151 568 L217 568 L326 673 L278 700 L185 617 L183 617 L90 700 L42 673 Z " />
<glyph glyph-name="Sacute" unicode="&#x15a;" horiz-adv-x="529" d="M224 374 C169 382 134 402 134 485 C134 571 176 596 265 596 C327 596 376 589 437 579 L445 642 C379 657 312 665 265 665 C126 665 54 622 54 479 C54 353 124 311 211 299 L297 287 C358 278 391 256 391 173 C391 93 362 60 265 60 C206 60 151 67 78 80 L70 16 C145 -2 211 -9 265 -9 C421 -9 473 43 473 180 C473 303 418 347 309 362 L224 374 Z M279 866 L240 727 L290 727 L365 866 L279 866 Z " />
<glyph glyph-name="sacute" unicode="&#x15b;" horiz-adv-x="451" d="M123 362 C123 422 152 439 219 439 C270 439 319 432 372 422 L379 479 C320 494 266 501 219 501 C119 501 52 473 52 360 C52 266 102 232 171 222 L263 209 C307 203 326 183 326 132 C326 77 303 54 219 54 C174 54 130 59 69 71 L61 13 C108 -2 186 -9 219 -9 C374 -9 399 49 399 131 C399 216 373 263 274 277 L182 290 C139 296 123 321 123 362 L123 362 Z M238 696 L199 557 L249 557 L324 696 L238 696 Z " />
<glyph glyph-name="Scircumflex" unicode="&#x15c;" horiz-adv-x="529" d="M224 374 C169 382 134 402 134 485 C134 571 176 596 265 596 C327 596 376 589 437 579 L445 642 C379 657 312 665 265 665 C126 665 54 622 54 479 C54 353 124 311 211 299 L297 287 C358 278 391 256 391 173 C391 93 362 60 265 60 C206 60 151 67 78 80 L70 16 C145 -2 211 -9 265 -9 C421 -9 473 43 473 180 C473 303 418 347 309 362 L224 374 Z M407 755 L298 860 L232 860 L123 755 L171 728 L264 811 L266 811 L359 728 L407 755 Z " />
<glyph glyph-name="scircumflex" unicode="&#x15d;" horiz-adv-x="451" d="M123 362 C123 422 152 439 219 439 C270 439 319 432 372 422 L379 479 C320 494 266 501 219 501 C119 501 52 473 52 360 C52 266 102 232 171 222 L263 209 C307 203 326 183 326 132 C326 77 303 54 219 54 C174 54 130 59 69 71 L61 13 C108 -2 186 -9 219 -9 C374 -9 399 49 399 131 C399 216 373 263 274 277 L182 290 C139 296 123 321 123 362 L123 362 Z M365 591 L256 696 L190 696 L81 591 L129 564 L222 647 L224 647 L317 564 L365 591 Z " />
<glyph glyph-name="Scedilla" unicode="&#x15e;" horiz-adv-x="529" d="M224 374 C169 382 134 402 134 485 C134 571 176 596 265 596 C327 596 376 589 437 579 L445 642 C379 657 312 665 265 665 C126 665 54 622 54 479 C54 353 124 311 211 299 L297 287 C358 278 391 256 391 173 C391 93 362 60 265 60 C206 60 151 67 78 80 L70 16 C128 2 180 -5 226 -8 L206 -157 L257 -166 L292 -8 C427 -2 473 51 473 180 C473 303 418 347 309 362 L224 374 Z " />
<glyph glyph-name="scedilla" unicode="&#x15f;" horiz-adv-x="451" d="M123 362 C123 422 152 439 219 439 C270 439 319 432 372 422 L379 479 C320 494 266 501 219 501 C119 501 52 473 52 360 C52 266 102 232 171 222 L263 209 C307 203 326 183 326 132 C326 77 303 54 219 54 C174 54 130 59 69 71 L61 13 C96 1 149 -5 187 -8 L167 -157 L218 -166 L253 -8 C377 0 399 55 399 131 C399 216 373 263 274 277 L182 290 C139 296 123 321 123 362 L123 362 Z " />
<glyph glyph-name="Scaron" unicode="&#x160;" horiz-adv-x="529" d="M224 374 C169 382 134 402 134 485 C134 571 176 596 265 596 C327 596 376 589 437 579 L445 642 C379 657 312 665 265 665 C126 665 54 622 54 479 C54 353 124 311 211 299 L297 287 C358 278 391 256 391 173 C391 93 362 60 265 60 C206 60 151 67 78 80 L70 16 C145 -2 211 -9 265 -9 C421 -9 473 43 473 180 C473 303 418 347 309 362 L224 374 Z M123 843 L232 738 L298 738 L407 843 L359 870 L266 787 L264 787 L171 870 L123 843 Z " />
<glyph glyph-name="scaron" unicode="&#x161;" horiz-adv-x="451" d="M123 362 C123 422 152 439 219 439 C270 439 319 432 372 422 L379 479 C320 494 266 501 219 501 C119 501 52 473 52 360 C52 266 102 232 171 222 L263 209 C307 203 326 183 326 132 C326 77 303 54 219 54 C174 54 130 59 69 71 L61 13 C108 -2 186 -9 219 -9 C374 -9 399 49 399 131 C399 216 373 263 274 277 L182 290 C139 296 123 321 123 362 L123 362 Z M81 673 L190 568 L256 568 L365 673 L317 700 L224 617 L222 617 L129 700 L81 673 Z " />
<glyph glyph-name="Tcaron" unicode="&#x164;" horiz-adv-x="522" d="M500 656 L22 656 L22 584 L221 584 L221 0 L301 0 L301 584 L500 584 L500 656 Z M119 843 L228 738 L294 738 L403 843 L355 870 L262 787 L260 787 L167 870 L119 843 Z " />
<glyph glyph-name="tcaron" unicode="&#x165;" horiz-adv-x="373" d="M280 696 L280 545 L324 545 L348 644 L348 696 L280 696 Z M183 426 L331 426 L340 492 L183 492 L183 634 L107 622 L107 492 L28 492 L28 426 L107 426 L107 116 C107 29 149 -4 226 -4 C263 -4 298 2 330 12 L322 66 C293 60 276 57 252 57 C205 57 183 72 183 116 L183 426 Z " />
<glyph glyph-name="Tbar" unicode="&#x166;" horiz-adv-x="522" d="M500 656 L22 656 L22 584 L221 584 L221 397 L71 397 L71 341 L221 341 L221 0 L301 0 L301 341 L451 341 L451 397 L301 397 L301 584 L500 584 L500 656 Z " />
<glyph glyph-name="tbar" unicode="&#x167;" horiz-adv-x="373" d="M183 426 L331 426 L340 492 L183 492 L183 634 L107 622 L107 492 L28 492 L28 426 L107 426 L107 316 L28 316 L28 260 L107 260 L107 116 C107 29 149 -4 226 -4 C263 -4 298 2 330 12 L322 66 C293 60 276 57 252 57 C205 57 183 72 183 116 L183 260 L315 260 L315 316 L183 316 L183 426 Z " />
<glyph glyph-name="Utilde" unicode="&#x168;" horiz-adv-x="620" d="M542 656 L462 656 L462 222 C462 143 433 61 310 61 C187 61 158 143 158 222 L158 656 L78 656 L78 231 C78 152 101 -10 310 -10 C519 -10 542 152 542 231 L542 656 Z M410 856 C407 834 400 819 390 814 C384 811 373 808 354 816 L282 845 C261 853 238 856 216 849 C190 841 167 818 158 758 L210 750 C213 772 220 787 230 792 C236 795 247 798 266 790 L338 761 C359 753 382 750 404 757 C430 765 453 788 462 848 L410 856 Z " />
<glyph glyph-name="utilde" unicode="&#x169;" horiz-adv-x="522" d="M397 0 L450 0 L450 492 L374 492 L374 97 C374 97 314 62 232 62 C175 62 146 85 146 148 L146 492 L70 492 L70 140 C70 52 110 -9 220 -9 C283 -9 339 17 383 50 L397 0 Z M362 686 C359 664 352 649 342 644 C336 641 325 638 306 646 L234 675 C213 683 190 686 168 679 C142 671 119 648 110 588 L162 580 C165 602 172 617 182 622 C188 625 199 628 218 620 L290 591 C311 583 334 580 356 587 C382 595 405 618 414 678 L362 686 Z " />
<glyph glyph-name="Umacron" unicode="&#x16a;" horiz-adv-x="620" d="M542 656 L462 656 L462 222 C462 143 433 61 310 61 C187 61 158 143 158 222 L158 656 L78 656 L78 231 C78 152 101 -10 310 -10 C519 -10 542 152 542 231 L542 656 Z M179 835 L179 777 L441 777 L441 835 L179 835 Z " />
<glyph glyph-name="umacron" unicode="&#x16b;" horiz-adv-x="522" d="M397 0 L450 0 L450 492 L374 492 L374 97 C374 97 314 62 232 62 C175 62 146 85 146 148 L146 492 L70 492 L70 140 C70 52 110 -9 220 -9 C283 -9 339 17 383 50 L397 0 Z M129 665 L129 607 L391 607 L391 665 L129 665 Z " />
<glyph glyph-name="Ubreve" unicode="&#x16c;" horiz-adv-x="620" d="M542 656 L462 656 L462 222 C462 143 433 61 310 61 C187 61 158 143 158 222 L158 656 L78 656 L78 231 C78 152 101 -10 310 -10 C519 -10 542 152 542 231 L542 656 Z M165 859 C168 813 183 790 198 777 C214 763 245 745 310 745 C375 745 406 763 422 777 C437 790 452 813 455 859 L400 867 C398 847 392 829 384 821 C374 811 358 799 310 799 C262 799 246 811 236 821 C228 829 222 847 220 867 L165 859 Z " />
<glyph glyph-name="ubreve" unicode="&#x16d;" horiz-adv-x="522" d="M397 0 L450 0 L450 492 L374 492 L374 97 C374 97 314 62 232 62 C175 62 146 85 146 148 L146 492 L70 492 L70 140 C70 52 110 -9 220 -9 C283 -9 339 17 383 50 L397 0 Z M117 689 C120 643 135 620 150 607 C166 593 197 575 262 575 C327 575 358 593 374 607 C389 620 404 643 407 689 L352 697 C350 677 344 659 336 651 C326 641 310 629 262 629 C214 629 198 641 188 651 C180 659 174 677 172 697 L117 689 Z " />
<glyph glyph-name="Uring" unicode="&#x16e;" horiz-adv-x="620" d="M542 656 L462 656 L462 222 C462 143 433 61 310 61 C187 61 158 143 158 222 L158 656 L78 656 L78 231 C78 152 101 -10 310 -10 C519 -10 542 152 542 231 L542 656 Z M310 880 C351 880 359 868 359 822 C359 776 351 762 310 762 C269 762 261 776 261 822 C261 868 269 880 310 880 L310 880 Z M310 919 C238 919 211 888 211 822 C211 756 238 723 310 723 C382 723 409 756 409 822 C409 888 382 919 310 919 L310 919 Z " />
<glyph glyph-name="uring" unicode="&#x16f;" horiz-adv-x="522" d="M397 0 L450 0 L450 492 L374 492 L374 97 C374 97 314 62 232 62 C175 62 146 85 146 148 L146 492 L70 492 L70 140 C70 52 110 -9 220 -9 C283 -9 339 17 383 50 L397 0 Z M260 710 C301 710 309 698 309 652 C309 606 301 592 260 592 C219 592 211 606 211 652 C211 698 219 710 260 710 L260 710 Z M260 749 C188 749 161 718 161 652 C161 586 188 553 260 553 C332 553 359 586 359 652 C359 718 332 749 260 749 L260 749 Z " />
<glyph glyph-name="Uhungarumlaut" unicode="&#x170;" horiz-adv-x="620" d="M542 656 L462 656 L462 222 C462 143 433 61 310 61 C187 61 158 143 158 222 L158 656 L78 656 L78 231 C78 152 101 -10 310 -10 C519 -10 542 152 542 231 L542 656 Z M259 866 L220 727 L270 727 L340 866 L259 866 Z M392 866 L353 727 L403 727 L473 866 L392 866 Z " />
<glyph glyph-name="uhungarumlaut" unicode="&#x171;" horiz-adv-x="522" d="M397 0 L450 0 L450 492 L374 492 L374 97 C374 97 314 62 232 62 C175 62 146 85 146 148 L146 492 L70 492 L70 140 C70 52 110 -9 220 -9 C283 -9 339 17 383 50 L397 0 Z M210 696 L171 557 L221 557 L291 696 L210 696 Z M343 696 L304 557 L354 557 L424 696 L343 696 Z " />
<glyph glyph-name="Uogonek" unicode="&#x172;" horiz-adv-x="620" d="M542 656 L462 656 L462 222 C462 143 433 61 310 61 C187 61 158 143 158 222 L158 656 L78 656 L78 231 C78 152 101 -10 310 -10 C322 -10 334 -9 346 -8 L318 -29 C279 -57 261 -81 261 -124 C261 -185 304 -202 353 -202 C373 -202 400 -200 421 -195 L416 -147 C396 -150 380 -151 366 -151 C337 -151 322 -144 322 -120 C322 -99 331 -88 364 -57 L475 45 C533 99 542 181 542 231 L542 656 Z " />
<glyph glyph-name="uogonek" unicode="&#x173;" horiz-adv-x="522" d="M392 8 L342 -29 C303 -57 285 -81 285 -124 C285 -185 328 -202 377 -202 C397 -202 424 -200 445 -195 L440 -147 C420 -150 404 -151 390 -151 C361 -151 346 -144 346 -120 C346 -99 355 -88 388 -57 L450 0 L450 492 L374 492 L374 97 C374 97 314 62 232 62 C175 62 146 85 146 148 L146 492 L70 492 L70 140 C70 52 110 -9 220 -9 C283 -9 339 17 383 50 L395 8 L392 8 Z " />
<glyph glyph-name="Wcircumflex" unicode="&#x174;" horiz-adv-x="820" d="M790 656 L707 656 L627 285 C608 197 595 112 595 112 L591 112 C591 112 573 193 549 285 L453 646 L367 646 L271 285 C247 193 229 112 229 112 L225 112 C225 112 212 197 193 285 L113 656 L30 656 L182 0 L268 0 L378 409 C397 479 409 552 409 552 L411 552 C411 552 423 478 442 409 L552 0 L638 0 L790 656 Z M552 761 L443 866 L377 866 L268 761 L316 734 L409 817 L411 817 L504 734 L552 761 Z " />
<glyph glyph-name="wcircumflex" unicode="&#x175;" horiz-adv-x="686" d="M583 492 L515 206 C501 147 492 92 492 92 L488 92 C488 92 476 151 461 206 L384 490 L302 490 L225 206 C210 151 198 92 198 92 L194 92 C194 92 185 147 171 206 L103 492 L23 492 L155 0 L233 0 L316 295 C330 345 342 406 342 406 L344 406 C344 406 356 345 370 295 L453 0 L531 0 L663 492 L583 492 Z M485 591 L376 696 L310 696 L201 591 L249 564 L342 647 L344 647 L437 564 L485 591 Z " />
<glyph glyph-name="Ycircumflex" unicode="&#x176;" horiz-adv-x="564" d="M456 656 L338 434 C309 379 284 325 284 325 L280 325 C280 325 256 380 227 434 L108 656 L20 656 L242 249 L242 0 L322 0 L322 249 L544 656 L456 656 Z M424 761 L315 866 L249 866 L140 761 L188 734 L281 817 L283 817 L376 734 L424 761 Z " />
<glyph glyph-name="ycircumflex" unicode="&#x177;" horiz-adv-x="480" d="M378 492 L277 199 C255 134 242 82 242 82 L238 82 C238 82 225 134 203 199 L102 492 L20 492 L201 0 L191 -34 C168 -111 145 -130 75 -138 L84 -203 C197 -193 220 -163 266 -36 L279 0 L460 492 L378 492 Z M382 591 L273 696 L207 696 L98 591 L146 564 L239 647 L241 647 L334 564 L382 591 Z " />
<glyph glyph-name="Ydieresis" unicode="&#x178;" horiz-adv-x="564" d="M456 656 L338 434 C309 379 284 325 284 325 L280 325 C280 325 256 380 227 434 L108 656 L20 656 L242 249 L242 0 L322 0 L322 249 L544 656 L456 656 Z M194 850 C152 850 150 848 150 806 C150 764 152 762 194 762 C236 762 238 764 238 806 C238 848 236 850 194 850 L194 850 Z M376 850 C334 850 332 848 332 806 C332 764 334 762 376 762 C418 762 420 764 420 806 C420 848 418 850 376 850 L376 850 Z " />
<glyph glyph-name="Zacute" unicode="&#x179;" horiz-adv-x="550" d="M487 656 L57 656 L57 584 L397 584 L397 582 L53 74 L53 0 L491 0 L491 72 L143 72 L143 74 L487 582 L487 656 Z M292 866 L253 727 L303 727 L378 866 L292 866 Z " />
<glyph glyph-name="zacute" unicode="&#x17a;" horiz-adv-x="452" d="M133 66 L133 68 L401 428 L401 492 L49 492 L49 426 L315 426 L315 424 L47 64 L47 0 L403 0 L403 66 L133 66 Z M243 696 L204 557 L254 557 L329 696 L243 696 Z " />
<glyph glyph-name="Zdotaccent" unicode="&#x17b;" horiz-adv-x="550" d="M487 656 L57 656 L57 584 L397 584 L397 582 L53 74 L53 0 L491 0 L491 72 L143 72 L143 74 L487 582 L487 656 Z M275 850 C233 850 231 848 231 806 C231 764 233 762 275 762 C317 762 319 764 319 806 C319 848 317 850 275 850 L275 850 Z " />
<glyph glyph-name="zdotaccent" unicode="&#x17c;" horiz-adv-x="452" d="M133 66 L133 68 L401 428 L401 492 L49 492 L49 426 L315 426 L315 424 L47 64 L47 0 L403 0 L403 66 L133 66 Z M226 680 C184 680 182 678 182 636 C182 594 184 592 226 592 C268 592 270 594 270 636 C270 678 268 680 226 680 L226 680 Z " />
<glyph glyph-name="Zcaron" unicode="&#x17d;" horiz-adv-x="550" d="M487 656 L57 656 L57 584 L397 584 L397 582 L53 74 L53 0 L491 0 L491 72 L143 72 L143 74 L487 582 L487 656 Z M133 843 L242 738 L308 738 L417 843 L369 870 L276 787 L274 787 L181 870 L133 843 Z " />
<glyph glyph-name="zcaron" unicode="&#x17e;" horiz-adv-x="452" d="M133 66 L133 68 L401 428 L401 492 L49 492 L49 426 L315 426 L315 424 L47 64 L47 0 L403 0 L403 66 L133 66 Z M84 673 L193 568 L259 568 L368 673 L320 700 L227 617 L225 617 L132 700 L84 673 Z " />
<glyph glyph-name="florin" unicode="&#x192;" horiz-adv-x="481" d="M134 -95 C129 -131 113 -141 75 -141 C50 -141 13 -135 13 -135 L5 -189 C5 -189 55 -203 102 -203 C179 -203 202 -165 212 -95 L287 426 L396 426 L405 492 L296 492 L312 597 C317 633 333 643 371 643 C396 643 433 637 433 637 L441 691 C441 691 391 705 344 705 C267 705 244 667 234 597 L218 492 L136 492 L136 426 L209 426 L134 -95 Z " />
<glyph glyph-name="Scommaaccent" unicode="&#x218;" horiz-adv-x="529" d="M224 374 C169 382 134 402 134 485 C134 571 176 596 265 596 C327 596 376 589 437 579 L445 642 C379 657 312 665 265 665 C126 665 54 622 54 479 C54 353 124 311 211 299 L297 287 C358 278 391 256 391 173 C391 93 362 60 265 60 C206 60 151 67 78 80 L70 16 C145 -2 211 -9 265 -9 C421 -9 473 43 473 180 C473 303 418 347 309 362 L224 374 Z M230 -74 L230 -249 L276 -249 L306 -126 L306 -74 L230 -74 Z " />
<glyph glyph-name="scommaaccent" unicode="&#x219;" horiz-adv-x="451" d="M123 362 C123 422 152 439 219 439 C270 439 319 432 372 422 L379 479 C320 494 266 501 219 501 C119 501 52 473 52 360 C52 266 102 232 171 222 L263 209 C307 203 326 183 326 132 C326 77 303 54 219 54 C174 54 130 59 69 71 L61 13 C108 -2 186 -9 219 -9 C374 -9 399 49 399 131 C399 216 373 263 274 277 L182 290 C139 296 123 321 123 362 L123 362 Z M191 -74 L191 -249 L237 -249 L267 -126 L267 -74 L191 -74 Z " />
<glyph glyph-name="Tcommaaccent" unicode="&#x21a;" horiz-adv-x="522" d="M500 656 L22 656 L22 584 L221 584 L221 0 L301 0 L301 584 L500 584 L500 656 Z M223 -74 L223 -249 L269 -249 L299 -126 L299 -74 L223 -74 Z " />
<glyph glyph-name="tcommaaccent" unicode="&#x21b;" horiz-adv-x="373" d="M183 426 L331 426 L340 492 L183 492 L183 634 L107 622 L107 492 L28 492 L28 426 L107 426 L107 116 C107 29 149 -4 226 -4 C263 -4 298 2 330 12 L322 66 C293 60 276 57 252 57 C205 57 183 72 183 116 L183 426 Z M176 -74 L176 -249 L222 -249 L252 -126 L252 -74 L176 -74 Z " />
<glyph glyph-name="dotlessj" unicode="&#x237;" horiz-adv-x="240" d="M161 492 L85 492 L85 0 C85 -59 81 -107 56 -191 L113 -200 C144 -140 161 -83 161 0 L161 492 Z " />
<glyph glyph-name="circumflex" unicode="&#x2c6;" horiz-adv-x="428" d="M356 591 L247 696 L181 696 L72 591 L120 564 L213 647 L215 647 L308 564 L356 591 Z " />
<glyph glyph-name="caron" unicode="&#x2c7;" horiz-adv-x="428" d="M72 673 L181 568 L247 568 L356 673 L308 700 L215 617 L213 617 L120 700 L72 673 Z " />
<glyph glyph-name="breve" unicode="&#x2d8;" horiz-adv-x="434" d="M72 689 C75 643 90 620 105 607 C121 593 152 575 217 575 C282 575 313 593 329 607 C344 620 359 643 362 689 L307 697 C305 677 299 659 291 651 C281 641 265 629 217 629 C169 629 153 641 143 651 C135 659 129 677 127 697 L72 689 Z " />
<glyph glyph-name="dotaccent" unicode="&#x2d9;" horiz-adv-x="232" d="M116 680 C74 680 72 678 72 636 C72 594 74 592 116 592 C158 592 160 594 160 636 C160 678 158 680 116 680 L116 680 Z " />
<glyph glyph-name="ring" unicode="&#x2da;" horiz-adv-x="342" d="M171 710 C212 710 220 698 220 652 C220 606 212 592 171 592 C130 592 122 606 122 652 C122 698 130 710 171 710 L171 710 Z M171 749 C99 749 72 718 72 652 C72 586 99 553 171 553 C243 553 270 586 270 652 C270 718 243 749 171 749 L171 749 Z " />
<glyph glyph-name="ogonek" unicode="&#x2db;" horiz-adv-x="311" d="M181 8 L131 -29 C92 -57 74 -81 74 -124 C74 -185 117 -202 166 -202 C186 -202 213 -200 234 -195 L229 -147 C209 -150 193 -151 179 -151 C150 -151 135 -144 135 -120 C135 -99 144 -88 177 -57 L239 0 L227 8 L181 8 Z " />
<glyph glyph-name="tilde" unicode="&#x2dc;" horiz-adv-x="448" d="M324 686 C321 664 314 649 304 644 C298 641 287 638 268 646 L196 675 C175 683 152 686 130 679 C104 671 81 648 72 588 L124 580 C127 602 134 617 144 622 C150 625 161 628 180 620 L252 591 C273 583 296 580 318 587 C344 595 367 618 376 678 L324 686 Z " />
<glyph glyph-name="hungarumlaut" unicode="&#x2dd;" horiz-adv-x="397" d="M111 696 L72 557 L122 557 L192 696 L111 696 Z M244 696 L205 557 L255 557 L325 696 L244 696 Z " />
<glyph glyph-name="Delta" unicode="&#x394;" horiz-adv-x="696" d="M658 0 L658 60 L396 656 L300 656 L38 60 L38 0 L658 0 Z M291 462 C321 532 346 598 346 598 L350 598 C350 598 375 532 405 462 L524 191 C556 117 581 68 581 68 L581 66 L115 66 L115 68 C115 68 140 117 172 191 L291 462 Z " />
<glyph glyph-name="Omega" unicode="&#x3a9;" horiz-adv-x="692" d="M600 0 L600 66 L489 66 L489 68 C588 176 630 264 630 380 C630 574 542 668 346 668 C150 668 62 574 62 380 C62 264 104 176 203 68 L203 66 L92 66 L92 0 L286 0 L286 66 C180 192 140 260 140 380 C140 482 157 602 346 602 C535 602 552 481 552 380 C552 260 512 192 406 66 L406 0 L600 0 Z " />
<glyph glyph-name="pi" unicode="&#x3c0;" horiz-adv-x="626" d="M520 57 C485 57 474 67 474 107 L474 426 L581 426 L590 492 L18 492 L18 426 L127 426 L127 0 L203 0 L203 426 L398 426 L398 98 C398 29 428 -4 497 -4 C522 -4 548 -1 571 8 L564 62 C551 59 531 57 520 57 L520 57 Z " />
<glyph glyph-name="endash" unicode="&#x2013;" horiz-adv-x="445" d="M50 308 L50 240 L395 240 L395 308 L50 308 Z " />
<glyph glyph-name="emdash" unicode="&#x2014;" horiz-adv-x="890" d="M50 308 L50 240 L840 240 L840 308 L50 308 Z " />
<glyph glyph-name="quoteleft" unicode="&#x2018;" horiz-adv-x="204" d="M102 484 C150 484 152 486 152 534 C152 582 148 583 106 584 C106 620 118 655 151 687 L123 706 C67 662 52 608 52 534 C52 486 54 484 102 484 L102 484 Z " />
<glyph glyph-name="quoteright" unicode="&#x2019;" horiz-adv-x="204" d="M102 702 C54 702 52 700 52 652 C52 604 56 603 98 602 C98 566 86 531 53 499 L81 480 C137 524 152 578 152 652 C152 700 150 702 102 702 L102 702 Z " />
<glyph glyph-name="quotesinglbase" unicode="&#x201a;" horiz-adv-x="204" d="M102 96 C54 96 52 94 52 46 C52 -2 56 -3 98 -4 C98 -40 86 -75 53 -107 L81 -126 C137 -82 152 -28 152 46 C152 94 150 96 102 96 L102 96 Z " />
<glyph glyph-name="quotedblleft" unicode="&#x201c;" horiz-adv-x="372" d="M270 484 C318 484 320 486 320 534 C320 582 316 583 274 584 C274 620 286 655 319 687 L291 706 C235 662 220 608 220 534 C220 486 222 484 270 484 L270 484 Z M102 484 C150 484 152 486 152 534 C152 582 148 583 106 584 C106 620 118 655 151 687 L123 706 C67 662 52 608 52 534 C52 486 54 484 102 484 L102 484 Z " />
<glyph glyph-name="quotedblright" unicode="&#x201d;" horiz-adv-x="372" d="M102 702 C54 702 52 700 52 652 C52 604 56 603 98 602 C98 566 86 531 53 499 L81 480 C137 524 152 578 152 652 C152 700 150 702 102 702 L102 702 Z M270 702 C222 702 220 700 220 652 C220 604 224 603 266 602 C266 566 254 531 221 499 L249 480 C305 524 320 578 320 652 C320 700 318 702 270 702 L270 702 Z " />
<glyph glyph-name="quotedblbase" unicode="&#x201e;" horiz-adv-x="372" d="M102 96 C54 96 52 94 52 46 C52 -2 56 -3 98 -4 C98 -40 86 -75 53 -107 L81 -126 C137 -82 152 -28 152 46 C152 94 150 96 102 96 L102 96 Z M270 96 C222 96 220 94 220 46 C220 -2 224 -3 266 -4 C266 -40 254 -75 221 -107 L249 -126 C305 -82 320 -28 320 46 C320 94 318 96 270 96 L270 96 Z " />
<glyph glyph-name="dagger" unicode="&#x2020;" horiz-adv-x="486" d="M205 336 L212 -96 L274 -96 L281 336 L274 430 L356 422 L420 422 L420 494 L356 494 L274 486 L281 580 L281 656 L205 656 L205 580 L212 486 L130 494 L66 494 L66 422 L130 422 L212 430 L205 336 Z " />
<glyph glyph-name="daggerdbl" unicode="&#x2021;" horiz-adv-x="486" d="M205 280 L212 130 L130 138 L66 138 L66 66 L130 66 L212 74 L205 -20 L205 -96 L281 -96 L281 -20 L274 74 L356 66 L420 66 L420 138 L356 138 L274 130 L281 280 L274 430 L356 422 L420 422 L420 494 L356 494 L274 486 L281 580 L281 656 L205 656 L205 580 L212 486 L130 494 L66 494 L66 422 L130 422 L212 430 L205 280 Z " />
<glyph glyph-name="bullet" unicode="&#x2022;" horiz-adv-x="422" d="M211 393 C124 393 120 390 120 302 C120 214 123 211 211 211 C299 211 302 214 302 302 C302 390 299 393 211 393 L211 393 Z " />
<glyph glyph-name="ellipsis" unicode="&#x2026;" horiz-adv-x="682" d="M125 92 C79 92 77 90 77 44 C77 -2 79 -4 125 -4 C171 -4 173 -2 173 44 C173 90 171 92 125 92 L125 92 Z M341 92 C295 92 293 90 293 44 C293 -2 295 -4 341 -4 C387 -4 389 -2 389 44 C389 90 387 92 341 92 L341 92 Z M557 92 C511 92 509 90 509 44 C509 -2 511 -4 557 -4 C603 -4 605 -2 605 44 C605 90 603 92 557 92 L557 92 Z " />
<glyph glyph-name="perthousand" unicode="&#x2030;" horiz-adv-x="1190" d="M191 609 C255 609 267 574 267 472 C267 370 255 335 191 335 C127 335 115 369 115 472 C115 574 127 609 191 609 L191 609 Z M191 662 C88 662 48 611 48 472 C48 334 88 282 191 282 C294 282 334 334 334 472 C334 611 294 662 191 662 L191 662 Z M645 322 C709 322 722 286 722 184 C722 83 710 47 645 47 C581 47 569 81 569 184 C569 286 581 322 645 322 L645 322 Z M645 375 C542 375 502 323 502 184 C502 46 542 -6 645 -6 C749 -6 789 46 789 184 C789 323 749 375 645 375 L645 375 Z M998 322 C1062 322 1075 286 1075 184 C1075 83 1063 47 998 47 C934 47 922 81 922 184 C922 286 934 322 998 322 L998 322 Z M998 375 C895 375 855 323 855 184 C855 46 895 -6 998 -6 C1102 -6 1142 46 1142 184 C1142 323 1102 375 998 375 L998 375 Z M264 0 L639 656 L572 656 L196 0 L264 0 Z " />
<glyph glyph-name="guilsinglleft" unicode="&#x2039;" horiz-adv-x="299" d="M66 274 L162 82 L227 92 L147 274 L227 456 L162 466 L66 274 Z " />
<glyph glyph-name="guilsinglright" unicode="&#x203a;" horiz-adv-x="299" d="M233 274 L137 466 L72 456 L152 274 L72 92 L137 82 L233 274 Z " />
<glyph glyph-name="fraction" unicode="&#x2044;" horiz-adv-x="447" d="M70 0 L445 656 L378 656 L2 0 L70 0 Z " />
<glyph glyph-name="Euro" unicode="&#x20ac;" horiz-adv-x="589" d="M359 61 C262 61 216 104 202 229 L400 229 L408 285 L198 285 L198 371 L420 371 L428 427 L202 427 C216 552 262 595 359 595 C405 595 460 590 523 578 L531 641 C471 657 410 665 359 665 C218 665 135 606 115 427 L35 427 L28 371 L111 371 C110 357 110 343 110 328 C110 313 110 299 111 285 L35 285 L28 229 L115 229 C135 50 218 -9 359 -9 C410 -9 471 -1 531 15 L523 78 C460 66 405 61 359 61 L359 61 Z " />
<glyph glyph-name="trademark" unicode="&#x2122;" horiz-adv-x="715" d="M277 656 L30 656 L30 600 L123 600 L123 328 L183 328 L183 600 L277 600 L277 656 Z M492 475 L491 475 L411 656 L333 656 L333 328 L392 328 L392 532 C392 560 390 587 390 587 L392 587 C392 587 399 565 411 539 L470 409 L515 409 L572 539 C583 565 591 587 591 587 L593 587 C593 587 592 560 592 532 L592 328 L651 328 L651 656 L573 656 L492 475 Z " />
<glyph glyph-name="uni2160" unicode="&#x2160;" horiz-adv-x="420" d="M42 0 L378 0 L378 72 L250 72 L250 584 L374 584 L374 656 L46 656 L46 584 L170 584 L170 72 L42 72 L42 0 Z " />
<glyph glyph-name="uni2161" unicode="&#x2161;" horiz-adv-x="740" d="M42 0 L698 0 L698 72 L570 72 L570 584 L694 584 L694 656 L46 656 L46 584 L170 584 L170 72 L42 72 L42 0 Z M250 72 L250 584 L490 584 L490 72 L250 72 Z " />
<glyph glyph-name="uni2162" unicode="&#x2162;" horiz-adv-x="1060" d="M42 0 L1018 0 L1018 72 L890 72 L890 584 L1014 584 L1014 656 L46 656 L46 584 L170 584 L170 72 L42 72 L42 0 Z M250 72 L250 584 L490 584 L490 72 L250 72 Z M570 584 L810 584 L810 72 L570 72 L570 584 Z " />
<glyph glyph-name="uni2163" unicode="&#x2163;" horiz-adv-x="940" d="M378 72 L250 72 L250 584 L412 584 L605 0 L701 0 L918 656 L832 656 L692 214 C669 141 655 83 655 83 L651 83 C651 83 637 141 614 214 L474 656 L46 656 L46 584 L170 584 L170 72 L42 72 L42 0 L378 0 L378 72 Z " />
<glyph glyph-name="uni2164" unicode="&#x2164;" horiz-adv-x="574" d="M466 656 L326 214 C303 141 289 83 289 83 L285 83 C285 83 271 141 248 214 L108 656 L22 656 L239 0 L335 0 L552 656 L466 656 Z " />
<glyph glyph-name="uni2165" unicode="&#x2165;" horiz-adv-x="940" d="M562 0 L898 0 L898 72 L770 72 L770 584 L894 584 L894 656 L466 656 L326 214 C303 141 289 83 289 83 L285 83 C285 83 271 141 248 214 L108 656 L22 656 L239 0 L335 0 L528 584 L690 584 L690 72 L562 72 L562 0 Z " />
<glyph glyph-name="uni2166" unicode="&#x2166;" horiz-adv-x="1260" d="M562 0 L1218 0 L1218 72 L1090 72 L1090 584 L1214 584 L1214 656 L466 656 L326 214 C303 141 289 83 289 83 L285 83 C285 83 271 141 248 214 L108 656 L22 656 L239 0 L335 0 L528 584 L690 584 L690 72 L562 72 L562 0 Z M770 584 L1010 584 L1010 72 L770 72 L770 584 Z " />
<glyph glyph-name="uni2167" unicode="&#x2167;" horiz-adv-x="1580" d="M562 0 L1538 0 L1538 72 L1410 72 L1410 584 L1534 584 L1534 656 L466 656 L326 214 C303 141 289 83 289 83 L285 83 C285 83 271 141 248 214 L108 656 L22 656 L239 0 L335 0 L528 584 L690 584 L690 72 L562 72 L562 0 Z M770 72 L770 584 L1010 584 L1010 72 L770 72 Z M1090 72 L1090 584 L1330 584 L1330 72 L1090 72 Z " />
<glyph glyph-name="uni2168" unicode="&#x2168;" horiz-adv-x="940" d="M908 0 L709 329 L902 656 L811 656 L698 462 C670 413 652 379 652 379 L650 379 C650 379 632 413 604 462 L491 656 L46 656 L46 584 L170 584 L170 72 L42 72 L42 0 L488 0 L601 193 C627 237 650 279 650 279 L652 279 C652 279 675 237 701 193 L814 0 L908 0 Z M592 329 L437 72 L250 72 L250 584 L442 584 L592 329 Z " />
<glyph glyph-name="uni2169" unicode="&#x2169;" horiz-adv-x="578" d="M546 0 L347 329 L540 656 L449 656 L336 462 C308 413 290 379 290 379 L288 379 C288 379 270 413 242 462 L129 656 L38 656 L230 329 L32 0 L126 0 L239 193 C265 237 288 279 288 279 L290 279 C290 279 313 237 339 193 L452 0 L546 0 Z " />
<glyph glyph-name="uni216A" unicode="&#x216a;" horiz-adv-x="940" d="M898 0 L898 72 L770 72 L770 584 L894 584 L894 656 L449 656 L336 462 C308 413 290 379 290 379 L288 379 C288 379 270 413 242 462 L129 656 L38 656 L230 329 L32 0 L126 0 L239 193 C265 237 288 279 288 279 L290 279 C290 279 313 237 339 193 L452 0 L898 0 Z M690 584 L690 72 L502 72 L347 329 L497 584 L690 584 Z " />
<glyph glyph-name="uni216B" unicode="&#x216b;" horiz-adv-x="1260" d="M452 0 L1218 0 L1218 72 L1090 72 L1090 584 L1214 584 L1214 656 L449 656 L336 462 C308 413 290 379 290 379 L288 379 C288 379 270 413 242 462 L129 656 L38 656 L230 329 L32 0 L126 0 L239 193 C265 237 288 279 288 279 L290 279 C290 279 313 237 339 193 L452 0 Z M690 584 L690 72 L502 72 L347 329 L497 584 L690 584 Z M770 72 L770 584 L1010 584 L1010 72 L770 72 Z " />
<glyph glyph-name="uni216C" unicode="&#x216c;" horiz-adv-x="481" d="M80 656 L80 0 L466 0 L466 72 L160 72 L160 656 L80 656 Z " />
<glyph glyph-name="uni216D" unicode="&#x216d;" horiz-adv-x="535" d="M305 61 C186 61 144 126 144 328 C144 530 186 595 305 595 C351 595 406 590 469 578 L477 641 C417 657 356 665 305 665 C141 665 56 585 56 328 C56 71 141 -9 305 -9 C356 -9 417 -1 477 15 L469 78 C406 66 351 61 305 61 L305 61 Z " />
<glyph glyph-name="uni216E" unicode="&#x216e;" horiz-adv-x="599" d="M80 656 L80 0 L260 0 C406 0 543 23 543 328 C543 633 406 656 260 656 L80 656 Z M160 72 L160 584 C394 588 457 593 457 328 C457 107 412 72 260 72 L160 72 Z " />
<glyph glyph-name="uni216F" unicode="&#x216f;" horiz-adv-x="748" d="M375 254 L373 254 L186 656 L80 656 L80 0 L160 0 L160 408 C160 479 157 550 157 550 L161 550 C161 550 186 483 215 422 L339 163 L409 163 L533 422 C562 483 587 550 587 550 L591 550 C591 550 588 479 588 408 L588 0 L668 0 L668 656 L562 656 L375 254 Z " />
<glyph glyph-name="arrowleft" unicode="&#x2190;" horiz-adv-x="712" d="M684 295 L684 361 L138 361 L138 363 L385 610 L339 656 L28 345 L28 311 L339 0 L385 46 L138 293 L138 295 L684 295 Z " />
<glyph glyph-name="arrowup" unicode="&#x2191;" horiz-adv-x="712" d="M323 0 L389 0 L389 546 L391 546 L638 299 L684 345 L373 656 L339 656 L28 345 L74 299 L321 546 L323 546 L323 0 Z " />
<glyph glyph-name="arrowright" unicode="&#x2192;" horiz-adv-x="712" d="M28 361 L28 295 L574 295 L574 293 L327 46 L373 0 L684 311 L684 345 L373 656 L327 610 L574 363 L574 361 L28 361 Z " />
<glyph glyph-name="arrowdown" unicode="&#x2193;" horiz-adv-x="712" d="M389 656 L323 656 L323 110 L321 110 L74 357 L28 311 L339 0 L373 0 L684 311 L638 357 L391 110 L389 110 L389 656 Z " />
<glyph glyph-name="uni2196" unicode="&#x2196;" horiz-adv-x="712" d="M565 73 L611 119 L226 504 L226 506 L576 506 L576 572 L136 572 L112 548 L112 108 L178 108 L178 458 L180 458 L565 73 Z " />
<glyph glyph-name="uni2197" unicode="&#x2197;" horiz-adv-x="712" d="M101 119 L147 73 L532 458 L534 458 L534 108 L600 108 L600 548 L576 572 L136 572 L136 506 L486 506 L486 504 L101 119 Z " />
<glyph glyph-name="uni2198" unicode="&#x2198;" horiz-adv-x="712" d="M147 583 L101 537 L486 152 L486 150 L136 150 L136 84 L576 84 L600 108 L600 548 L534 548 L534 198 L532 198 L147 583 Z " />
<glyph glyph-name="uni2199" unicode="&#x2199;" horiz-adv-x="712" d="M611 537 L565 583 L180 198 L178 198 L178 548 L112 548 L112 108 L136 84 L576 84 L576 150 L226 150 L226 152 L611 537 Z " />
<glyph glyph-name="partialdiff" unicode="&#x2202;" horiz-adv-x="508" d="M227 501 C125 501 48 434 48 240 C48 49 120 -12 252 -12 C384 -12 456 49 456 240 C456 492 409 617 343 700 L282 691 C319 627 351 544 363 449 C324 481 277 501 227 501 L227 501 Z M376 240 C376 100 340 50 252 50 C164 50 128 100 128 240 C128 380 165 430 241 430 C309 430 368 395 368 395 C374 349 376 306 376 240 L376 240 Z " />
<glyph glyph-name="product" unicode="&#x220f;" horiz-adv-x="738" d="M566 0 L566 590 L680 590 L680 656 L58 656 L58 590 L172 590 L172 0 L248 0 L248 590 L490 590 L490 0 L566 0 Z " />
<glyph glyph-name="summation" unicode="&#x2211;" horiz-adv-x="535" d="M138 66 L138 68 L363 314 L363 354 L141 588 L141 590 L465 590 L465 656 L50 656 L50 590 L288 336 L288 332 L46 66 L46 0 L477 0 L477 66 L138 66 Z " />
<glyph glyph-name="minus" unicode="&#x2212;" horiz-adv-x="540" d="M64 308 L64 240 L476 240 L476 308 L64 308 Z " />
<glyph glyph-name="radical" unicode="&#x221a;" horiz-adv-x="703" d="M413 192 C383 117 363 58 363 58 L359 58 C359 58 339 117 309 192 L189 492 L25 492 L16 426 L140 426 L311 0 L411 0 L675 656 L598 656 L413 192 Z " />
<glyph glyph-name="infinity" unicode="&#x221e;" horiz-adv-x="804" d="M400 341 L361 385 C329 421 289 446 220 446 C118 446 70 402 70 296 C70 190 118 146 220 146 C289 146 329 172 361 208 L400 252 L402 252 L441 208 C473 172 514 146 583 146 C685 146 734 190 734 296 C734 402 685 446 583 446 C514 446 473 421 441 385 L402 341 L400 341 Z M583 393 C637 393 671 376 671 296 C671 216 637 199 583 199 C537 199 514 213 479 249 L435 295 L435 297 L479 343 C514 379 537 393 583 393 L583 393 Z M368 297 L368 295 L324 249 C289 213 266 199 220 199 C166 199 133 216 133 296 C133 376 166 393 220 393 C266 393 289 379 324 343 L368 297 Z " />
<glyph glyph-name="integral" unicode="&#x222b;" horiz-adv-x="377" d="M150 -89 C150 -128 136 -141 98 -141 C75 -141 45 -137 25 -135 L18 -189 C49 -197 83 -203 117 -203 C191 -203 226 -173 226 -96 L227 591 C227 630 241 643 279 643 C302 643 332 639 352 637 L359 691 C328 699 294 705 260 705 C186 705 151 675 151 598 L150 -89 Z " />
<glyph glyph-name="approxequal" unicode="&#x2248;" horiz-adv-x="540" d="M168 419 C102 419 54 385 54 385 L63 323 C63 323 118 351 168 351 C230 351 298 311 372 311 C438 311 486 345 486 345 L477 407 C477 407 422 379 372 379 C310 379 242 419 168 419 L168 419 Z M168 239 C102 239 54 205 54 205 L63 143 C63 143 118 171 168 171 C230 171 298 131 372 131 C438 131 486 165 486 165 L477 227 C477 227 422 199 372 199 C310 199 242 239 168 239 L168 239 Z " />
<glyph glyph-name="notequal" unicode="&#x2260;" horiz-adv-x="540" d="M64 399 L64 331 L271 331 L207 219 L64 219 L64 151 L168 151 L115 58 L177 58 L230 151 L476 151 L476 219 L269 219 L333 331 L476 331 L476 399 L372 399 L425 492 L363 492 L310 399 L64 399 Z " />
<glyph glyph-name="lessequal" unicode="&#x2264;" horiz-adv-x="540" d="M52 370 L52 304 L472 178 L472 248 L146 336 L146 338 L472 426 L472 496 L52 370 Z M52 242 L52 176 L472 52 L472 118 L52 242 Z " />
<glyph glyph-name="greaterequal" unicode="&#x2265;" horiz-adv-x="540" d="M68 496 L68 426 L394 338 L394 336 L68 248 L68 178 L488 304 L488 370 L68 496 Z M68 118 L68 52 L488 176 L488 242 L68 118 Z " />
<glyph glyph-name="squaremultiply" unicode="&#x22a0;" horiz-adv-x="816" d="M80 0 L736 0 L736 656 L80 656 L80 0 Z M160 584 L656 584 L656 72 L160 72 L160 584 Z M408 376 L259 525 L211 477 L360 328 L211 179 L259 131 L408 280 L557 131 L605 179 L456 328 L605 477 L557 525 L408 376 Z " />
<glyph glyph-name="blacksquare" unicode="&#x25a0;" horiz-adv-x="816" d="M80 0 L736 0 L736 656 L80 656 L80 0 Z " />
<glyph glyph-name="whitesquare" unicode="&#x25a1;" horiz-adv-x="816" d="M80 0 L736 0 L736 656 L80 656 L80 0 Z M160 584 L656 584 L656 72 L160 72 L160 584 Z " />
<glyph glyph-name="blacksmallsquare" unicode="&#x25aa;" horiz-adv-x="636" d="M72 0 L564 0 L564 492 L72 492 L72 0 Z " />
<glyph glyph-name="whitesmallsquare" unicode="&#x25ab;" horiz-adv-x="636" d="M72 0 L564 0 L564 492 L72 492 L72 0 Z M150 424 L486 424 L486 68 L150 68 L150 424 Z " />
<glyph glyph-name="lozenge" unicode="&#x25ca;" horiz-adv-x="672" d="M638 307 L638 349 L362 696 L310 696 L34 349 L34 307 L310 -40 L362 -40 L638 307 Z M335 620 L337 620 L564 329 L564 327 L337 36 L335 36 L108 327 L108 329 L335 620 Z " />
<glyph glyph-name="whitecircle" unicode="&#x25cb;" horiz-adv-x="796" d="M58 328 C58 140 210 -12 398 -12 C586 -12 738 140 738 328 C738 516 586 668 398 668 C210 668 58 516 58 328 L58 328 Z M138 328 C138 472 254 588 398 588 C542 588 658 472 658 328 C658 184 542 68 398 68 C254 68 138 184 138 328 L138 328 Z " />
<glyph glyph-name="blackcircle" unicode="&#x25cf;" horiz-adv-x="796" d="M58 328 C58 140 210 -12 398 -12 C586 -12 738 140 738 328 C738 516 586 668 398 668 C210 668 58 516 58 328 L58 328 Z " />
<glyph glyph-name="ballotboxwithx" unicode="&#x2612;" horiz-adv-x="636" d="M318 288 L229 377 L187 335 L276 246 L187 157 L229 115 L318 204 L407 115 L449 157 L360 246 L449 335 L407 377 L318 288 Z M72 0 L564 0 L564 492 L72 492 L72 0 Z M150 424 L486 424 L486 68 L150 68 L150 424 Z " />
<glyph glyph-name="zero.LT" unicode="&#xe53f;" horiz-adv-x="580" d="M290 668 C116 668 58 566 58 328 C58 90 116 -12 290 -12 C464 -12 522 90 522 328 C522 566 464 668 290 668 L290 668 Z M290 54 C168 54 144 118 144 328 C144 538 168 602 290 602 C412 602 436 538 436 328 C436 118 412 54 290 54 L290 54 Z " />
<glyph glyph-name="five.OP" unicode="&#xe540;" horiz-adv-x="518" d="M156 446 L428 446 L437 516 L81 516 L81 140 L158 140 C174 183 207 203 265 203 C338 203 381 177 381 79 C381 -21 343 -51 253 -51 C193 -51 139 -45 84 -35 L76 -96 C148 -112 198 -119 263 -119 C398 -119 461 -57 461 79 C461 211 403 271 278 271 C217 271 177 251 158 224 L156 224 L156 446 Z " />
<glyph glyph-name="one.LT" unicode="&#xe541;" horiz-adv-x="580" d="M103 0 L508 0 L508 70 L345 70 L345 662 L84 631 L92 573 L266 573 L266 70 L103 70 L103 0 Z " />
<glyph glyph-name="two.LT" unicode="&#xe542;" horiz-adv-x="580" d="M171 70 C171 187 182 208 306 285 C458 380 488 412 488 507 C488 631 409 665 279 665 C225 665 157 656 99 641 L107 578 C166 590 224 597 279 597 C381 597 409 569 409 507 C409 444 389 426 264 348 C122 260 92 219 92 74 L92 0 L479 0 L479 70 L171 70 Z " />
<glyph glyph-name="three.LT" unicode="&#xe543;" horiz-adv-x="580" d="M394 339 C452 356 480 410 480 484 C480 630 405 665 276 665 C210 665 138 657 85 641 L93 578 C147 590 215 597 276 597 C381 597 402 555 402 484 C402 414 381 370 276 370 L192 370 L192 300 L276 300 C386 300 412 264 412 180 C412 90 386 60 276 60 C217 60 155 65 89 78 L81 15 C145 -2 208 -9 276 -9 C407 -9 493 20 493 180 C493 285 455 322 394 337 L394 339 Z " />
<glyph glyph-name="four.LT" unicode="&#xe544;" horiz-adv-x="580" d="M358 397 L358 216 L125 216 L125 218 L279 652 L202 663 L46 216 L46 146 L358 146 L358 0 L437 0 L437 146 L542 146 L542 216 L437 216 L437 397 L358 397 Z " />
<glyph glyph-name="five.LT" unicode="&#xe545;" horiz-adv-x="580" d="M173 586 L458 586 L467 656 L97 656 L97 276 L172 276 C186 319 222 339 289 339 C370 339 413 309 413 199 C413 85 370 59 277 59 C217 59 187 63 99 79 L90 16 C166 -7 237 -9 287 -9 C425 -9 496 47 496 199 C496 347 425 407 299 407 C241 407 201 391 175 359 L173 359 L173 586 Z " />
<glyph glyph-name="six.LT" unicode="&#xe546;" horiz-adv-x="580" d="M301 600 C351 600 408 592 469 578 L477 641 C414 659 358 668 301 668 C130 668 73 566 73 328 C73 90 130 -12 301 -12 C429 -12 510 32 510 197 C510 362 429 406 310 406 C219 406 159 361 159 361 C159 539 195 600 301 600 L301 600 Z M301 54 C184 54 159 126 159 298 C159 298 209 338 301 338 C401 338 428 294 428 196 C428 98 401 54 301 54 L301 54 Z " />
<glyph glyph-name="seven.LT" unicode="&#xe547;" horiz-adv-x="580" d="M62 485 L137 495 L137 586 L423 586 L423 584 L208 0 L288 0 L503 586 L503 656 L62 656 L62 485 Z " />
<glyph glyph-name="eight.LT" unicode="&#xe548;" horiz-adv-x="580" d="M426 336 C475 377 502 416 502 485 C502 623 414 668 290 668 C166 668 78 623 78 485 C78 399 113 359 154 336 L154 334 C97 301 60 247 60 179 C60 23 164 -12 290 -12 C416 -12 520 23 520 179 C520 262 490 310 426 334 L426 336 Z M290 602 C378 602 422 574 422 486 C422 423 407 395 361 358 L251 375 C223 379 158 399 158 486 C158 574 202 602 290 602 L290 602 Z M290 54 C200 54 143 80 143 178 C143 236 168 274 220 312 L322 295 C411 282 437 260 437 178 C437 80 380 54 290 54 L290 54 Z " />
<glyph glyph-name="nine.LT" unicode="&#xe549;" horiz-adv-x="580" d="M282 56 C232 56 175 64 114 78 L106 15 C169 -3 225 -12 282 -12 C453 -12 510 90 510 328 C510 566 453 668 282 668 C154 668 73 624 73 459 C73 294 154 250 273 250 C364 250 424 295 424 295 C424 117 388 56 282 56 L282 56 Z M282 602 C399 602 424 530 424 358 C424 358 374 318 282 318 C182 318 155 362 155 460 C155 558 182 602 282 602 L282 602 Z " />
<glyph glyph-name="zero.OP" unicode="&#xe54a;" horiz-adv-x="534" d="M267 528 C113 528 52 445 52 258 C52 71 113 -12 267 -12 C421 -12 482 71 482 258 C482 445 421 528 267 528 L267 528 Z M267 51 C168 51 136 109 136 258 C136 407 168 465 267 465 C366 465 398 407 398 258 C398 109 366 51 267 51 L267 51 Z " />
<glyph glyph-name="one.OP" unicode="&#xe54c;" horiz-adv-x="325" d="M226 0 L226 522 L23 491 L32 435 L148 435 L148 0 L226 0 Z " />
<glyph glyph-name="two.OP" unicode="&#xe54d;" horiz-adv-x="485" d="M141 70 C141 141 158 169 274 227 C408 294 421 325 421 400 C421 489 365 525 247 525 C184 525 128 517 68 502 L76 441 C136 453 203 457 247 457 C324 457 342 434 342 393 C342 353 330 334 214 277 C83 213 63 148 63 62 L63 0 L418 0 L418 70 L141 70 Z " />
<glyph glyph-name="three.OP" unicode="&#xe54e;" horiz-adv-x="468" d="M308 209 C359 223 396 264 396 348 C396 485 336 525 198 525 C158 525 99 517 42 502 L50 441 C112 454 158 457 198 457 C290 457 318 427 318 347 C318 276 290 241 198 241 L138 241 L138 172 L198 172 C294 172 323 148 323 60 C323 -28 294 -52 198 -52 C154 -52 109 -47 46 -35 L38 -96 C95 -111 158 -119 198 -119 C323 -119 404 -89 404 59 C404 170 366 195 308 207 L308 209 Z " />
<glyph glyph-name="four.OP" unicode="&#xe54f;" horiz-adv-x="539" d="M337 267 L337 96 L127 96 L127 98 L274 508 L199 521 L51 100 L51 26 L337 26 L337 -110 L415 -110 L415 26 L505 26 L505 96 L415 96 L415 267 L337 267 Z " />
<glyph glyph-name="six.OP" unicode="&#xe551;" horiz-adv-x="550" d="M286 569 C333 569 382 563 442 549 L450 610 C391 627 340 636 286 636 C125 636 63 551 63 313 C63 78 124 -10 283 -10 C399 -10 484 37 484 189 C484 341 410 388 292 388 C204 388 147 349 147 349 C147 522 186 569 286 569 L286 569 Z M283 56 C183 56 147 112 147 288 C147 288 196 322 283 322 C366 322 404 287 404 189 C404 91 366 56 283 56 L283 56 Z " />
<glyph glyph-name="seven.OP" unicode="&#xe552;" horiz-adv-x="499" d="M38 345 L113 356 L113 446 L367 446 L367 444 L160 -110 L242 -110 L448 443 L448 516 L38 516 L38 345 Z " />
<glyph glyph-name="eight.OP" unicode="&#xe553;" horiz-adv-x="570" d="M410 322 C460 362 481 396 481 462 C481 593 401 636 285 636 C169 636 90 593 90 462 C90 383 115 349 160 320 L160 318 C97 279 73 234 73 171 C73 23 165 -10 285 -10 C405 -10 497 23 497 171 C497 247 471 297 410 320 L410 322 Z M285 570 C363 570 403 546 403 463 C403 403 390 380 347 345 L250 357 C202 363 168 392 168 463 C168 546 207 570 285 570 L285 570 Z M285 56 C197 56 153 77 153 170 C153 225 173 256 223 292 L314 279 C393 268 417 239 417 170 C417 77 373 56 285 56 L285 56 Z " />
<glyph glyph-name="nine.OP" unicode="&#xe554;" horiz-adv-x="550" d="M264 -53 C217 -53 168 -47 108 -33 L100 -94 C159 -111 210 -120 264 -120 C425 -120 487 -35 487 203 C487 438 426 526 267 526 C151 526 66 479 66 327 C66 175 140 128 258 128 C346 128 403 167 403 167 C403 -6 364 -53 264 -53 L264 -53 Z M267 460 C367 460 403 404 403 228 C403 228 354 194 267 194 C184 194 146 229 146 327 C146 425 184 460 267 460 L267 460 Z " />
<glyph glyph-name="I.alt" unicode="&#xe788;" horiz-adv-x="420" d="M42 0 L378 0 L378 72 L250 72 L250 584 L374 584 L374 656 L46 656 L46 584 L170 584 L170 72 L42 72 L42 0 Z " />
<glyph glyph-name="breve.cap" unicode="&#xf6a2;" horiz-adv-x="434" d="M72 859 C75 813 90 790 105 777 C121 763 152 745 217 745 C282 745 313 763 329 777 C344 790 359 813 362 859 L307 867 C305 847 299 829 291 821 C281 811 265 799 217 799 C169 799 153 811 143 821 C135 829 129 847 127 867 L72 859 Z " />
<glyph glyph-name="ring.cap" unicode="&#xf6a4;" horiz-adv-x="342" d="M171 880 C212 880 220 868 220 822 C220 776 212 762 171 762 C130 762 122 776 122 822 C122 868 130 880 171 880 L171 880 Z M171 919 C99 919 72 888 72 822 C72 756 99 723 171 723 C243 723 270 756 270 822 C270 888 243 919 171 919 L171 919 Z " />
<glyph glyph-name="circumflex.cap" unicode="&#xf6a5;" horiz-adv-x="428" d="M356 761 L247 866 L181 866 L72 761 L120 734 L213 817 L215 817 L308 734 L356 761 Z " />
<glyph glyph-name="dotaccent.cap" unicode="&#xf6a6;" horiz-adv-x="232" d="M116 850 C74 850 72 848 72 806 C72 764 74 762 116 762 C158 762 160 764 160 806 C160 848 158 850 116 850 L116 850 Z " />
<glyph glyph-name="tilde.cap" unicode="&#xf6a7;" horiz-adv-x="448" d="M324 856 C321 834 314 819 304 814 C298 811 287 808 268 816 L196 845 C175 853 152 856 130 849 C104 841 81 818 72 758 L124 750 C127 772 134 787 144 792 C150 795 161 798 180 790 L252 761 C273 753 296 750 318 757 C344 765 367 788 376 848 L324 856 Z " />
<glyph glyph-name="acute.cap" unicode="&#xf6a8;" horiz-adv-x="269" d="M111 866 L72 727 L122 727 L197 866 L111 866 Z " />
<glyph glyph-name="caron.cap" unicode="&#xf6a9;" horiz-adv-x="428" d="M72 843 L181 738 L247 738 L356 843 L308 870 L215 787 L213 787 L120 870 L72 843 Z " />
<glyph glyph-name="dieresis.cap" unicode="&#xf6aa;" horiz-adv-x="414" d="M116 850 C74 850 72 848 72 806 C72 764 74 762 116 762 C158 762 160 764 160 806 C160 848 158 850 116 850 L116 850 Z M298 850 C256 850 254 848 254 806 C254 764 256 762 298 762 C340 762 342 764 342 806 C342 848 340 850 298 850 L298 850 Z " />
<glyph glyph-name="grave.cap" unicode="&#xf6ab;" horiz-adv-x="269" d="M72 866 L147 727 L197 727 L158 866 L72 866 Z " />
<glyph glyph-name="hungarumlaut.cap" unicode="&#xf6ac;" horiz-adv-x="397" d="M111 866 L72 727 L122 727 L192 866 L111 866 Z M244 866 L205 727 L255 727 L325 866 L244 866 Z " />
<glyph glyph-name="macron.cap" unicode="&#xf6ad;" horiz-adv-x="406" d="M72 835 L72 777 L334 777 L334 835 L72 835 Z " />
<glyph glyph-name="commaaccent" unicode="&#xf6ae;" horiz-adv-x="220" d="M72 -74 L72 -249 L118 -249 L148 -126 L148 -74 L72 -74 Z " />
<glyph glyph-name="fi" unicode="&#xfb01;" horiz-adv-x="604" d="M193 591 C193 630 207 643 245 643 C268 643 297 639 317 637 L325 691 C294 699 260 705 226 705 C152 705 117 675 117 598 L117 492 L38 492 L38 426 L117 426 L117 0 L193 0 L193 426 L298 426 L307 492 L193 492 L193 591 Z M517 492 L441 492 L441 0 L517 0 L517 492 Z M479 680 C438 680 436 678 436 637 C436 596 438 594 479 594 C520 594 522 596 522 637 C522 678 520 680 479 680 L479 680 Z " />
<glyph glyph-name="fl" unicode="&#xfb02;" horiz-adv-x="632" d="M193 591 C193 630 207 643 245 643 C268 643 297 639 317 637 L325 691 C294 699 260 705 226 705 C152 705 117 675 117 598 L117 492 L38 492 L38 426 L117 426 L117 0 L193 0 L193 426 L298 426 L307 492 L193 492 L193 591 Z M545 57 C517 57 506 69 506 104 L506 702 L430 691 L430 94 C430 29 462 -4 522 -4 C547 -4 569 -1 592 8 L585 62 C572 59 556 57 545 57 L545 57 Z " />
</font>
</defs>
</svg>
