<svg xmlns="http://www.w3.org/2000/svg">
<defs>
<font id="Tram Joanneum Medium">
<font-face  font-family="Tram Joanneum" units-per-em="1000" ascent="750" descent="-250" font-style="normal" font-weight="500" font-stretch="normal" cap-height="656" x-height="492" underline-position="-75" underline-thickness="50" />

<glyph glyph-name="NULL" d="" />
<glyph glyph-name="CR" unicode="&#xd;" horiz-adv-x="250" d="" />
<glyph glyph-name="space" unicode="&#x20;" horiz-adv-x="232" d="" />
<glyph glyph-name="exclam" unicode="&#x21;" horiz-adv-x="286" d="M143 122 C82 122 80 120 80 59 C80 -2 82 -4 143 -4 C204 -4 206 -2 206 59 C206 120 204 122 143 122 L143 122 Z M200 656 L86 656 L86 360 L105 192 L181 192 L200 360 L200 656 Z " />
<glyph glyph-name="quotedbl" unicode="&#x22;" horiz-adv-x="351" d="M42 696 L42 601 L60 445 L116 445 L134 601 L134 696 L42 696 Z M217 696 L217 601 L235 445 L291 445 L309 601 L309 696 L217 696 Z " />
<glyph glyph-name="numbersign" unicode="&#x23;" horiz-adv-x="625" d="M581 433 L589 511 L495 511 L509 656 L420 656 L406 511 L255 511 L269 656 L180 656 L166 511 L73 511 L65 433 L158 433 L137 223 L44 223 L36 145 L129 145 L115 0 L204 0 L218 145 L369 145 L355 0 L444 0 L458 145 L552 145 L560 223 L466 223 L487 433 L581 433 Z M226 223 L247 433 L398 433 L377 223 L226 223 Z " />
<glyph glyph-name="dollar" unicode="&#x24;" horiz-adv-x="535" d="M242 386 C181 396 153 417 153 482 C153 545 178 573 268 573 C328 573 374 566 446 555 L457 640 C408 652 356 660 311 663 L311 778 L225 765 L225 663 C107 654 48 605 48 482 C48 359 104 302 203 288 L287 276 C358 266 377 241 377 175 C377 110 349 83 268 83 C219 83 160 87 75 102 L64 16 C120 2 177 -5 225 -8 L225 -122 L311 -109 L311 -7 C445 2 485 59 485 181 C485 307 432 356 332 372 L242 386 Z " />
<glyph glyph-name="percent" unicode="&#x25;" horiz-adv-x="863" d="M194 593 C249 593 260 570 260 472 C260 374 249 351 194 351 C139 351 128 373 128 472 C128 570 139 593 194 593 L194 593 Z M194 662 C88 662 42 618 42 472 C42 327 88 282 194 282 C300 282 346 327 346 472 C346 618 300 662 194 662 L194 662 Z M669 306 C724 306 735 283 735 185 C735 87 724 64 669 64 C614 64 603 86 603 185 C603 283 614 306 669 306 L669 306 Z M669 375 C563 375 517 331 517 185 C517 40 563 -5 669 -5 C775 -5 821 40 821 185 C821 331 775 375 669 375 L669 375 Z M289 0 L664 656 L575 656 L199 0 L289 0 Z " />
<glyph glyph-name="ampersand" unicode="&#x26;" horiz-adv-x="654" d="M496 160 L516 306 L598 306 L598 394 L439 394 L419 246 L237 434 C186 488 177 508 177 537 C177 570 205 579 268 579 C314 579 382 573 431 566 L443 642 C385 656 311 665 268 665 C137 665 75 632 75 535 C75 481 98 445 163 373 C70 271 39 233 39 160 C39 39 118 -9 278 -9 C383 -9 444 10 466 60 L522 0 L646 0 L496 160 Z M278 77 C181 77 143 102 143 160 C143 216 162 238 226 309 L397 129 C387 87 357 77 278 77 L278 77 Z " />
<glyph glyph-name="quotesingle" unicode="&#x27;" horiz-adv-x="176" d="M42 696 L42 601 L60 445 L116 445 L134 601 L134 696 L42 696 Z " />
<glyph glyph-name="parenleft" unicode="&#x28;" horiz-adv-x="278" d="M162 755 C99 681 70 572 70 304 C70 36 99 -73 162 -147 L220 -79 C182 -10 178 80 178 304 C178 528 182 618 220 687 L162 755 Z " />
<glyph glyph-name="parenright" unicode="&#x29;" horiz-adv-x="278" d="M116 -147 C179 -73 208 36 208 304 C208 572 179 681 116 755 L58 687 C96 618 100 528 100 304 C100 80 96 -10 58 -79 L116 -147 Z " />
<glyph glyph-name="asterisk" unicode="&#x2a;" horiz-adv-x="550" d="M323 545 L300 696 L250 696 L227 545 L78 571 L62 523 L200 457 L127 321 L168 290 L275 402 L382 290 L423 321 L350 457 L488 523 L472 571 L323 545 Z " />
<glyph glyph-name="plus" unicode="&#x2b;" horiz-adv-x="528" d="M312 318 L312 474 L216 474 L216 318 L58 318 L58 230 L216 230 L216 74 L312 74 L312 230 L470 230 L470 318 L312 318 Z " />
<glyph glyph-name="comma" unicode="&#x2c;" horiz-adv-x="264" d="M132 122 C71 122 69 120 69 59 C69 0 71 -4 128 -4 C126 -54 101 -86 74 -111 L117 -138 C176 -90 195 -39 195 59 C195 120 193 122 132 122 L132 122 Z " />
<glyph glyph-name="hyphen" unicode="&#x2d;" horiz-adv-x="360" d="M50 318 L50 230 L310 230 L310 318 L50 318 Z " />
<glyph glyph-name="period" unicode="&#x2e;" horiz-adv-x="264" d="M132 122 C71 122 69 120 69 59 C69 -2 71 -4 132 -4 C193 -4 195 -2 195 59 C195 120 193 122 132 122 L132 122 Z " />
<glyph glyph-name="slash" unicode="&#x2f;" horiz-adv-x="364" d="M163 -136 L288 744 L201 744 L76 -136 L163 -136 Z " />
<glyph glyph-name="zero" unicode="0" horiz-adv-x="586" d="M293 668 C119 668 52 577 52 328 C52 79 119 -12 293 -12 C467 -12 534 79 534 328 C534 577 467 668 293 668 L293 668 Z M293 75 C189 75 164 124 164 328 C164 532 189 581 293 581 C397 581 422 532 422 328 C422 124 397 75 293 75 L293 75 Z " />
<glyph glyph-name="one" unicode="1" horiz-adv-x="455" d="M75 0 L403 0 L403 92 L291 92 L291 662 L56 631 L67 552 L187 552 L187 92 L75 92 L75 0 Z " />
<glyph glyph-name="two" unicode="2" horiz-adv-x="538" d="M165 92 C165 179 176 204 293 276 C457 377 476 407 476 507 C476 636 390 665 258 665 C198 665 134 657 69 640 L80 555 C158 571 199 575 258 575 C342 575 372 557 372 507 C372 450 365 435 235 357 C102 277 62 230 62 92 L62 0 L467 0 L467 92 L165 92 Z " />
<glyph glyph-name="three" unicode="3" horiz-adv-x="522" d="M362 339 C416 354 451 409 451 478 C451 624 381 665 238 665 C188 665 115 656 58 640 L69 555 C131 568 188 575 238 575 C329 575 348 546 348 478 C348 410 329 381 238 381 L165 381 L165 289 L238 289 C331 289 357 265 357 185 C357 105 331 81 238 81 C189 81 139 87 65 100 L54 15 C128 -2 188 -9 238 -9 C384 -9 463 25 463 185 C463 285 419 323 362 337 L362 339 Z " />
<glyph glyph-name="four" unicode="4" horiz-adv-x="586" d="M358 397 L358 227 L157 227 L157 229 L309 649 L206 664 L50 229 L50 135 L358 135 L358 0 L462 0 L462 135 L564 135 L564 227 L462 227 L462 397 L358 397 Z " />
<glyph glyph-name="five" unicode="5" horiz-adv-x="545" d="M173 566 L453 566 L462 656 L73 656 L73 272 L173 272 C183 308 212 327 274 327 C344 327 384 302 384 205 C384 108 351 83 262 83 C202 83 165 84 77 100 L66 15 C142 -8 222 -9 272 -9 C413 -9 491 50 491 204 C491 358 416 417 293 417 C245 417 196 398 175 369 L173 369 L173 566 Z " />
<glyph glyph-name="six" unicode="6" horiz-adv-x="566" d="M291 578 C348 578 402 569 465 555 L476 640 C413 658 348 668 291 668 C120 668 54 576 54 328 C54 80 120 -12 291 -12 C423 -12 509 35 509 202 C509 369 424 416 304 416 C219 416 163 379 163 379 C163 538 201 578 291 578 L291 578 Z M291 76 C190 76 163 130 163 296 C163 296 212 326 291 326 C377 326 401 293 401 201 C401 109 377 76 291 76 L291 76 Z " />
<glyph glyph-name="seven" unicode="7" horiz-adv-x="513" d="M27 476 L129 489 L129 564 L362 564 L362 562 L155 0 L263 0 L470 562 L470 656 L27 656 L27 476 Z " />
<glyph glyph-name="eight" unicode="8" horiz-adv-x="604" d="M449 336 C498 379 523 416 523 485 C523 625 436 668 302 668 C168 668 81 625 81 485 C81 399 113 362 155 336 L155 334 C100 299 63 247 63 179 C63 21 167 -12 302 -12 C437 -12 541 21 541 179 C541 262 509 311 449 334 L449 336 Z M302 581 C379 581 417 566 417 486 C417 433 402 399 366 370 L277 384 C228 392 187 412 187 486 C187 566 225 581 302 581 L302 581 Z M302 75 C217 75 173 96 173 178 C173 232 187 260 239 300 L320 286 C404 273 431 253 431 178 C431 96 387 75 302 75 L302 75 Z " />
<glyph glyph-name="nine" unicode="9" horiz-adv-x="566" d="M275 78 C218 78 164 87 101 101 L90 16 C153 -2 218 -12 275 -12 C446 -12 512 80 512 328 C512 576 446 668 275 668 C143 668 57 621 57 454 C57 287 142 240 262 240 C347 240 403 277 403 277 C403 118 365 78 275 78 L275 78 Z M275 580 C376 580 403 526 403 360 C403 360 354 330 275 330 C189 330 165 363 165 455 C165 547 189 580 275 580 L275 580 Z " />
<glyph glyph-name="colon" unicode="&#x3a;" horiz-adv-x="264" d="M132 122 C71 122 69 120 69 59 C69 -2 71 -4 132 -4 C193 -4 195 -2 195 59 C195 120 193 122 132 122 L132 122 Z M132 426 C71 426 69 424 69 363 C69 302 71 300 132 300 C193 300 195 302 195 363 C195 424 193 426 132 426 L132 426 Z " />
<glyph glyph-name="semicolon" unicode="&#x3b;" horiz-adv-x="264" d="M132 122 C71 122 69 120 69 59 C69 0 71 -4 128 -4 C126 -54 101 -86 74 -111 L117 -138 C176 -90 195 -39 195 59 C195 120 193 122 132 122 L132 122 Z M132 426 C71 426 69 424 69 363 C69 302 71 300 132 300 C193 300 195 302 195 363 C195 424 193 426 132 426 L132 426 Z " />
<glyph glyph-name="less" unicode="&#x3c;" horiz-adv-x="540" d="M472 44 L472 144 L162 273 L162 275 L472 404 L472 504 L52 315 L52 233 L472 44 Z " />
<glyph glyph-name="equal" unicode="&#x3d;" horiz-adv-x="540" d="M64 409 L64 321 L476 321 L476 409 L64 409 Z M64 229 L64 141 L476 141 L476 229 L64 229 Z " />
<glyph glyph-name="greater" unicode="&#x3e;" horiz-adv-x="540" d="M68 504 L68 404 L378 275 L378 273 L68 144 L68 44 L488 233 L488 315 L68 504 Z " />
<glyph glyph-name="question" unicode="&#x3f;" horiz-adv-x="470" d="M224 665 C165 665 97 657 30 640 L41 555 C112 569 162 575 224 575 C307 575 322 553 323 513 C324 468 319 450 249 416 C157 371 125 338 136 258 L145 192 L228 192 L228 251 C228 293 243 311 306 342 C394 385 427 414 427 514 C427 623 366 665 224 665 L224 665 Z M188 122 C127 122 125 120 125 59 C125 -2 127 -4 188 -4 C249 -4 251 -2 251 59 C251 120 249 122 188 122 L188 122 Z " />
<glyph glyph-name="at" unicode="&#x40;" horiz-adv-x="732" d="M552 114 C515 92 472 78 428 78 C393 78 362 92 362 138 C362 180 376 205 434 213 L552 229 L552 114 Z M654 335 C654 459 583 501 378 501 C187 501 68 456 68 149 C68 -158 188 -203 378 -203 C469 -203 551 -193 643 -172 L633 -95 C527 -115 462 -121 378 -121 C235 -121 172 -72 172 149 C172 369 235 419 378 419 C522 419 552 403 552 336 L552 310 L421 292 C322 278 261 242 261 138 C261 27 330 -9 412 -9 C468 -9 518 14 561 48 L574 0 L654 0 L654 335 Z " />
<glyph glyph-name="A" unicode="A" horiz-adv-x="600" d="M581 0 L368 656 L232 656 L19 0 L130 0 L174 137 L426 137 L470 0 L581 0 Z M205 233 L265 428 C284 491 298 550 298 550 L302 550 C302 550 316 491 335 428 L395 233 L205 233 Z " />
<glyph glyph-name="B" unicode="B" horiz-adv-x="583" d="M439 333 C481 345 526 387 526 475 C526 619 448 656 322 656 L74 656 L74 0 L316 0 C464 0 540 31 540 183 C540 284 489 323 439 331 L439 333 Z M180 96 L180 282 L322 282 C396 282 429 269 429 189 C429 109 396 96 322 96 L180 96 Z M322 560 C386 560 418 542 418 469 C418 396 386 378 322 378 L180 378 L180 560 L322 560 Z " />
<glyph glyph-name="C" unicode="C" horiz-adv-x="541" d="M318 83 C211 83 165 130 165 328 C165 527 211 573 318 573 C371 573 409 568 478 555 L489 640 C418 657 366 665 313 665 C132 665 50 588 50 328 C50 68 132 -9 313 -9 C366 -9 418 -1 489 16 L478 101 C409 88 371 83 318 83 L318 83 Z " />
<glyph glyph-name="D" unicode="D" horiz-adv-x="605" d="M74 656 L74 0 L263 0 C421 0 555 25 555 328 C555 631 421 656 263 656 L74 656 Z M180 96 L180 560 L263 560 C403 560 442 531 442 328 C442 125 403 96 263 96 L180 96 Z " />
<glyph glyph-name="E" unicode="E" horiz-adv-x="540" d="M488 656 L74 656 L74 0 L494 0 L494 96 L180 96 L180 281 L464 281 L464 377 L180 377 L180 560 L488 560 L488 656 Z " />
<glyph glyph-name="F" unicode="F" horiz-adv-x="522" d="M484 656 L74 656 L74 0 L180 0 L180 273 L460 273 L460 369 L180 369 L180 560 L484 560 L484 656 Z " />
<glyph glyph-name="G" unicode="G" horiz-adv-x="602" d="M317 364 L317 268 L436 268 L436 94 C400 86 361 83 317 83 C206 83 165 139 165 328 C165 518 206 573 317 573 C375 573 430 569 516 555 L527 640 C448 657 374 665 317 665 C135 665 50 579 50 328 C50 77 135 -9 317 -9 C398 -9 467 2 540 28 L540 364 L317 364 Z " />
<glyph glyph-name="H" unicode="H" horiz-adv-x="626" d="M446 656 L446 377 L180 377 L180 656 L74 656 L74 0 L180 0 L180 281 L446 281 L446 0 L552 0 L552 656 L446 656 Z " />
<glyph glyph-name="I" unicode="I" horiz-adv-x="278" d="M192 656 L86 656 L86 0 L192 0 L192 656 Z " />
<glyph glyph-name="J" unicode="J" horiz-adv-x="400" d="M222 656 L222 189 C222 107 203 85 133 85 C105 85 65 92 31 101 L20 16 C64 1 114 -6 159 -6 C284 -6 328 58 328 171 L328 656 L222 656 Z " />
<glyph glyph-name="K" unicode="K" horiz-adv-x="582" d="M563 0 L339 329 L557 656 L436 656 L252 377 L180 377 L180 656 L74 656 L74 0 L180 0 L180 281 L252 281 L439 0 L563 0 Z " />
<glyph glyph-name="L" unicode="L" horiz-adv-x="490" d="M74 656 L74 0 L478 0 L478 96 L180 96 L180 656 L74 656 Z " />
<glyph glyph-name="M" unicode="M" horiz-adv-x="754" d="M378 273 L376 273 L210 656 L74 656 L74 0 L180 0 L180 360 C180 441 175 507 175 507 L179 507 C179 507 198 451 228 386 L330 163 L424 163 L526 386 C556 451 575 507 575 507 L579 507 C579 507 574 441 574 360 L574 0 L680 0 L680 656 L544 656 L378 273 Z " />
<glyph glyph-name="N" unicode="N" horiz-adv-x="636" d="M456 656 L456 280 C456 220 459 161 459 161 L457 161 C457 161 439 207 406 265 L183 656 L74 656 L74 0 L180 0 L180 376 C180 436 177 495 177 495 L179 495 C179 495 197 449 230 391 L453 0 L562 0 L562 656 L456 656 Z " />
<glyph glyph-name="O" unicode="O" horiz-adv-x="612" d="M50 328 C50 67 128 -13 306 -13 C484 -13 562 67 562 328 C562 589 484 669 306 669 C128 669 50 589 50 328 L50 328 Z M165 328 C165 518 190 579 306 579 C422 579 447 518 447 328 C447 138 422 77 306 77 C190 77 165 138 165 328 L165 328 Z " />
<glyph glyph-name="P" unicode="P" horiz-adv-x="556" d="M74 656 L74 0 L180 0 L180 230 L304 230 C464 230 526 299 526 443 C526 587 464 656 304 656 L74 656 Z M180 326 L180 560 L304 560 C389 560 416 531 416 443 C416 355 390 326 304 326 L180 326 Z " />
<glyph glyph-name="Q" unicode="Q" horiz-adv-x="612" d="M50 328 C50 93 113 4 256 -10 L256 -120 L356 -107 L356 -10 C498 4 562 93 562 328 C562 589 484 669 306 669 C128 669 50 589 50 328 L50 328 Z M165 328 C165 518 190 579 306 579 C422 579 447 518 447 328 C447 169 429 100 356 82 L356 198 L256 198 L256 82 C182 100 165 169 165 328 L165 328 Z " />
<glyph glyph-name="R" unicode="R" horiz-adv-x="584" d="M74 656 L74 0 L180 0 L180 252 L262 252 C302 252 311 238 324 213 L431 0 L548 0 L440 209 C421 246 410 257 397 263 L397 265 C478 282 526 331 526 454 C526 620 440 656 301 656 L74 656 Z M180 348 L180 560 L301 560 C387 560 417 537 417 454 C417 371 387 348 301 348 L180 348 Z " />
<glyph glyph-name="S" unicode="S" horiz-adv-x="535" d="M242 386 C181 396 153 417 153 482 C153 545 178 573 268 573 C328 573 374 566 446 555 L457 640 C391 656 320 665 268 665 C122 665 48 619 48 482 C48 359 104 302 203 288 L287 276 C358 266 377 241 377 175 C377 110 349 83 268 83 C219 83 160 87 75 102 L64 16 C139 -2 215 -9 268 -9 C437 -9 485 47 485 181 C485 307 432 356 332 372 L242 386 Z " />
<glyph glyph-name="T" unicode="T" horiz-adv-x="532" d="M514 656 L18 656 L18 560 L213 560 L213 0 L319 0 L319 560 L514 560 L514 656 Z " />
<glyph glyph-name="U" unicode="U" horiz-adv-x="626" d="M554 656 L448 656 L448 232 C448 160 420 84 313 84 C206 84 178 160 178 232 L178 656 L72 656 L72 251 C72 91 142 -10 313 -10 C484 -10 554 92 554 251 L554 656 Z " />
<glyph glyph-name="V" unicode="V" horiz-adv-x="586" d="M352 0 L567 656 L452 656 L333 260 C314 196 295 121 295 121 L291 121 C291 121 272 196 253 260 L134 656 L19 656 L234 0 L352 0 Z " />
<glyph glyph-name="W" unicode="W" horiz-adv-x="830" d="M804 656 L696 656 L626 324 C609 243 593 149 593 149 L589 149 C589 149 574 239 553 324 L473 646 L357 646 L278 324 C257 239 241 149 241 149 L237 149 C237 149 221 243 204 324 L134 656 L26 656 L180 0 L289 0 L385 385 C401 449 414 524 414 524 L416 524 C416 524 429 449 445 385 L541 0 L650 0 L804 656 Z " />
<glyph glyph-name="X" unicode="X" horiz-adv-x="588" d="M560 0 L364 329 L554 656 L431 656 L335 479 C315 441 295 402 295 402 L293 402 C293 402 273 441 253 479 L157 656 L34 656 L224 329 L28 0 L153 0 L246 168 C270 211 293 254 293 254 L295 254 C295 254 318 211 342 168 L435 0 L560 0 Z " />
<glyph glyph-name="Y" unicode="Y" horiz-adv-x="572" d="M435 656 L338 459 C312 406 288 352 288 352 L284 352 C284 352 260 406 234 459 L137 656 L15 656 L233 243 L233 0 L339 0 L339 243 L557 656 L435 656 Z " />
<glyph glyph-name="Z" unicode="Z" horiz-adv-x="556" d="M499 656 L51 656 L51 560 L378 560 L378 558 L47 98 L47 0 L503 0 L503 96 L168 96 L168 98 L499 558 L499 656 Z " />
<glyph glyph-name="bracketleft" unicode="&#x5b;" horiz-adv-x="334" d="M83 -136 L279 -136 L279 -46 L183 -46 L183 654 L279 654 L279 744 L83 744 L83 -136 Z " />
<glyph glyph-name="backslash" unicode="&#x5c;" horiz-adv-x="360" d="M286 -136 L161 744 L74 744 L199 -136 L286 -136 Z " />
<glyph glyph-name="bracketright" unicode="&#x5d;" horiz-adv-x="334" d="M251 744 L55 744 L55 654 L151 654 L151 -46 L55 -46 L55 -136 L251 -136 L251 744 Z " />
<glyph glyph-name="asciicircum" unicode="&#x5e;" horiz-adv-x="594" d="M502 364 L348 696 L246 696 L92 364 L193 364 L257 508 C281 562 295 602 295 602 L299 602 C299 602 313 562 337 508 L401 364 L502 364 Z " />
<glyph glyph-name="underscore" unicode="&#x5f;" horiz-adv-x="376" d="M15 -106 L15 -194 L361 -194 L361 -106 L15 -106 Z " />
<glyph glyph-name="grave" unicode="&#x60;" horiz-adv-x="290" d="M72 696 L152 557 L218 557 L182 696 L72 696 Z " />
<glyph glyph-name="a" unicode="a" horiz-adv-x="496" d="M432 349 C432 468 363 501 256 501 C196 501 133 487 69 465 L78 389 C137 406 199 417 242 417 C307 417 330 401 330 336 L330 310 L199 292 C100 278 39 242 39 138 C39 27 108 -9 190 -9 C246 -9 296 14 339 48 L352 0 L432 0 L432 349 Z M330 114 C293 92 250 78 206 78 C171 78 140 92 140 138 C140 180 154 205 212 213 L330 229 L330 114 Z " />
<glyph glyph-name="b" unicode="b" horiz-adv-x="527" d="M304 501 C249 501 201 476 168 451 L168 703 L66 688 L66 0 L146 0 L159 48 C201 14 250 -9 304 -9 C402 -9 483 50 483 246 C483 442 402 501 304 501 L304 501 Z M287 83 C242 83 194 99 168 114 L168 378 C194 393 242 409 287 409 C346 409 377 370 377 246 C377 128 346 83 287 83 L287 83 Z " />
<glyph glyph-name="c" unicode="c" horiz-adv-x="447" d="M261 75 C185 75 149 105 149 246 C149 387 185 417 261 417 C305 417 348 411 394 403 L403 479 C351 493 297 501 257 501 C117 501 42 448 42 246 C42 44 117 -9 257 -9 C297 -9 351 -1 403 13 L394 89 C348 81 305 75 261 75 L261 75 Z " />
<glyph glyph-name="d" unicode="d" horiz-adv-x="527" d="M223 501 C125 501 44 442 44 246 C44 50 125 -9 223 -9 C277 -9 326 14 368 48 L381 0 L461 0 L461 703 L359 688 L359 451 C326 476 278 501 223 501 L223 501 Z M240 83 C181 83 150 128 150 246 C150 370 181 409 240 409 C285 409 333 393 359 378 L359 114 C333 99 285 83 240 83 L240 83 Z " />
<glyph glyph-name="e" unicode="e" horiz-adv-x="492" d="M444 246 C444 435 381 501 244 501 C107 501 44 435 44 246 C44 49 111 -9 259 -9 C311 -9 361 -4 418 13 L407 89 C349 78 311 75 259 75 C178 75 151 110 151 200 L444 200 L444 246 Z M151 282 C151 389 178 420 247 420 C316 420 343 389 343 282 L151 282 Z " />
<glyph glyph-name="f" unicode="f" horiz-adv-x="351" d="M207 574 C207 606 216 624 257 624 C274 624 302 621 327 617 L336 690 C302 698 262 705 231 705 C149 705 105 675 105 583 L105 492 L31 492 L31 406 L105 406 L105 0 L207 0 L207 406 L306 406 L318 492 L207 492 L207 574 Z " />
<glyph glyph-name="g" unicode="g" horiz-adv-x="527" d="M178 177 C191 174 220 171 244 171 C364 171 440 200 440 336 C440 367 434 400 421 421 L506 421 L494 496 L369 477 C331 498 288 501 244 501 C124 501 48 472 48 336 C48 253 78 219 113 198 L94 147 C78 105 88 77 107 60 L85 43 C56 20 34 -15 34 -59 C34 -164 103 -203 260 -203 C417 -203 486 -164 486 -59 C486 34 441 79 336 89 L234 99 C179 104 167 112 173 145 L178 177 Z M244 247 C171 247 145 262 145 336 C145 410 171 425 244 425 C317 425 343 410 343 336 C343 262 317 247 244 247 L244 247 Z M311 7 C363 3 389 -4 389 -59 C389 -110 350 -124 260 -124 C170 -124 131 -110 131 -59 C131 -20 139 0 159 26 C170 22 197 17 223 15 L311 7 Z " />
<glyph glyph-name="h" unicode="h" horiz-adv-x="528" d="M312 501 C255 501 209 479 168 451 L168 703 L66 688 L66 0 L168 0 L168 378 C205 394 246 406 288 406 C344 406 362 388 362 330 L362 0 L464 0 L464 354 C464 422 438 501 312 501 L312 501 Z " />
<glyph glyph-name="i" unicode="i" horiz-adv-x="252" d="M177 492 L75 492 L75 0 L177 0 L177 492 Z M126 702 C72 702 70 700 70 646 C70 592 72 590 126 590 C180 590 182 592 182 646 C182 700 180 702 126 702 L126 702 Z " />
<glyph glyph-name="j" unicode="j" horiz-adv-x="254" d="M181 492 L79 492 L79 0 C79 -62 71 -118 50 -190 L130 -201 C161 -144 181 -82 181 0 L181 492 Z M130 702 C76 702 74 700 74 646 C74 592 76 590 130 590 C184 590 186 592 186 646 C186 700 184 702 130 702 L130 702 Z " />
<glyph glyph-name="k" unicode="k" horiz-adv-x="491" d="M476 0 L302 264 L466 492 L345 492 L221 310 L168 310 L168 703 L66 688 L66 0 L168 0 L168 218 L223 218 L361 0 L476 0 Z " />
<glyph glyph-name="l" unicode="l" horiz-adv-x="277" d="M168 703 L66 687 L66 106 C66 31 97 -4 167 -4 C195 -4 225 2 246 11 L236 83 C222 80 212 79 205 79 C177 79 168 87 168 123 L168 703 Z " />
<glyph glyph-name="m" unicode="m" horiz-adv-x="768" d="M416 445 C397 473 369 501 303 501 C245 501 190 473 158 444 L145 492 L66 492 L66 0 L168 0 L168 378 C192 392 230 406 272 406 C318 406 334 386 334 330 L334 0 L436 0 L436 350 C436 363 435 373 434 382 C434 382 476 406 540 406 C586 406 602 386 602 330 L602 0 L704 0 L704 354 C704 442 669 501 571 501 C502 501 449 474 416 445 L416 445 Z " />
<glyph glyph-name="n" unicode="n" horiz-adv-x="528" d="M312 501 C251 501 201 475 158 444 L145 492 L66 492 L66 0 L168 0 L168 378 C205 394 246 406 288 406 C344 406 362 388 362 330 L362 0 L464 0 L464 354 C464 422 438 501 312 501 L312 501 Z " />
<glyph glyph-name="o" unicode="o" horiz-adv-x="514" d="M257 504 C112 504 42 443 42 246 C42 49 112 -12 257 -12 C402 -12 472 49 472 246 C472 443 402 504 257 504 L257 504 Z M257 70 C171 70 149 105 149 246 C149 387 171 422 257 422 C343 422 365 387 365 246 C365 105 343 70 257 70 L257 70 Z " />
<glyph glyph-name="p" unicode="p" horiz-adv-x="527" d="M304 -9 C402 -9 483 50 483 246 C483 442 402 501 304 501 C250 501 201 478 159 444 L146 492 L66 492 L66 -201 L168 -186 L168 41 C201 16 249 -9 304 -9 L304 -9 Z M287 409 C346 409 377 364 377 246 C377 122 346 83 287 83 C242 83 194 99 168 114 L168 378 C194 393 242 409 287 409 L287 409 Z " />
<glyph glyph-name="q" unicode="q" horiz-adv-x="527" d="M223 -9 C278 -9 326 16 359 41 L359 -201 L461 -186 L461 492 L381 492 L368 444 C326 478 277 501 223 501 C125 501 44 442 44 246 C44 50 125 -9 223 -9 L223 -9 Z M240 409 C285 409 333 393 359 378 L359 114 C333 99 285 83 240 83 C181 83 150 122 150 246 C150 364 181 409 240 409 L240 409 Z " />
<glyph glyph-name="r" unicode="r" horiz-adv-x="338" d="M306 501 C243 501 187 468 160 439 L146 492 L66 492 L66 0 L168 0 L168 371 C202 388 258 398 306 398 L306 501 Z " />
<glyph glyph-name="s" unicode="s" horiz-adv-x="457" d="M203 297 C162 302 141 316 141 358 C141 408 163 418 234 418 C279 418 336 411 382 403 L391 479 C333 493 273 501 222 501 C102 501 46 467 46 357 C46 253 100 222 173 211 L253 199 C294 193 313 179 313 135 C313 91 294 76 217 76 C170 76 123 79 64 89 L55 13 C111 -2 176 -9 222 -9 C370 -9 411 38 411 139 C411 235 369 274 282 286 L203 297 Z " />
<glyph glyph-name="t" unicode="t" horiz-adv-x="379" d="M199 406 L340 406 L352 492 L199 492 L199 635 L97 620 L97 492 L22 492 L22 406 L97 406 L97 124 C97 30 145 -4 229 -4 C268 -4 304 0 342 13 L333 85 C305 80 284 77 259 77 C210 77 199 96 199 143 L199 406 Z " />
<glyph glyph-name="u" unicode="u" horiz-adv-x="528" d="M216 -9 C277 -9 327 17 370 48 L383 0 L462 0 L462 492 L360 492 L360 114 C323 98 282 86 240 86 C184 86 166 104 166 162 L166 492 L64 492 L64 138 C64 70 90 -9 216 -9 L216 -9 Z " />
<glyph glyph-name="v" unicode="v" horiz-adv-x="492" d="M365 492 L282 234 C261 169 248 112 248 112 L244 112 C244 112 231 169 210 234 L127 492 L17 492 L194 0 L298 0 L475 492 L365 492 Z " />
<glyph glyph-name="w" unicode="w" horiz-adv-x="698" d="M575 492 L515 240 C503 190 493 129 493 129 L489 129 C489 129 478 192 466 240 L401 492 L297 492 L232 240 C219 191 209 129 209 129 L205 129 C205 129 195 190 183 240 L123 492 L20 492 L153 0 L254 0 L327 279 C340 327 348 376 348 376 L350 376 C350 376 357 327 370 279 L444 0 L545 0 L678 492 L575 492 Z " />
<glyph glyph-name="x" unicode="x" horiz-adv-x="488" d="M462 492 L347 492 L276 375 C259 348 245 320 245 320 L243 320 C243 320 229 348 212 375 L141 492 L26 492 L181 254 L24 0 L136 0 L209 125 C227 156 243 188 243 188 L245 188 C245 188 261 155 279 125 L352 0 L464 0 L307 254 L462 492 Z " />
<glyph glyph-name="y" unicode="y" horiz-adv-x="492" d="M365 492 L282 234 C261 169 248 112 248 112 L244 112 C244 112 231 169 210 234 L127 492 L17 492 L194 0 L182 -35 C160 -99 148 -111 68 -122 L79 -203 C203 -193 236 -173 298 0 L475 492 L365 492 Z " />
<glyph glyph-name="z" unicode="z" horiz-adv-x="458" d="M160 86 L160 88 L413 406 L413 492 L43 492 L43 406 L294 406 L294 404 L41 86 L41 0 L415 0 L415 86 L160 86 Z " />
<glyph glyph-name="braceleft" unicode="&#x7b;" horiz-adv-x="354" d="M103 -30 C103 -105 147 -136 211 -136 L299 -136 L299 -46 L242 -46 C210 -46 203 -34 203 -8 L203 178 C203 265 176 291 143 303 L143 305 C176 317 203 343 203 430 L203 616 C203 642 210 654 242 654 L299 654 L299 744 L211 744 C147 744 103 713 103 638 L103 442 C103 362 89 349 24 349 L24 259 C89 259 103 246 103 166 L103 -30 Z " />
<glyph glyph-name="bar" unicode="&#x7c;" horiz-adv-x="240" d="M77 -136 L163 -136 L163 744 L77 744 L77 -136 Z " />
<glyph glyph-name="braceright" unicode="&#x7d;" horiz-adv-x="354" d="M251 638 C251 713 207 744 143 744 L55 744 L55 654 L112 654 C144 654 151 642 151 616 L151 430 C151 343 178 317 211 305 L211 303 C178 291 151 265 151 178 L151 -8 C151 -34 144 -46 112 -46 L55 -46 L55 -136 L143 -136 C207 -136 251 -105 251 -30 L251 166 C251 246 265 259 330 259 L330 349 C265 349 251 362 251 442 L251 638 Z " />
<glyph glyph-name="asciitilde" unicode="&#x7e;" horiz-adv-x="562" d="M388 351 C383 325 380 315 369 308 C363 304 346 306 326 314 L249 343 C212 357 172 356 148 344 C124 332 94 307 87 228 L174 215 C179 241 184 252 193 258 C199 262 216 260 236 252 L313 223 C350 209 390 210 414 222 C438 234 468 259 475 338 L388 351 Z " />
<glyph glyph-name="nbspace" unicode="&#xa0;" horiz-adv-x="232" d="" />
<glyph glyph-name="exclamdown" unicode="&#xa1;" horiz-adv-x="272" d="M122 370 C183 370 185 372 185 433 C185 494 183 496 122 496 C61 496 59 494 59 433 C59 372 61 370 122 370 L122 370 Z M65 -164 L179 -164 L179 132 L160 300 L84 300 L65 132 L65 -164 Z " />
<glyph glyph-name="cent" unicode="&#xa2;" horiz-adv-x="453" d="M267 75 C191 75 155 105 155 246 C155 387 191 417 267 417 C311 417 354 411 400 403 L409 479 C374 488 338 495 306 498 L306 614 L220 601 L220 499 C107 488 48 426 48 246 C48 66 107 4 220 -7 L220 -122 L306 -109 L306 -6 C338 -3 374 3 409 13 L400 89 C354 81 311 75 267 75 L267 75 Z " />
<glyph glyph-name="sterling" unicode="&#xa3;" horiz-adv-x="499" d="M435 285 L447 371 L236 371 L236 467 C236 558 267 572 340 572 C391 572 442 565 494 555 L505 640 C446 655 382 665 340 665 C217 665 130 637 130 480 L130 371 L39 371 L39 285 L130 285 L130 96 L39 96 L39 0 L520 0 L520 96 L236 96 L236 285 L435 285 Z " />
<glyph glyph-name="currency" unicode="&#xa4;" horiz-adv-x="757" d="M590 28 L668 106 L573 201 C587 230 594 268 594 317 C594 366 587 403 573 433 L668 528 L590 606 L490 506 C459 516 422 521 379 521 C335 521 297 517 267 506 L168 606 L89 527 L184 433 C171 403 164 365 164 317 C164 268 171 230 185 201 L90 106 L168 28 L268 128 C298 117 335 113 379 113 C422 113 459 117 489 127 L590 28 Z M379 193 C290 193 269 222 269 317 C269 412 290 441 379 441 C468 441 489 412 489 317 C489 222 468 193 379 193 L379 193 Z " />
<glyph glyph-name="yen" unicode="&#xa5;" horiz-adv-x="592" d="M523 294 L376 294 L412 362 L513 362 L523 436 L451 436 L567 656 L445 656 L348 459 C322 406 298 352 298 352 L294 352 C294 352 270 406 244 459 L147 656 L25 656 L141 436 L80 436 L70 362 L180 362 L216 294 L80 294 L70 220 L243 220 L243 0 L349 0 L349 220 L513 220 L523 294 Z " />
<glyph glyph-name="brokenbar" unicode="&#xa6;" horiz-adv-x="240" d="M77 355 L163 355 L163 744 L77 744 L77 355 Z M77 -136 L163 -136 L163 253 L77 253 L77 -136 Z " />
<glyph glyph-name="section" unicode="&#xa7;" horiz-adv-x="494" d="M154 527 C154 571 179 582 247 582 C298 582 349 574 405 564 L415 641 C355 656 294 664 247 664 C93 664 60 618 60 527 C60 477 76 450 114 410 C67 386 42 339 42 249 C42 95 115 67 247 67 C263 67 278 67 292 68 C308 53 341 21 341 -26 C341 -70 315 -80 247 -80 C202 -80 150 -74 89 -62 L79 -139 C134 -155 214 -162 247 -162 C401 -162 434 -117 434 -26 C434 29 405 63 380 88 C427 111 452 159 452 249 C452 403 379 431 247 431 C231 431 216 430 201 429 C164 470 154 498 154 527 L154 527 Z M247 147 C159 147 142 163 142 249 C142 335 159 351 247 351 C335 351 352 335 352 249 C352 163 335 147 247 147 L247 147 Z " />
<glyph glyph-name="dieresis" unicode="&#xa8;" horiz-adv-x="436" d="M126 690 C74 690 72 688 72 636 C72 584 74 582 126 582 C178 582 180 584 180 636 C180 688 178 690 126 690 L126 690 Z M310 690 C258 690 256 688 256 636 C256 584 258 582 310 582 C362 582 364 584 364 636 C364 688 362 690 310 690 L310 690 Z " />
<glyph glyph-name="copyright" unicode="&#xa9;" horiz-adv-x="848" d="M424 668 C208 668 85 546 85 328 C85 110 208 -12 424 -12 C640 -12 763 110 763 328 C763 546 640 668 424 668 L424 668 Z M424 55 C251 55 159 140 159 328 C159 516 251 600 424 600 C597 600 689 516 689 328 C689 140 597 55 424 55 L424 55 Z M427 206 C377 206 350 234 350 328 C350 422 377 450 427 450 C471 450 496 446 546 438 L555 507 C510 518 456 524 427 524 C320 524 256 484 256 328 C256 172 320 132 427 132 C456 132 510 138 555 149 L546 218 C496 210 471 206 427 206 L427 206 Z " />
<glyph glyph-name="ordfeminine" unicode="&#xaa;" horiz-adv-x="372" d="M317 569 C317 641 271 662 193 662 C161 662 101 652 60 637 L68 575 C113 587 162 592 186 592 C222 592 235 584 235 561 L235 540 L154 529 C76 516 43 489 43 419 C43 351 94 322 147 322 C188 322 210 330 243 354 L251 328 L317 328 L317 569 Z M235 412 C235 412 215 390 165 390 C138 390 125 402 125 424 C125 449 132 463 171 468 L235 477 L235 412 Z " />
<glyph glyph-name="guillemotleft" unicode="&#xab;" horiz-adv-x="506" d="M60 274 L156 81 L242 94 L167 274 L242 454 L156 467 L60 274 Z M250 274 L346 81 L432 94 L357 274 L432 454 L346 467 L250 274 Z " />
<glyph glyph-name="logicalnot" unicode="&#xac;" horiz-adv-x="540" d="M64 318 L64 230 L380 230 L380 74 L476 74 L475 318 L64 318 Z " />
<glyph glyph-name="registered" unicode="&#xae;" horiz-adv-x="848" d="M424 668 C208 668 85 546 85 328 C85 110 208 -12 424 -12 C640 -12 763 110 763 328 C763 546 640 668 424 668 L424 668 Z M424 55 C251 55 159 140 159 328 C159 516 251 601 424 601 C597 601 689 516 689 328 C689 140 597 55 424 55 L424 55 Z M590 136 L529 249 C519 267 513 275 506 280 L506 281 C540 290 577 314 577 395 C577 482 535 518 439 518 L296 518 L296 136 L375 136 L376 272 L409 272 C427 272 434 267 440 256 L501 136 L590 136 Z M376 342 L376 448 L439 448 C481 448 496 433 496 395 C496 357 481 342 439 342 L376 342 Z " />
<glyph glyph-name="macron" unicode="&#xaf;" horiz-adv-x="424" d="M72 674 L72 598 L352 598 L352 674 L72 674 Z " />
<glyph glyph-name="degree" unicode="&#xb0;" horiz-adv-x="432" d="M78 530 C78 447 133 392 216 392 C299 392 354 447 354 530 C354 613 299 668 216 668 C133 668 78 613 78 530 L78 530 Z M144 530 C144 573 170 607 216 607 C262 607 288 573 288 530 C288 487 262 453 216 453 C170 453 144 487 144 530 L144 530 Z " />
<glyph glyph-name="plusminus" unicode="&#xb1;" horiz-adv-x="540" d="M318 370 L318 474 L222 474 L222 370 L64 370 L64 282 L222 282 L222 190 L318 190 L318 282 L476 282 L476 370 L318 370 Z M64 162 L64 74 L476 74 L476 162 L64 162 Z " />
<glyph glyph-name="twosuperior" unicode="&#xb2;" horiz-adv-x="342" d="M126 362 C126 389 132 400 200 440 C291 493 299 510 299 568 C299 643 252 662 170 662 C141 662 97 658 49 646 L59 582 C108 591 137 594 170 594 C212 594 220 583 220 566 C220 547 219 535 147 495 C66 450 44 414 44 354 L44 288 L295 288 L295 362 L126 362 Z " />
<glyph glyph-name="threesuperior" unicode="&#xb3;" horiz-adv-x="339" d="M237 475 C270 488 284 509 284 557 C284 642 241 662 154 662 C123 662 81 655 45 646 L55 582 C88 588 123 594 154 594 C198 594 208 585 208 553 C208 521 198 512 154 512 L108 512 L108 438 L154 438 C200 438 211 428 211 394 C211 360 200 350 154 350 C124 350 95 353 53 360 L43 296 C82 287 127 282 154 282 C240 282 289 297 289 389 C289 439 275 464 237 474 L237 475 Z " />
<glyph glyph-name="acute" unicode="&#xb4;" horiz-adv-x="290" d="M108 696 L72 557 L138 557 L218 696 L108 696 Z " />
<glyph glyph-name="micro" unicode="&#xb5;" horiz-adv-x="536" d="M220 -9 C281 -9 331 17 374 48 L387 0 L466 0 L466 492 L364 492 L364 114 C327 98 286 86 244 86 C191 86 172 102 170 153 L170 492 L68 492 L68 -211 L170 -196 L170 5 C179 -4 205 -9 220 -9 L220 -9 Z " />
<glyph glyph-name="paragraph" unicode="&#xb6;" horiz-adv-x="581" d="M497 656 L284 656 C139 656 62 613 62 444 C62 298 118 241 241 233 L241 -201 L343 -186 L343 232 L395 232 L395 -201 L497 -186 L497 656 Z M164 444 C164 539 190 568 284 568 L395 568 L395 320 L284 320 C190 320 164 349 164 444 L164 444 Z " />
<glyph glyph-name="periodcentered" unicode="&#xb7;" horiz-adv-x="260" d="M130 337 C69 337 67 335 67 274 C67 213 69 211 130 211 C191 211 193 213 193 274 C193 335 191 337 130 337 L130 337 Z " />
<glyph glyph-name="cedilla" unicode="&#xb8;" horiz-adv-x="253" d="M92 9 L72 -156 L139 -168 L181 9 L92 9 Z " />
<glyph glyph-name="onesuperior" unicode="&#xb9;" horiz-adv-x="300" d="M42 288 L274 288 L274 362 L200 362 L200 663 L30 639 L37 572 L118 572 L118 362 L42 362 L42 288 Z " />
<glyph glyph-name="ordmasculine" unicode="&#xba;" horiz-adv-x="373" d="M186 662 C95 662 37 632 37 492 C37 352 95 322 186 322 C277 322 336 352 336 492 C336 632 277 662 186 662 L186 662 Z M186 387 C144 387 123 399 123 492 C123 584 144 597 186 597 C228 597 250 585 250 492 C250 399 228 387 186 387 L186 387 Z " />
<glyph glyph-name="guillemotright" unicode="&#xbb;" horiz-adv-x="506" d="M446 274 L350 467 L264 454 L339 274 L264 94 L350 81 L446 274 Z M256 274 L160 467 L74 454 L149 274 L74 94 L160 81 L256 274 Z " />
<glyph glyph-name="onequarter" unicode="&#xbc;" horiz-adv-x="835" d="M639 204 L639 132 L556 132 L556 134 L650 362 L566 374 L470 130 L470 58 L639 58 L639 0 L721 0 L721 58 L782 58 L782 132 L721 132 L721 204 L639 204 Z M269 0 L644 656 L555 656 L179 0 L269 0 Z M43 288 L275 288 L275 362 L201 362 L201 663 L31 639 L38 572 L119 572 L119 362 L43 362 L43 288 Z " />
<glyph glyph-name="onehalf" unicode="&#xbd;" horiz-adv-x="833" d="M269 0 L644 656 L555 656 L179 0 L269 0 Z M43 288 L275 288 L275 362 L201 362 L201 663 L31 639 L38 572 L119 572 L119 362 L43 362 L43 288 Z M612 74 C612 101 618 112 686 152 C777 205 785 222 785 280 C785 355 738 374 656 374 C627 374 583 370 535 358 L545 294 C594 303 623 306 656 306 C698 306 706 295 706 278 C706 259 705 247 633 207 C552 162 530 126 530 66 L530 0 L781 0 L781 74 L612 74 Z " />
<glyph glyph-name="threequarters" unicode="&#xbe;" horiz-adv-x="835" d="M639 204 L639 132 L556 132 L556 134 L650 362 L566 374 L470 130 L470 58 L639 58 L639 0 L721 0 L721 58 L782 58 L782 132 L721 132 L721 204 L639 204 Z M269 0 L644 656 L555 656 L179 0 L269 0 Z M241 475 C274 488 288 509 288 557 C288 642 245 662 158 662 C127 662 85 655 49 646 L59 582 C92 588 127 594 158 594 C202 594 212 585 212 553 C212 521 202 512 158 512 L112 512 L112 438 L158 438 C204 438 215 428 215 394 C215 360 204 350 158 350 C128 350 99 353 57 360 L47 296 C86 287 131 282 158 282 C244 282 293 297 293 389 C293 439 279 464 241 474 L241 475 Z " />
<glyph glyph-name="questiondown" unicode="&#xbf;" horiz-adv-x="470" d="M233 -173 C292 -173 360 -165 427 -148 L416 -63 C345 -77 295 -83 233 -83 C150 -83 135 -61 134 -21 C133 24 138 42 208 76 C300 121 332 154 321 234 L312 300 L229 300 L229 241 C229 199 214 181 151 150 C63 107 30 78 30 -22 C30 -131 91 -173 233 -173 L233 -173 Z M269 370 C330 370 332 372 332 433 C332 494 330 496 269 496 C208 496 206 494 206 433 C206 372 208 370 269 370 L269 370 Z " />
<glyph glyph-name="Agrave" unicode="&#xc0;" horiz-adv-x="600" d="M581 0 L368 656 L232 656 L19 0 L130 0 L174 137 L426 137 L470 0 L581 0 Z M205 233 L265 428 C284 491 298 550 298 550 L302 550 C302 550 316 491 335 428 L395 233 L205 233 Z M183 866 L263 727 L329 727 L293 866 L183 866 Z " />
<glyph glyph-name="Aacute" unicode="&#xc1;" horiz-adv-x="600" d="M581 0 L368 656 L232 656 L19 0 L130 0 L174 137 L426 137 L470 0 L581 0 Z M205 233 L265 428 C284 491 298 550 298 550 L302 550 C302 550 316 491 335 428 L395 233 L205 233 Z M308 866 L272 727 L338 727 L418 866 L308 866 Z " />
<glyph glyph-name="Acircumflex" unicode="&#xc2;" horiz-adv-x="600" d="M581 0 L368 656 L232 656 L19 0 L130 0 L174 137 L426 137 L470 0 L581 0 Z M205 233 L265 428 C284 491 298 550 298 550 L302 550 C302 550 316 491 335 428 L395 233 L205 233 Z M451 764 L342 866 L258 866 L149 764 L212 730 L299 804 L301 804 L388 730 L451 764 Z " />
<glyph glyph-name="Atilde" unicode="&#xc3;" horiz-adv-x="600" d="M581 0 L368 656 L232 656 L19 0 L130 0 L174 137 L426 137 L470 0 L581 0 Z M205 233 L265 428 C284 491 298 550 298 550 L302 550 C302 550 316 491 335 428 L395 233 L205 233 Z M392 860 C389 838 385 828 377 823 C370 819 359 820 341 827 L285 850 C251 864 223 864 201 856 C172 846 148 819 139 759 L208 748 C211 770 215 780 223 785 C230 789 241 788 259 781 L315 758 C349 744 377 744 399 752 C428 762 452 789 461 849 L392 860 Z " />
<glyph glyph-name="Adieresis" unicode="&#xc4;" horiz-adv-x="600" d="M581 0 L368 656 L232 656 L19 0 L130 0 L174 137 L426 137 L470 0 L581 0 Z M205 233 L265 428 C284 491 298 550 298 550 L302 550 C302 550 316 491 335 428 L395 233 L205 233 Z M208 860 C156 860 154 858 154 806 C154 754 156 752 208 752 C260 752 262 754 262 806 C262 858 260 860 208 860 L208 860 Z M392 860 C340 860 338 858 338 806 C338 754 340 752 392 752 C444 752 446 754 446 806 C446 858 444 860 392 860 L392 860 Z " />
<glyph glyph-name="Aring" unicode="&#xc5;" horiz-adv-x="600" d="M581 0 L368 656 L232 656 L19 0 L130 0 L174 137 L426 137 L470 0 L581 0 Z M205 233 L265 428 C284 491 298 550 298 550 L302 550 C302 550 316 491 335 428 L395 233 L205 233 Z M300 872 C332 872 342 863 342 822 C342 781 332 770 300 770 C268 770 258 781 258 822 C258 863 268 872 300 872 L300 872 Z M300 924 C224 924 194 894 194 822 C194 750 224 718 300 718 C376 718 406 750 406 822 C406 894 376 924 300 924 L300 924 Z " />
<glyph glyph-name="AE" unicode="&#xc6;" horiz-adv-x="944" d="M892 656 L438 656 L2 0 L133 0 L223 137 L478 137 L478 0 L898 0 L898 96 L584 96 L584 281 L868 281 L868 377 L584 377 L584 560 L892 560 L892 656 Z M287 233 L409 428 C448 490 474 542 474 542 L478 542 L478 233 L287 233 Z " />
<glyph glyph-name="Ccedilla" unicode="&#xc7;" horiz-adv-x="541" d="M318 83 C211 83 165 130 165 328 C165 527 211 573 318 573 C371 573 409 568 478 555 L489 640 C418 657 366 665 313 665 C132 665 50 588 50 328 C50 103 111 15 245 -4 L227 -156 L294 -168 L332 -9 C378 -7 426 1 489 16 L478 101 C409 88 371 83 318 83 L318 83 Z " />
<glyph glyph-name="Egrave" unicode="&#xc8;" horiz-adv-x="540" d="M488 656 L74 656 L74 0 L494 0 L494 96 L180 96 L180 281 L464 281 L464 377 L180 377 L180 560 L488 560 L488 656 Z M167 866 L247 727 L313 727 L277 866 L167 866 Z " />
<glyph glyph-name="Eacute" unicode="&#xc9;" horiz-adv-x="540" d="M488 656 L74 656 L74 0 L494 0 L494 96 L180 96 L180 281 L464 281 L464 377 L180 377 L180 560 L488 560 L488 656 Z M283 866 L247 727 L313 727 L393 866 L283 866 Z " />
<glyph glyph-name="Ecircumflex" unicode="&#xca;" horiz-adv-x="540" d="M488 656 L74 656 L74 0 L494 0 L494 96 L180 96 L180 281 L464 281 L464 377 L180 377 L180 560 L488 560 L488 656 Z M431 764 L322 866 L238 866 L129 764 L192 730 L279 804 L281 804 L368 730 L431 764 Z " />
<glyph glyph-name="Edieresis" unicode="&#xcb;" horiz-adv-x="540" d="M488 656 L74 656 L74 0 L494 0 L494 96 L180 96 L180 281 L464 281 L464 377 L180 377 L180 560 L488 560 L488 656 Z M194 854 C142 854 140 852 140 800 C140 748 142 746 194 746 C246 746 248 748 248 800 C248 852 246 854 194 854 L194 854 Z M378 854 C326 854 324 852 324 800 C324 748 326 746 378 746 C430 746 432 748 432 800 C432 852 430 854 378 854 L378 854 Z " />
<glyph glyph-name="Igrave" unicode="&#xcc;" horiz-adv-x="278" d="M192 656 L86 656 L86 0 L192 0 L192 656 Z M26 866 L106 727 L172 727 L136 866 L26 866 Z " />
<glyph glyph-name="Iacute" unicode="&#xcd;" horiz-adv-x="278" d="M192 656 L86 656 L86 0 L192 0 L192 656 Z M142 866 L106 727 L172 727 L252 866 L142 866 Z " />
<glyph glyph-name="Icircumflex" unicode="&#xce;" horiz-adv-x="278" d="M192 656 L86 656 L86 0 L192 0 L192 656 Z M290 764 L181 866 L97 866 L-12 764 L51 730 L138 804 L140 804 L227 730 L290 764 Z " />
<glyph glyph-name="Idieresis" unicode="&#xcf;" horiz-adv-x="278" d="M192 656 L86 656 L86 0 L192 0 L192 656 Z M47 860 C-5 860 -7 858 -7 806 C-7 754 -5 752 47 752 C99 752 101 754 101 806 C101 858 99 860 47 860 L47 860 Z M231 860 C179 860 177 858 177 806 C177 754 179 752 231 752 C283 752 285 754 285 806 C285 858 283 860 231 860 L231 860 Z " />
<glyph glyph-name="Eth" unicode="&#xd0;" horiz-adv-x="627" d="M96 656 L96 365 L14 365 L14 291 L96 291 L96 0 L285 0 C443 0 577 25 577 328 C577 631 443 656 285 656 L96 656 Z M202 96 L202 291 L311 291 L311 365 L202 365 L202 560 L285 560 C425 560 464 531 464 328 C464 125 425 96 285 96 L202 96 Z " />
<glyph glyph-name="Ntilde" unicode="&#xd1;" horiz-adv-x="636" d="M456 656 L456 280 C456 220 459 161 459 161 L457 161 C457 161 439 207 406 265 L183 656 L74 656 L74 0 L180 0 L180 376 C180 436 177 495 177 495 L179 495 C179 495 197 449 230 391 L453 0 L562 0 L562 656 L456 656 Z M410 859 C407 837 403 827 395 822 C388 818 377 819 359 826 L303 849 C269 863 241 863 219 855 C190 845 166 818 157 758 L226 747 C229 769 233 779 241 784 C248 788 259 787 277 780 L333 757 C367 743 395 743 417 751 C446 761 470 788 479 848 L410 859 Z " />
<glyph glyph-name="Ograve" unicode="&#xd2;" horiz-adv-x="612" d="M50 328 C50 67 128 -13 306 -13 C484 -13 562 67 562 328 C562 589 484 669 306 669 C128 669 50 589 50 328 L50 328 Z M165 328 C165 518 190 579 306 579 C422 579 447 518 447 328 C447 138 422 77 306 77 C190 77 165 138 165 328 L165 328 Z M193 866 L273 727 L339 727 L303 866 L193 866 Z " />
<glyph glyph-name="Oacute" unicode="&#xd3;" horiz-adv-x="612" d="M50 328 C50 67 128 -13 306 -13 C484 -13 562 67 562 328 C562 589 484 669 306 669 C128 669 50 589 50 328 L50 328 Z M165 328 C165 518 190 579 306 579 C422 579 447 518 447 328 C447 138 422 77 306 77 C190 77 165 138 165 328 L165 328 Z M309 866 L273 727 L339 727 L419 866 L309 866 Z " />
<glyph glyph-name="Ocircumflex" unicode="&#xd4;" horiz-adv-x="612" d="M50 328 C50 67 128 -13 306 -13 C484 -13 562 67 562 328 C562 589 484 669 306 669 C128 669 50 589 50 328 L50 328 Z M165 328 C165 518 190 579 306 579 C422 579 447 518 447 328 C447 138 422 77 306 77 C190 77 165 138 165 328 L165 328 Z M457 764 L348 866 L264 866 L155 764 L218 730 L305 804 L307 804 L394 730 L457 764 Z " />
<glyph glyph-name="Otilde" unicode="&#xd5;" horiz-adv-x="612" d="M50 328 C50 67 128 -13 306 -13 C484 -13 562 67 562 328 C562 589 484 669 306 669 C128 669 50 589 50 328 L50 328 Z M165 328 C165 518 190 579 306 579 C422 579 447 518 447 328 C447 138 422 77 306 77 C190 77 165 138 165 328 L165 328 Z M398 859 C395 837 391 827 383 822 C376 818 365 819 347 826 L291 849 C257 863 229 863 207 855 C178 845 154 818 145 758 L214 747 C217 769 221 779 229 784 C236 788 247 787 265 780 L321 757 C355 743 383 743 405 751 C434 761 458 788 467 848 L398 859 Z " />
<glyph glyph-name="Odieresis" unicode="&#xd6;" horiz-adv-x="612" d="M50 328 C50 67 128 -13 306 -13 C484 -13 562 67 562 328 C562 589 484 669 306 669 C128 669 50 589 50 328 L50 328 Z M165 328 C165 518 190 579 306 579 C422 579 447 518 447 328 C447 138 422 77 306 77 C190 77 165 138 165 328 L165 328 Z M214 860 C162 860 160 858 160 806 C160 754 162 752 214 752 C266 752 268 754 268 806 C268 858 266 860 214 860 L214 860 Z M398 860 C346 860 344 858 344 806 C344 754 346 752 398 752 C450 752 452 754 452 806 C452 858 450 860 398 860 L398 860 Z " />
<glyph glyph-name="multiply" unicode="&#xd7;" horiz-adv-x="540" d="M270 336 L122 484 L60 422 L208 274 L60 126 L122 64 L270 212 L418 64 L480 126 L332 274 L480 422 L418 484 L270 336 Z " />
<glyph glyph-name="Oslash" unicode="&#xd8;" horiz-adv-x="612" d="M50 328 C50 197 69 112 111 59 L40 -66 L122 -66 L167 14 C204 -5 250 -13 306 -13 C484 -13 562 67 562 328 C562 459 542 544 500 597 L572 722 L490 722 L444 642 C407 661 362 669 306 669 C128 669 50 589 50 328 L50 328 Z M447 328 C447 138 422 77 306 77 C267 77 238 84 217 100 L435 482 C444 444 447 394 447 328 L447 328 Z M165 328 C165 518 190 579 306 579 C345 579 374 572 395 555 L177 174 C168 211 165 262 165 328 L165 328 Z " />
<glyph glyph-name="Ugrave" unicode="&#xd9;" horiz-adv-x="626" d="M554 656 L448 656 L448 232 C448 160 420 84 313 84 C206 84 178 160 178 232 L178 656 L72 656 L72 251 C72 91 142 -10 313 -10 C484 -10 554 92 554 251 L554 656 Z M200 866 L280 727 L346 727 L310 866 L200 866 Z " />
<glyph glyph-name="Uacute" unicode="&#xda;" horiz-adv-x="626" d="M554 656 L448 656 L448 232 C448 160 420 84 313 84 C206 84 178 160 178 232 L178 656 L72 656 L72 251 C72 91 142 -10 313 -10 C484 -10 554 92 554 251 L554 656 Z M316 866 L280 727 L346 727 L426 866 L316 866 Z " />
<glyph glyph-name="Ucircumflex" unicode="&#xdb;" horiz-adv-x="626" d="M554 656 L448 656 L448 232 C448 160 420 84 313 84 C206 84 178 160 178 232 L178 656 L72 656 L72 251 C72 91 142 -10 313 -10 C484 -10 554 92 554 251 L554 656 Z M464 764 L355 866 L271 866 L162 764 L225 730 L312 804 L314 804 L401 730 L464 764 Z " />
<glyph glyph-name="Udieresis" unicode="&#xdc;" horiz-adv-x="626" d="M554 656 L448 656 L448 232 C448 160 420 84 313 84 C206 84 178 160 178 232 L178 656 L72 656 L72 251 C72 91 142 -10 313 -10 C484 -10 554 92 554 251 L554 656 Z M221 860 C169 860 167 858 167 806 C167 754 169 752 221 752 C273 752 275 754 275 806 C275 858 273 860 221 860 L221 860 Z M405 860 C353 860 351 858 351 806 C351 754 353 752 405 752 C457 752 459 754 459 806 C459 858 457 860 405 860 L405 860 Z " />
<glyph glyph-name="Yacute" unicode="&#xdd;" horiz-adv-x="572" d="M435 656 L338 459 C312 406 288 352 288 352 L284 352 C284 352 260 406 234 459 L137 656 L15 656 L233 243 L233 0 L339 0 L339 243 L557 656 L435 656 Z M289 866 L253 727 L319 727 L399 866 L289 866 Z " />
<glyph glyph-name="Thorn" unicode="&#xde;" horiz-adv-x="556" d="M176 546 L176 656 L74 656 L74 0 L180 0 L180 120 L304 120 C464 120 526 189 526 333 C526 477 464 546 304 546 L176 546 Z M180 216 L180 450 L304 450 C389 450 416 421 416 333 C416 245 390 216 304 216 L180 216 Z " />
<glyph glyph-name="germandbls" unicode="&#xdf;" horiz-adv-x="545" d="M398 178 C398 103 380 69 324 69 C291 69 266 73 228 80 L219 7 C254 -4 294 -9 331 -9 C435 -9 501 36 501 178 C501 306 450 368 356 369 L356 378 C356 398 361 409 399 454 C435 497 446 525 446 564 C446 645 391 705 256 705 C127 705 66 652 66 554 L66 0 L168 0 L168 541 C168 611 202 625 256 625 C317 625 346 604 346 565 C346 535 338 527 308 491 C259 433 258 395 265 340 L272 287 L324 287 C380 287 398 254 398 178 L398 178 Z " />
<glyph glyph-name="agrave" unicode="&#xe0;" horiz-adv-x="496" d="M432 349 C432 468 363 501 256 501 C196 501 133 487 69 465 L78 389 C137 406 199 417 242 417 C307 417 330 401 330 336 L330 310 L199 292 C100 278 39 242 39 138 C39 27 108 -9 190 -9 C246 -9 296 14 339 48 L352 0 L432 0 L432 349 Z M330 114 C293 92 250 78 206 78 C171 78 140 92 140 138 C140 180 154 205 212 213 L330 229 L330 114 Z M138 696 L218 557 L284 557 L248 696 L138 696 Z " />
<glyph glyph-name="aacute" unicode="&#xe1;" horiz-adv-x="496" d="M432 349 C432 468 363 501 256 501 C196 501 133 487 69 465 L78 389 C137 406 199 417 242 417 C307 417 330 401 330 336 L330 310 L199 292 C100 278 39 242 39 138 C39 27 108 -9 190 -9 C246 -9 296 14 339 48 L352 0 L432 0 L432 349 Z M330 114 C293 92 250 78 206 78 C171 78 140 92 140 138 C140 180 154 205 212 213 L330 229 L330 114 Z M254 696 L218 557 L284 557 L364 696 L254 696 Z " />
<glyph glyph-name="acircumflex" unicode="&#xe2;" horiz-adv-x="496" d="M432 349 C432 468 363 501 256 501 C196 501 133 487 69 465 L78 389 C137 406 199 417 242 417 C307 417 330 401 330 336 L330 310 L199 292 C100 278 39 242 39 138 C39 27 108 -9 190 -9 C246 -9 296 14 339 48 L352 0 L432 0 L432 349 Z M330 114 C293 92 250 78 206 78 C171 78 140 92 140 138 C140 180 154 205 212 213 L330 229 L330 114 Z M402 594 L293 696 L209 696 L100 594 L163 560 L250 634 L252 634 L339 560 L402 594 Z " />
<glyph glyph-name="atilde" unicode="&#xe3;" horiz-adv-x="496" d="M432 349 C432 468 363 501 256 501 C196 501 133 487 69 465 L78 389 C137 406 199 417 242 417 C307 417 330 401 330 336 L330 310 L199 292 C100 278 39 242 39 138 C39 27 108 -9 190 -9 C246 -9 296 14 339 48 L352 0 L432 0 L432 349 Z M330 114 C293 92 250 78 206 78 C171 78 140 92 140 138 C140 180 154 205 212 213 L330 229 L330 114 Z M343 689 C340 667 336 657 328 652 C321 648 310 649 292 656 L236 679 C202 693 174 693 152 685 C123 675 99 648 90 588 L159 577 C162 599 166 609 174 614 C181 618 192 617 210 610 L266 587 C300 573 328 573 350 581 C379 591 403 618 412 678 L343 689 Z " />
<glyph glyph-name="adieresis" unicode="&#xe4;" horiz-adv-x="496" d="M432 349 C432 468 363 501 256 501 C196 501 133 487 69 465 L78 389 C137 406 199 417 242 417 C307 417 330 401 330 336 L330 310 L199 292 C100 278 39 242 39 138 C39 27 108 -9 190 -9 C246 -9 296 14 339 48 L352 0 L432 0 L432 349 Z M330 114 C293 92 250 78 206 78 C171 78 140 92 140 138 C140 180 154 205 212 213 L330 229 L330 114 Z M159 690 C107 690 105 688 105 636 C105 584 107 582 159 582 C211 582 213 584 213 636 C213 688 211 690 159 690 L159 690 Z M343 690 C291 690 289 688 289 636 C289 584 291 582 343 582 C395 582 397 584 397 636 C397 688 395 690 343 690 L343 690 Z " />
<glyph glyph-name="aring" unicode="&#xe5;" horiz-adv-x="496" d="M432 349 C432 468 363 501 256 501 C196 501 133 487 69 465 L78 389 C137 406 199 417 242 417 C307 417 330 401 330 336 L330 310 L199 292 C100 278 39 242 39 138 C39 27 108 -9 190 -9 C246 -9 296 14 339 48 L352 0 L432 0 L432 349 Z M330 114 C293 92 250 78 206 78 C171 78 140 92 140 138 C140 180 154 205 212 213 L330 229 L330 114 Z M251 702 C283 702 293 693 293 652 C293 611 283 600 251 600 C219 600 209 611 209 652 C209 693 219 702 251 702 L251 702 Z M251 754 C175 754 145 724 145 652 C145 580 175 548 251 548 C327 548 357 580 357 652 C357 724 327 754 251 754 L251 754 Z " />
<glyph glyph-name="ae" unicode="&#xe6;" horiz-adv-x="773" d="M725 246 C725 435 664 501 527 501 C469 501 429 478 400 451 C368 486 326 501 256 501 C196 501 133 487 69 465 L78 389 C137 406 199 417 242 417 C307 417 330 401 330 336 L330 310 L199 292 C100 278 39 242 39 138 C39 27 114 -9 196 -9 C266 -9 313 10 379 52 C420 3 464 -9 542 -9 C594 -9 642 -4 699 13 L688 89 C630 78 594 75 542 75 C461 75 432 110 432 200 L725 200 L725 246 Z M342 118 C293 87 253 78 206 78 C171 78 140 92 140 138 C140 180 154 205 212 213 L330 229 C330 165 334 146 342 118 L342 118 Z M432 282 L432 380 C454 404 485 420 530 420 C599 420 624 389 624 282 L432 282 Z " />
<glyph glyph-name="ccedilla" unicode="&#xe7;" horiz-adv-x="447" d="M261 75 C185 75 149 105 149 246 C149 387 185 417 261 417 C305 417 348 411 394 403 L403 479 C351 493 297 501 257 501 C117 501 42 448 42 246 C42 79 93 14 189 -3 L171 -156 L238 -168 L276 -8 C313 -6 359 1 403 13 L394 89 C348 81 305 75 261 75 L261 75 Z " />
<glyph glyph-name="egrave" unicode="&#xe8;" horiz-adv-x="492" d="M444 246 C444 435 381 501 244 501 C107 501 44 435 44 246 C44 49 111 -9 259 -9 C311 -9 361 -4 418 13 L407 89 C349 78 311 75 259 75 C178 75 151 110 151 200 L444 200 L444 246 Z M151 282 C151 389 178 420 247 420 C316 420 343 389 343 282 L151 282 Z M133 696 L213 557 L279 557 L243 696 L133 696 Z " />
<glyph glyph-name="eacute" unicode="&#xe9;" horiz-adv-x="492" d="M444 246 C444 435 381 501 244 501 C107 501 44 435 44 246 C44 49 111 -9 259 -9 C311 -9 361 -4 418 13 L407 89 C349 78 311 75 259 75 C178 75 151 110 151 200 L444 200 L444 246 Z M151 282 C151 389 178 420 247 420 C316 420 343 389 343 282 L151 282 Z M249 696 L213 557 L279 557 L359 696 L249 696 Z " />
<glyph glyph-name="ecircumflex" unicode="&#xea;" horiz-adv-x="492" d="M444 246 C444 435 381 501 244 501 C107 501 44 435 44 246 C44 49 111 -9 259 -9 C311 -9 361 -4 418 13 L407 89 C349 78 311 75 259 75 C178 75 151 110 151 200 L444 200 L444 246 Z M151 282 C151 389 178 420 247 420 C316 420 343 389 343 282 L151 282 Z M397 594 L288 696 L204 696 L95 594 L158 560 L245 634 L247 634 L334 560 L397 594 Z " />
<glyph glyph-name="edieresis" unicode="&#xeb;" horiz-adv-x="492" d="M444 246 C444 435 381 501 244 501 C107 501 44 435 44 246 C44 49 111 -9 259 -9 C311 -9 361 -4 418 13 L407 89 C349 78 311 75 259 75 C178 75 151 110 151 200 L444 200 L444 246 Z M151 282 C151 389 178 420 247 420 C316 420 343 389 343 282 L151 282 Z M154 690 C102 690 100 688 100 636 C100 584 102 582 154 582 C206 582 208 584 208 636 C208 688 206 690 154 690 L154 690 Z M338 690 C286 690 284 688 284 636 C284 584 286 582 338 582 C390 582 392 584 392 636 C392 688 390 690 338 690 L338 690 Z " />
<glyph glyph-name="igrave" unicode="&#xec;" horiz-adv-x="252" d="M177 492 L75 492 L75 0 L177 0 L177 492 Z M13 696 L93 557 L159 557 L123 696 L13 696 Z " />
<glyph glyph-name="iacute" unicode="&#xed;" horiz-adv-x="252" d="M177 492 L75 492 L75 0 L177 0 L177 492 Z M129 696 L93 557 L159 557 L239 696 L129 696 Z " />
<glyph glyph-name="icircumflex" unicode="&#xee;" horiz-adv-x="252" d="M177 492 L75 492 L75 0 L177 0 L177 492 Z M277 594 L168 696 L84 696 L-25 594 L38 560 L125 634 L127 634 L214 560 L277 594 Z " />
<glyph glyph-name="idieresis" unicode="&#xef;" horiz-adv-x="252" d="M177 492 L75 492 L75 0 L177 0 L177 492 Z M34 690 C-18 690 -20 688 -20 636 C-20 584 -18 582 34 582 C86 582 88 584 88 636 C88 688 86 690 34 690 L34 690 Z M218 690 C166 690 164 688 164 636 C164 584 166 582 218 582 C270 582 272 584 272 636 C272 688 270 690 218 690 L218 690 Z " />
<glyph glyph-name="eth" unicode="&#xf0;" horiz-adv-x="527" d="M231 546 L327 560 C336 528 344 495 349 462 C323 479 280 501 230 501 C128 501 42 443 42 240 C42 40 123 -12 255 -12 C387 -12 468 40 468 240 C468 391 449 497 423 574 L513 587 L502 651 L397 636 C384 662 370 683 356 701 L273 689 C284 669 295 647 305 622 L220 610 L231 546 Z M362 240 C362 114 331 70 255 70 C183 70 148 100 148 240 C148 380 184 408 244 408 C282 408 317 402 354 387 C360 341 362 301 362 240 L362 240 Z " />
<glyph glyph-name="ntilde" unicode="&#xf1;" horiz-adv-x="528" d="M312 501 C251 501 201 475 158 444 L145 492 L66 492 L66 0 L168 0 L168 378 C205 394 246 406 288 406 C344 406 362 388 362 330 L362 0 L464 0 L464 354 C464 422 438 501 312 501 L312 501 Z M357 689 C354 667 350 657 342 652 C335 648 324 649 306 656 L250 679 C216 693 188 693 166 685 C137 675 113 648 104 588 L173 577 C176 599 180 609 188 614 C195 618 206 617 224 610 L280 587 C314 573 342 573 364 581 C393 591 417 618 426 678 L357 689 Z " />
<glyph glyph-name="ograve" unicode="&#xf2;" horiz-adv-x="514" d="M257 504 C112 504 42 443 42 246 C42 49 112 -12 257 -12 C402 -12 472 49 472 246 C472 443 402 504 257 504 L257 504 Z M257 70 C171 70 149 105 149 246 C149 387 171 422 257 422 C343 422 365 387 365 246 C365 105 343 70 257 70 L257 70 Z M144 696 L224 557 L290 557 L254 696 L144 696 Z " />
<glyph glyph-name="oacute" unicode="&#xf3;" horiz-adv-x="514" d="M257 504 C112 504 42 443 42 246 C42 49 112 -12 257 -12 C402 -12 472 49 472 246 C472 443 402 504 257 504 L257 504 Z M257 70 C171 70 149 105 149 246 C149 387 171 422 257 422 C343 422 365 387 365 246 C365 105 343 70 257 70 L257 70 Z M260 696 L224 557 L290 557 L370 696 L260 696 Z " />
<glyph glyph-name="ocircumflex" unicode="&#xf4;" horiz-adv-x="514" d="M257 504 C112 504 42 443 42 246 C42 49 112 -12 257 -12 C402 -12 472 49 472 246 C472 443 402 504 257 504 L257 504 Z M257 70 C171 70 149 105 149 246 C149 387 171 422 257 422 C343 422 365 387 365 246 C365 105 343 70 257 70 L257 70 Z M408 594 L299 696 L215 696 L106 594 L169 560 L256 634 L258 634 L345 560 L408 594 Z " />
<glyph glyph-name="otilde" unicode="&#xf5;" horiz-adv-x="514" d="M257 504 C112 504 42 443 42 246 C42 49 112 -12 257 -12 C402 -12 472 49 472 246 C472 443 402 504 257 504 L257 504 Z M257 70 C171 70 149 105 149 246 C149 387 171 422 257 422 C343 422 365 387 365 246 C365 105 343 70 257 70 L257 70 Z M349 689 C346 667 342 657 334 652 C327 648 316 649 298 656 L242 679 C208 693 180 693 158 685 C129 675 105 648 96 588 L165 577 C168 599 172 609 180 614 C187 618 198 617 216 610 L272 587 C306 573 334 573 356 581 C385 591 409 618 418 678 L349 689 Z " />
<glyph glyph-name="odieresis" unicode="&#xf6;" horiz-adv-x="514" d="M257 504 C112 504 42 443 42 246 C42 49 112 -12 257 -12 C402 -12 472 49 472 246 C472 443 402 504 257 504 L257 504 Z M257 70 C171 70 149 105 149 246 C149 387 171 422 257 422 C343 422 365 387 365 246 C365 105 343 70 257 70 L257 70 Z M165 690 C113 690 111 688 111 636 C111 584 113 582 165 582 C217 582 219 584 219 636 C219 688 217 690 165 690 L165 690 Z M349 690 C297 690 295 688 295 636 C295 584 297 582 349 582 C401 582 403 584 403 636 C403 688 401 690 349 690 L349 690 Z " />
<glyph glyph-name="divide" unicode="&#xf7;" horiz-adv-x="540" d="M64 318 L64 230 L476 230 L476 318 L64 318 Z M270 490 C216 490 214 488 214 434 C214 380 216 378 270 378 C324 378 326 380 326 434 C326 488 324 490 270 490 L270 490 Z M270 172 C216 172 214 170 214 116 C214 62 216 60 270 60 C324 60 326 62 326 116 C326 170 324 172 270 172 L270 172 Z " />
<glyph glyph-name="oslash" unicode="&#xf8;" horiz-adv-x="514" d="M38 -66 L120 -66 L158 2 C186 -7 219 -12 257 -12 C402 -12 472 49 472 246 C472 347 453 413 415 452 L476 558 L394 558 L355 490 C328 499 295 504 257 504 C112 504 42 443 42 246 C42 144 60 79 98 39 L38 -66 Z M257 70 C234 70 216 72 202 78 L357 350 C362 324 365 290 365 246 C365 105 343 70 257 70 L257 70 Z M149 246 C149 387 171 422 257 422 C279 422 297 419 312 413 L157 142 C151 167 149 201 149 246 L149 246 Z " />
<glyph glyph-name="ugrave" unicode="&#xf9;" horiz-adv-x="528" d="M216 -9 C277 -9 327 17 370 48 L383 0 L462 0 L462 492 L360 492 L360 114 C323 98 282 86 240 86 C184 86 166 104 166 162 L166 492 L64 492 L64 138 C64 70 90 -9 216 -9 L216 -9 Z M150 696 L230 557 L296 557 L260 696 L150 696 Z " />
<glyph glyph-name="uacute" unicode="&#xfa;" horiz-adv-x="528" d="M216 -9 C277 -9 327 17 370 48 L383 0 L462 0 L462 492 L360 492 L360 114 C323 98 282 86 240 86 C184 86 166 104 166 162 L166 492 L64 492 L64 138 C64 70 90 -9 216 -9 L216 -9 Z M270 696 L234 557 L300 557 L380 696 L270 696 Z " />
<glyph glyph-name="ucircumflex" unicode="&#xfb;" horiz-adv-x="528" d="M216 -9 C277 -9 327 17 370 48 L383 0 L462 0 L462 492 L360 492 L360 114 C323 98 282 86 240 86 C184 86 166 104 166 162 L166 492 L64 492 L64 138 C64 70 90 -9 216 -9 L216 -9 Z M414 594 L305 696 L221 696 L112 594 L175 560 L262 634 L264 634 L351 560 L414 594 Z " />
<glyph glyph-name="udieresis" unicode="&#xfc;" horiz-adv-x="528" d="M216 -9 C277 -9 327 17 370 48 L383 0 L462 0 L462 492 L360 492 L360 114 C323 98 282 86 240 86 C184 86 166 104 166 162 L166 492 L64 492 L64 138 C64 70 90 -9 216 -9 L216 -9 Z M171 690 C119 690 117 688 117 636 C117 584 119 582 171 582 C223 582 225 584 225 636 C225 688 223 690 171 690 L171 690 Z M355 690 C303 690 301 688 301 636 C301 584 303 582 355 582 C407 582 409 584 409 636 C409 688 407 690 355 690 L355 690 Z " />
<glyph glyph-name="yacute" unicode="&#xfd;" horiz-adv-x="492" d="M365 492 L282 234 C261 169 248 112 248 112 L244 112 C244 112 231 169 210 234 L127 492 L17 492 L194 0 L182 -35 C160 -99 148 -111 68 -122 L79 -203 C203 -193 236 -173 298 0 L475 492 L365 492 Z M249 696 L213 557 L279 557 L359 696 L249 696 Z " />
<glyph glyph-name="thorn" unicode="&#xfe;" horiz-adv-x="527" d="M168 703 L66 687 L66 -201 L168 -186 L168 41 C201 16 249 -9 304 -9 C402 -9 483 50 483 246 C483 442 402 501 304 501 C249 501 201 476 168 451 L168 703 Z M287 409 C346 409 377 364 377 246 C377 122 346 83 287 83 C242 83 194 99 168 114 L168 378 C194 393 242 409 287 409 L287 409 Z " />
<glyph glyph-name="ydieresis" unicode="&#xff;" horiz-adv-x="492" d="M365 492 L282 234 C261 169 248 112 248 112 L244 112 C244 112 231 169 210 234 L127 492 L17 492 L194 0 L182 -35 C160 -99 148 -111 68 -122 L79 -203 C203 -193 236 -173 298 0 L475 492 L365 492 Z M154 690 C102 690 100 688 100 636 C100 584 102 582 154 582 C206 582 208 584 208 636 C208 688 206 690 154 690 L154 690 Z M338 690 C286 690 284 688 284 636 C284 584 286 582 338 582 C390 582 392 584 392 636 C392 688 390 690 338 690 L338 690 Z " />
<glyph glyph-name="Amacron" unicode="&#x100;" horiz-adv-x="600" d="M581 0 L368 656 L232 656 L19 0 L130 0 L174 137 L426 137 L470 0 L581 0 Z M205 233 L265 428 C284 491 298 550 298 550 L302 550 C302 550 316 491 335 428 L395 233 L205 233 Z M160 844 L160 768 L440 768 L440 844 L160 844 Z " />
<glyph glyph-name="amacron" unicode="&#x101;" horiz-adv-x="496" d="M432 349 C432 468 363 501 256 501 C196 501 133 487 69 465 L78 389 C137 406 199 417 242 417 C307 417 330 401 330 336 L330 310 L199 292 C100 278 39 242 39 138 C39 27 108 -9 190 -9 C246 -9 296 14 339 48 L352 0 L432 0 L432 349 Z M330 114 C293 92 250 78 206 78 C171 78 140 92 140 138 C140 180 154 205 212 213 L330 229 L330 114 Z M111 674 L111 598 L391 598 L391 674 L111 674 Z " />
<glyph glyph-name="Abreve" unicode="&#x102;" horiz-adv-x="600" d="M581 0 L368 656 L232 656 L19 0 L130 0 L174 137 L426 137 L470 0 L581 0 Z M205 233 L265 428 C284 491 298 550 298 550 L302 550 C302 550 316 491 335 428 L395 233 L205 233 Z M146 859 C149 816 165 793 180 777 C194 763 235 743 300 743 C365 743 406 763 420 777 C436 794 451 816 454 859 L382 869 C380 851 374 835 367 828 C359 820 342 813 300 813 C258 813 241 820 233 828 C225 836 220 851 218 869 L146 859 Z " />
<glyph glyph-name="abreve" unicode="&#x103;" horiz-adv-x="496" d="M432 349 C432 468 363 501 256 501 C196 501 133 487 69 465 L78 389 C137 406 199 417 242 417 C307 417 330 401 330 336 L330 310 L199 292 C100 278 39 242 39 138 C39 27 108 -9 190 -9 C246 -9 296 14 339 48 L352 0 L432 0 L432 349 Z M330 114 C293 92 250 78 206 78 C171 78 140 92 140 138 C140 180 154 205 212 213 L330 229 L330 114 Z M97 689 C100 646 116 623 131 607 C145 593 186 573 251 573 C316 573 357 593 371 607 C387 624 402 646 405 689 L333 699 C331 681 325 665 318 658 C310 650 293 643 251 643 C209 643 192 650 184 658 C176 666 171 681 169 699 L97 689 Z " />
<glyph glyph-name="Aogonek" unicode="&#x104;" horiz-adv-x="600" d="M581 0 L368 656 L232 656 L19 0 L130 0 L174 137 L426 137 L470 0 L493 0 L447 -33 C408 -61 397 -87 397 -122 C397 -182 437 -202 498 -202 C518 -202 554 -199 575 -194 L568 -131 C548 -134 525 -136 511 -136 C484 -136 477 -128 477 -118 C477 -108 476 -96 504 -71 L581 0 Z M205 233 L265 428 C284 491 298 550 298 550 L302 550 C302 550 316 491 335 428 L395 233 L205 233 Z " />
<glyph glyph-name="aogonek" unicode="&#x105;" horiz-adv-x="496" d="M432 349 C432 468 363 501 256 501 C196 501 133 487 69 465 L78 389 C137 406 199 417 242 417 C307 417 330 401 330 336 L330 310 L199 292 C100 278 39 242 39 138 C39 27 108 -9 190 -9 C246 -9 296 14 339 48 L350 5 L298 -33 C259 -61 248 -87 248 -122 C248 -182 288 -202 349 -202 C369 -202 405 -199 426 -194 L419 -131 C399 -134 376 -136 362 -136 C335 -136 328 -128 328 -118 C328 -108 327 -96 355 -71 L432 0 L432 349 Z M330 114 C293 92 250 78 206 78 C171 78 140 92 140 138 C140 180 154 205 212 213 L330 229 L330 114 Z " />
<glyph glyph-name="Cacute" unicode="&#x106;" horiz-adv-x="541" d="M318 83 C211 83 165 130 165 328 C165 527 211 573 318 573 C371 573 409 568 478 555 L489 640 C418 657 366 665 313 665 C132 665 50 588 50 328 C50 68 132 -9 313 -9 C366 -9 418 -1 489 16 L478 101 C409 88 371 83 318 83 L318 83 Z M300 866 L264 727 L330 727 L410 866 L300 866 Z " />
<glyph glyph-name="cacute" unicode="&#x107;" horiz-adv-x="447" d="M261 75 C185 75 149 105 149 246 C149 387 185 417 261 417 C305 417 348 411 394 403 L403 479 C351 493 297 501 257 501 C117 501 42 448 42 246 C42 44 117 -9 257 -9 C297 -9 351 -1 403 13 L394 89 C348 81 305 75 261 75 L261 75 Z M253 696 L217 557 L283 557 L363 696 L253 696 Z " />
<glyph glyph-name="Ccircumflex" unicode="&#x108;" horiz-adv-x="541" d="M318 83 C211 83 165 130 165 328 C165 527 211 573 318 573 C371 573 409 568 478 555 L489 640 C418 657 366 665 313 665 C132 665 50 588 50 328 C50 68 132 -9 313 -9 C366 -9 418 -1 489 16 L478 101 C409 88 371 83 318 83 L318 83 Z M448 764 L339 866 L255 866 L146 764 L209 730 L296 804 L298 804 L385 730 L448 764 Z " />
<glyph glyph-name="ccircumflex" unicode="&#x109;" horiz-adv-x="447" d="M261 75 C185 75 149 105 149 246 C149 387 185 417 261 417 C305 417 348 411 394 403 L403 479 C351 493 297 501 257 501 C117 501 42 448 42 246 C42 44 117 -9 257 -9 C297 -9 351 -1 403 13 L394 89 C348 81 305 75 261 75 L261 75 Z M401 594 L292 696 L208 696 L99 594 L162 560 L249 634 L251 634 L338 560 L401 594 Z " />
<glyph glyph-name="Cdotaccent" unicode="&#x10a;" horiz-adv-x="541" d="M318 83 C211 83 165 130 165 328 C165 527 211 573 318 573 C371 573 409 568 478 555 L489 640 C418 657 366 665 313 665 C132 665 50 588 50 328 C50 68 132 -9 313 -9 C366 -9 418 -1 489 16 L478 101 C409 88 371 83 318 83 L318 83 Z M297 872 C243 872 241 870 241 816 C241 762 243 760 297 760 C351 760 353 762 353 816 C353 870 351 872 297 872 L297 872 Z " />
<glyph glyph-name="cdotaccent" unicode="&#x10b;" horiz-adv-x="447" d="M261 75 C185 75 149 105 149 246 C149 387 185 417 261 417 C305 417 348 411 394 403 L403 479 C351 493 297 501 257 501 C117 501 42 448 42 246 C42 44 117 -9 257 -9 C297 -9 351 -1 403 13 L394 89 C348 81 305 75 261 75 L261 75 Z M250 702 C196 702 194 700 194 646 C194 592 196 590 250 590 C304 590 306 592 306 646 C306 700 304 702 250 702 L250 702 Z " />
<glyph glyph-name="Ccaron" unicode="&#x10c;" horiz-adv-x="541" d="M318 83 C211 83 165 130 165 328 C165 527 211 573 318 573 C371 573 409 568 478 555 L489 640 C418 657 366 665 313 665 C132 665 50 588 50 328 C50 68 132 -9 313 -9 C366 -9 418 -1 489 16 L478 101 C409 88 371 83 318 83 L318 83 Z M146 837 L255 735 L339 735 L448 837 L385 871 L298 797 L296 797 L209 871 L146 837 Z " />
<glyph glyph-name="ccaron" unicode="&#x10d;" horiz-adv-x="447" d="M261 75 C185 75 149 105 149 246 C149 387 185 417 261 417 C305 417 348 411 394 403 L403 479 C351 493 297 501 257 501 C117 501 42 448 42 246 C42 44 117 -9 257 -9 C297 -9 351 -1 403 13 L394 89 C348 81 305 75 261 75 L261 75 Z M99 667 L208 565 L292 565 L401 667 L338 701 L251 627 L249 627 L162 701 L99 667 Z " />
<glyph glyph-name="Dcaron" unicode="&#x10e;" horiz-adv-x="605" d="M74 656 L74 0 L263 0 C421 0 555 25 555 328 C555 631 421 656 263 656 L74 656 Z M180 96 L180 560 L263 560 C403 560 442 531 442 328 C442 125 403 96 263 96 L180 96 Z M153 831 L262 729 L346 729 L455 831 L392 865 L305 791 L303 791 L216 865 L153 831 Z " />
<glyph glyph-name="dcaron" unicode="&#x10f;" horiz-adv-x="629" d="M223 501 C125 501 44 442 44 246 C44 50 125 -9 223 -9 C277 -9 326 14 368 48 L381 0 L461 0 L461 703 L359 688 L359 451 C326 476 278 501 223 501 L223 501 Z M240 83 C181 83 150 128 150 246 C150 370 181 409 240 409 C285 409 333 393 359 378 L359 114 C333 99 285 83 240 83 L240 83 Z M533 696 L533 513 L600 513 L635 634 L635 696 L533 696 Z " />
<glyph glyph-name="Dcroat" unicode="&#x110;" horiz-adv-x="627" d="M96 656 L96 365 L14 365 L14 291 L96 291 L96 0 L285 0 C443 0 577 25 577 328 C577 631 443 656 285 656 L96 656 Z M202 96 L202 291 L311 291 L311 365 L202 365 L202 560 L285 560 C425 560 464 531 464 328 C464 125 425 96 285 96 L202 96 Z " />
<glyph glyph-name="dcroat" unicode="&#x111;" horiz-adv-x="531" d="M223 501 C125 501 44 442 44 246 C44 50 125 -9 223 -9 C277 -9 326 14 368 48 L381 0 L461 0 L461 550 L541 550 L541 616 L461 616 L461 703 L359 688 L359 616 L246 616 L246 550 L359 550 L359 451 C326 476 278 501 223 501 L223 501 Z M240 83 C181 83 150 128 150 246 C150 370 181 409 240 409 C285 409 333 393 359 378 L359 114 C333 99 285 83 240 83 L240 83 Z " />
<glyph glyph-name="Emacron" unicode="&#x112;" horiz-adv-x="540" d="M488 656 L74 656 L74 0 L494 0 L494 96 L180 96 L180 281 L464 281 L464 377 L180 377 L180 560 L488 560 L488 656 Z M146 844 L146 768 L426 768 L426 844 L146 844 Z " />
<glyph glyph-name="emacron" unicode="&#x113;" horiz-adv-x="492" d="M444 246 C444 435 381 501 244 501 C107 501 44 435 44 246 C44 49 111 -9 259 -9 C311 -9 361 -4 418 13 L407 89 C349 78 311 75 259 75 C178 75 151 110 151 200 L444 200 L444 246 Z M151 282 C151 389 178 420 247 420 C316 420 343 389 343 282 L151 282 Z M106 674 L106 598 L386 598 L386 674 L106 674 Z " />
<glyph glyph-name="Ebreve" unicode="&#x114;" horiz-adv-x="540" d="M488 656 L74 656 L74 0 L494 0 L494 96 L180 96 L180 281 L464 281 L464 377 L180 377 L180 560 L488 560 L488 656 Z M132 853 C135 810 151 787 166 771 C180 757 221 737 286 737 C351 737 392 757 406 771 C422 788 437 810 440 853 L368 863 C366 845 360 829 353 822 C345 814 328 807 286 807 C244 807 227 814 219 822 C211 830 206 845 204 863 L132 853 Z " />
<glyph glyph-name="ebreve" unicode="&#x115;" horiz-adv-x="492" d="M444 246 C444 435 381 501 244 501 C107 501 44 435 44 246 C44 49 111 -9 259 -9 C311 -9 361 -4 418 13 L407 89 C349 78 311 75 259 75 C178 75 151 110 151 200 L444 200 L444 246 Z M151 282 C151 389 178 420 247 420 C316 420 343 389 343 282 L151 282 Z M92 689 C95 646 111 623 126 607 C140 593 181 573 246 573 C311 573 352 593 366 607 C382 624 397 646 400 689 L328 699 C326 681 320 665 313 658 C305 650 288 643 246 643 C204 643 187 650 179 658 C171 666 166 681 164 699 L92 689 Z " />
<glyph glyph-name="Edotaccent" unicode="&#x116;" horiz-adv-x="540" d="M488 656 L74 656 L74 0 L494 0 L494 96 L180 96 L180 281 L464 281 L464 377 L180 377 L180 560 L488 560 L488 656 Z M291 872 C237 872 235 870 235 816 C235 762 237 760 291 760 C345 760 347 762 347 816 C347 870 345 872 291 872 L291 872 Z " />
<glyph glyph-name="edotaccent" unicode="&#x117;" horiz-adv-x="492" d="M444 246 C444 435 381 501 244 501 C107 501 44 435 44 246 C44 49 111 -9 259 -9 C311 -9 361 -4 418 13 L407 89 C349 78 311 75 259 75 C178 75 151 110 151 200 L444 200 L444 246 Z M151 282 C151 389 178 420 247 420 C316 420 343 389 343 282 L151 282 Z M246 702 C192 702 190 700 190 646 C190 592 192 590 246 590 C300 590 302 592 302 646 C302 700 300 702 246 702 L246 702 Z " />
<glyph glyph-name="Eogonek" unicode="&#x118;" horiz-adv-x="540" d="M488 656 L74 656 L74 0 L406 0 L360 -33 C321 -61 310 -87 310 -122 C310 -182 350 -202 411 -202 C431 -202 467 -199 488 -194 L481 -131 C461 -134 438 -136 424 -136 C397 -136 390 -128 390 -118 C390 -108 389 -96 417 -71 L494 0 L494 96 L180 96 L180 281 L464 281 L464 377 L180 377 L180 560 L488 560 L488 656 Z " />
<glyph glyph-name="eogonek" unicode="&#x119;" horiz-adv-x="492" d="M444 246 C444 435 381 501 244 501 C107 501 44 435 44 246 C44 49 111 -9 259 -9 C274 -9 290 -8 305 -7 L270 -33 C231 -61 220 -87 220 -122 C220 -182 260 -202 321 -202 C341 -202 377 -199 398 -194 L391 -131 C371 -134 348 -136 334 -136 C307 -136 300 -128 300 -118 C300 -108 299 -96 327 -71 L418 13 L407 89 C349 78 311 75 259 75 C178 75 151 110 151 200 L444 200 L444 246 Z M151 282 C151 389 178 420 247 420 C316 420 343 389 343 282 L151 282 Z " />
<glyph glyph-name="Ecaron" unicode="&#x11a;" horiz-adv-x="540" d="M488 656 L74 656 L74 0 L494 0 L494 96 L180 96 L180 281 L464 281 L464 377 L180 377 L180 560 L488 560 L488 656 Z M135 837 L244 735 L328 735 L437 837 L374 871 L287 797 L285 797 L198 871 L135 837 Z " />
<glyph glyph-name="ecaron" unicode="&#x11b;" horiz-adv-x="492" d="M444 246 C444 435 381 501 244 501 C107 501 44 435 44 246 C44 49 111 -9 259 -9 C311 -9 361 -4 418 13 L407 89 C349 78 311 75 259 75 C178 75 151 110 151 200 L444 200 L444 246 Z M151 282 C151 389 178 420 247 420 C316 420 343 389 343 282 L151 282 Z M95 667 L204 565 L288 565 L397 667 L334 701 L247 627 L245 627 L158 701 L95 667 Z " />
<glyph glyph-name="Gcircumflex" unicode="&#x11c;" horiz-adv-x="602" d="M317 364 L317 268 L436 268 L436 94 C400 86 361 83 317 83 C206 83 165 139 165 328 C165 518 206 573 317 573 C375 573 430 569 516 555 L527 640 C448 657 374 665 317 665 C135 665 50 579 50 328 C50 77 135 -9 317 -9 C398 -9 467 2 540 28 L540 364 L317 364 Z M472 764 L363 866 L279 866 L170 764 L233 730 L320 804 L322 804 L409 730 L472 764 Z " />
<glyph glyph-name="gcircumflex" unicode="&#x11d;" horiz-adv-x="527" d="M178 177 C191 174 220 171 244 171 C364 171 440 200 440 336 C440 367 434 400 421 421 L506 421 L494 496 L369 477 C331 498 288 501 244 501 C124 501 48 472 48 336 C48 253 78 219 113 198 L94 147 C78 105 88 77 107 60 L85 43 C56 20 34 -15 34 -59 C34 -164 103 -203 260 -203 C417 -203 486 -164 486 -59 C486 34 441 79 336 89 L234 99 C179 104 167 112 173 145 L178 177 Z M244 247 C171 247 145 262 145 336 C145 410 171 425 244 425 C317 425 343 410 343 336 C343 262 317 247 244 247 L244 247 Z M311 7 C363 3 389 -4 389 -59 C389 -110 350 -124 260 -124 C170 -124 131 -110 131 -59 C131 -20 139 0 159 26 C170 22 197 17 223 15 L311 7 Z M397 594 L288 696 L204 696 L95 594 L158 560 L245 634 L247 634 L334 560 L397 594 Z " />
<glyph glyph-name="Gbreve" unicode="&#x11e;" horiz-adv-x="602" d="M317 364 L317 268 L436 268 L436 94 C400 86 361 83 317 83 C206 83 165 139 165 328 C165 518 206 573 317 573 C375 573 430 569 516 555 L527 640 C448 657 374 665 317 665 C135 665 50 579 50 328 C50 77 135 -9 317 -9 C398 -9 467 2 540 28 L540 364 L317 364 Z M167 859 C170 816 186 793 201 777 C215 763 256 743 321 743 C386 743 427 763 441 777 C457 794 472 816 475 859 L403 869 C401 851 395 835 388 828 C380 820 363 813 321 813 C279 813 262 820 254 828 C246 836 241 851 239 869 L167 859 Z " />
<glyph glyph-name="gbreve" unicode="&#x11f;" horiz-adv-x="527" d="M178 177 C191 174 220 171 244 171 C364 171 440 200 440 336 C440 367 434 400 421 421 L506 421 L494 496 L369 477 C331 498 288 501 244 501 C124 501 48 472 48 336 C48 253 78 219 113 198 L94 147 C78 105 88 77 107 60 L85 43 C56 20 34 -15 34 -59 C34 -164 103 -203 260 -203 C417 -203 486 -164 486 -59 C486 34 441 79 336 89 L234 99 C179 104 167 112 173 145 L178 177 Z M244 247 C171 247 145 262 145 336 C145 410 171 425 244 425 C317 425 343 410 343 336 C343 262 317 247 244 247 L244 247 Z M311 7 C363 3 389 -4 389 -59 C389 -110 350 -124 260 -124 C170 -124 131 -110 131 -59 C131 -20 139 0 159 26 C170 22 197 17 223 15 L311 7 Z M92 689 C95 646 111 623 126 607 C140 593 181 573 246 573 C311 573 352 593 366 607 C382 624 397 646 400 689 L328 699 C326 681 320 665 313 658 C305 650 288 643 246 643 C204 643 187 650 179 658 C171 666 166 681 164 699 L92 689 Z " />
<glyph glyph-name="Gdotaccent" unicode="&#x120;" horiz-adv-x="602" d="M317 364 L317 268 L436 268 L436 94 C400 86 361 83 317 83 C206 83 165 139 165 328 C165 518 206 573 317 573 C375 573 430 569 516 555 L527 640 C448 657 374 665 317 665 C135 665 50 579 50 328 C50 77 135 -9 317 -9 C398 -9 467 2 540 28 L540 364 L317 364 Z M321 872 C267 872 265 870 265 816 C265 762 267 760 321 760 C375 760 377 762 377 816 C377 870 375 872 321 872 L321 872 Z " />
<glyph glyph-name="gdotaccent" unicode="&#x121;" horiz-adv-x="527" d="M178 177 C191 174 220 171 244 171 C364 171 440 200 440 336 C440 367 434 400 421 421 L506 421 L494 496 L369 477 C331 498 288 501 244 501 C124 501 48 472 48 336 C48 253 78 219 113 198 L94 147 C78 105 88 77 107 60 L85 43 C56 20 34 -15 34 -59 C34 -164 103 -203 260 -203 C417 -203 486 -164 486 -59 C486 34 441 79 336 89 L234 99 C179 104 167 112 173 145 L178 177 Z M244 247 C171 247 145 262 145 336 C145 410 171 425 244 425 C317 425 343 410 343 336 C343 262 317 247 244 247 L244 247 Z M311 7 C363 3 389 -4 389 -59 C389 -110 350 -124 260 -124 C170 -124 131 -110 131 -59 C131 -20 139 0 159 26 C170 22 197 17 223 15 L311 7 Z M246 702 C192 702 190 700 190 646 C190 592 192 590 246 590 C300 590 302 592 302 646 C302 700 300 702 246 702 L246 702 Z " />
<glyph glyph-name="Gcommaaccent" unicode="&#x122;" horiz-adv-x="602" d="M317 364 L317 268 L436 268 L436 94 C400 86 361 83 317 83 C206 83 165 139 165 328 C165 518 206 573 317 573 C375 573 430 569 516 555 L527 640 C448 657 374 665 317 665 C135 665 50 579 50 328 C50 77 135 -9 317 -9 C398 -9 467 2 540 28 L540 364 L317 364 Z M270 -74 L270 -257 L337 -257 L372 -136 L372 -74 L270 -74 Z " />
<glyph glyph-name="gcommaaccent" unicode="&#x123;" horiz-adv-x="527" d="M178 177 C191 174 220 171 244 171 C364 171 440 200 440 336 C440 367 434 400 421 421 L506 421 L494 496 L369 477 C331 498 288 501 244 501 C124 501 48 472 48 336 C48 253 78 219 113 198 L94 147 C78 105 88 77 107 60 L85 43 C56 20 34 -15 34 -59 C34 -164 103 -203 260 -203 C417 -203 486 -164 486 -59 C486 34 441 79 336 89 L234 99 C179 104 167 112 173 145 L178 177 Z M244 247 C171 247 145 262 145 336 C145 410 171 425 244 425 C317 425 343 410 343 336 C343 262 317 247 244 247 L244 247 Z M311 7 C363 3 389 -4 389 -59 C389 -110 350 -124 260 -124 C170 -124 131 -110 131 -59 C131 -20 139 0 159 26 C170 22 197 17 223 15 L311 7 Z M297 574 L297 757 L230 757 L195 636 L195 574 L297 574 Z " />
<glyph glyph-name="Hcircumflex" unicode="&#x124;" horiz-adv-x="626" d="M446 656 L446 377 L180 377 L180 656 L74 656 L74 0 L180 0 L180 281 L446 281 L446 0 L552 0 L552 656 L446 656 Z M464 764 L355 866 L271 866 L162 764 L225 730 L312 804 L314 804 L401 730 L464 764 Z " />
<glyph glyph-name="hcircumflex" unicode="&#x125;" horiz-adv-x="528" d="M312 501 C255 501 209 479 168 451 L168 703 L66 688 L66 0 L168 0 L168 378 C205 394 246 406 288 406 C344 406 362 388 362 330 L362 0 L464 0 L464 354 C464 422 438 501 312 501 L312 501 Z M268 804 L159 906 L75 906 L-34 804 L29 770 L116 844 L118 844 L205 770 L268 804 Z " />
<glyph glyph-name="Hbar" unicode="&#x126;" horiz-adv-x="626" d="M446 656 L446 539 L180 539 L180 656 L74 656 L74 539 L-2 539 L-2 471 L74 471 L74 0 L180 0 L180 281 L446 281 L446 0 L552 0 L552 471 L628 471 L628 539 L552 539 L552 656 L446 656 Z M180 377 L180 471 L446 471 L446 377 L180 377 Z " />
<glyph glyph-name="hbar" unicode="&#x127;" horiz-adv-x="528" d="M312 501 C255 501 209 479 168 451 L168 550 L281 550 L281 616 L168 616 L168 703 L66 688 L66 616 L-14 616 L-14 550 L66 550 L66 0 L168 0 L168 378 C205 394 246 406 288 406 C344 406 362 388 362 330 L362 0 L464 0 L464 354 C464 422 438 501 312 501 L312 501 Z " />
<glyph glyph-name="Itilde" unicode="&#x128;" horiz-adv-x="278" d="M192 656 L86 656 L86 0 L192 0 L192 656 Z M231 859 C228 837 224 827 216 822 C209 818 198 819 180 826 L124 849 C90 863 62 863 40 855 C11 845 -13 818 -22 758 L47 747 C50 769 54 779 62 784 C69 788 80 787 98 780 L154 757 C188 743 216 743 238 751 C267 761 291 788 300 848 L231 859 Z " />
<glyph glyph-name="itilde" unicode="&#x129;" horiz-adv-x="252" d="M177 492 L75 492 L75 0 L177 0 L177 492 Z M218 689 C215 667 211 657 203 652 C196 648 185 649 167 656 L111 679 C77 693 49 693 27 685 C-2 675 -26 648 -35 588 L34 577 C37 599 41 609 49 614 C56 618 67 617 85 610 L141 587 C175 573 203 573 225 581 C254 591 278 618 287 678 L218 689 Z " />
<glyph glyph-name="Imacron" unicode="&#x12a;" horiz-adv-x="278" d="M192 656 L86 656 L86 0 L192 0 L192 656 Z M-1 844 L-1 768 L279 768 L279 844 L-1 844 Z " />
<glyph glyph-name="imacron" unicode="&#x12b;" horiz-adv-x="252" d="M177 492 L75 492 L75 0 L177 0 L177 492 Z M-14 674 L-14 598 L266 598 L266 674 L-14 674 Z " />
<glyph glyph-name="Iogonek" unicode="&#x12e;" horiz-adv-x="278" d="M192 656 L86 656 L86 0 L104 0 L58 -33 C19 -61 8 -87 8 -122 C8 -182 48 -202 109 -202 C129 -202 165 -199 186 -194 L179 -131 C159 -134 136 -136 122 -136 C95 -136 88 -128 88 -118 C88 -108 87 -96 115 -71 L192 0 L192 656 Z " />
<glyph glyph-name="iogonek" unicode="&#x12f;" horiz-adv-x="252" d="M177 492 L75 492 L75 0 L89 0 L43 -33 C4 -61 -7 -87 -7 -122 C-7 -182 33 -202 94 -202 C114 -202 150 -199 171 -194 L164 -131 C144 -134 121 -136 107 -136 C80 -136 73 -128 73 -118 C73 -108 72 -96 100 -71 L177 0 L177 492 Z M126 702 C72 702 70 700 70 646 C70 592 72 590 126 590 C180 590 182 592 182 646 C182 700 180 702 126 702 L126 702 Z " />
<glyph glyph-name="Idotaccent" unicode="&#x130;" horiz-adv-x="278" d="M192 656 L86 656 L86 0 L192 0 L192 656 Z M139 872 C85 872 83 870 83 816 C83 762 85 760 139 760 C193 760 195 762 195 816 C195 870 193 872 139 872 L139 872 Z " />
<glyph glyph-name="dotlessi" unicode="&#x131;" horiz-adv-x="252" d="M177 492 L75 492 L75 0 L177 0 L177 492 Z " />
<glyph glyph-name="IJ" unicode="&#x132;" horiz-adv-x="655" d="M180 656 L74 656 L74 0 L180 0 L180 656 Z M479 656 L479 189 C479 107 460 85 390 85 C362 85 322 92 288 101 L277 16 C321 1 371 -6 416 -6 C541 -6 585 58 585 171 L585 656 L479 656 Z " />
<glyph glyph-name="ij" unicode="&#x133;" horiz-adv-x="495" d="M177 492 L75 492 L75 0 L177 0 L177 492 Z M126 702 C72 702 70 700 70 646 C70 592 72 590 126 590 C180 590 182 592 182 646 C182 700 180 702 126 702 L126 702 Z M423 492 L321 492 L321 0 C321 -62 313 -118 292 -190 L372 -201 C403 -144 423 -82 423 0 L423 492 Z M372 702 C318 702 316 700 316 646 C316 592 318 590 372 590 C426 590 428 592 428 646 C428 700 426 702 372 702 L372 702 Z " />
<glyph glyph-name="Jcircumflex" unicode="&#x134;" horiz-adv-x="401" d="M225 656 L225 189 C225 107 206 85 136 85 C108 85 68 92 34 101 L23 16 C67 1 117 -6 162 -6 C287 -6 331 58 331 171 L331 656 L225 656 Z M429 764 L320 866 L236 866 L127 764 L190 730 L277 804 L279 804 L366 730 L429 764 Z " />
<glyph glyph-name="jcircumflex" unicode="&#x135;" horiz-adv-x="254" d="M181 492 L79 492 L79 0 C79 -62 71 -118 50 -190 L130 -201 C161 -144 181 -82 181 0 L181 492 Z M280 594 L171 696 L87 696 L-22 594 L41 560 L128 634 L130 634 L217 560 L280 594 Z " />
<glyph glyph-name="Kcommaaccent" unicode="&#x136;" horiz-adv-x="582" d="M563 0 L339 329 L557 656 L436 656 L252 377 L180 377 L180 656 L74 656 L74 0 L180 0 L180 281 L252 281 L439 0 L563 0 Z M253 -74 L253 -257 L320 -257 L355 -136 L355 -74 L253 -74 Z " />
<glyph glyph-name="kcommaaccent" unicode="&#x137;" horiz-adv-x="491" d="M476 0 L302 264 L466 492 L345 492 L221 310 L168 310 L168 703 L66 688 L66 0 L168 0 L168 218 L223 218 L361 0 L476 0 Z M204 -74 L204 -257 L271 -257 L306 -136 L306 -74 L204 -74 Z " />
<glyph glyph-name="Lacute" unicode="&#x139;" horiz-adv-x="490" d="M74 656 L74 0 L478 0 L478 96 L180 96 L180 656 L74 656 Z M129 866 L93 727 L159 727 L239 866 L129 866 Z " />
<glyph glyph-name="lacute" unicode="&#x13a;" horiz-adv-x="277" d="M168 703 L66 687 L66 106 C66 31 97 -4 167 -4 C195 -4 225 2 246 11 L236 83 C222 80 212 79 205 79 C177 79 168 87 168 123 L168 703 Z M120 906 L84 767 L150 767 L230 906 L120 906 Z " />
<glyph glyph-name="Lcommaaccent" unicode="&#x13b;" horiz-adv-x="490" d="M74 656 L74 0 L478 0 L478 96 L180 96 L180 656 L74 656 Z M237 -74 L237 -257 L304 -257 L339 -136 L339 -74 L237 -74 Z " />
<glyph glyph-name="lcommaaccent" unicode="&#x13c;" horiz-adv-x="277" d="M168 703 L66 687 L66 106 C66 31 97 -4 167 -4 C195 -4 225 2 246 11 L236 83 C222 80 212 79 205 79 C177 79 168 87 168 123 L168 703 Z M99 -74 L99 -257 L166 -257 L201 -136 L201 -74 L99 -74 Z " />
<glyph glyph-name="Lcaron" unicode="&#x13d;" horiz-adv-x="490" d="M74 656 L74 0 L478 0 L478 96 L180 96 L180 656 L74 656 Z M252 656 L252 473 L319 473 L354 594 L354 656 L252 656 Z " />
<glyph glyph-name="lcaron" unicode="&#x13e;" horiz-adv-x="373" d="M168 703 L66 687 L66 106 C66 31 97 -4 167 -4 C195 -4 225 2 246 11 L236 83 C222 80 212 79 205 79 C177 79 168 87 168 123 L168 703 Z M240 696 L240 513 L307 513 L342 634 L342 696 L240 696 Z " />
<glyph glyph-name="Ldot" unicode="&#x13f;" horiz-adv-x="490" d="M74 656 L74 0 L478 0 L478 96 L180 96 L180 656 L74 656 Z M314 392 C260 392 258 390 258 336 C258 282 260 280 314 280 C368 280 370 282 370 336 C370 390 368 392 314 392 L314 392 Z " />
<glyph glyph-name="ldot" unicode="&#x140;" horiz-adv-x="367" d="M168 703 L66 687 L66 106 C66 31 97 -4 167 -4 C195 -4 225 2 246 11 L236 83 C222 80 212 79 205 79 C177 79 168 87 168 123 L168 703 Z M285 393 C231 393 229 391 229 337 C229 283 231 281 285 281 C339 281 341 283 341 337 C341 391 339 393 285 393 L285 393 Z " />
<glyph glyph-name="Lslash" unicode="&#x141;" horiz-adv-x="515" d="M99 656 L99 364 L15 352 L15 278 L99 290 L99 0 L503 0 L503 96 L205 96 L205 305 L348 326 L348 400 L205 379 L205 656 L99 656 Z " />
<glyph glyph-name="lslash" unicode="&#x142;" horiz-adv-x="294" d="M185 703 L83 687 L83 389 L21 381 L21 307 L83 315 L83 106 C83 31 114 -4 184 -4 C212 -4 242 2 263 11 L253 83 C239 80 229 79 222 79 C194 79 185 87 185 123 L185 330 L269 342 L269 416 L185 404 L185 703 Z " />
<glyph glyph-name="Nacute" unicode="&#x143;" horiz-adv-x="636" d="M456 656 L456 280 C456 220 459 161 459 161 L457 161 C457 161 439 207 406 265 L183 656 L74 656 L74 0 L180 0 L180 376 C180 436 177 495 177 495 L179 495 C179 495 197 449 230 391 L453 0 L562 0 L562 656 L456 656 Z M321 866 L285 727 L351 727 L431 866 L321 866 Z " />
<glyph glyph-name="nacute" unicode="&#x144;" horiz-adv-x="528" d="M312 501 C251 501 201 475 158 444 L145 492 L66 492 L66 0 L168 0 L168 378 C205 394 246 406 288 406 C344 406 362 388 362 330 L362 0 L464 0 L464 354 C464 422 438 501 312 501 L312 501 Z M268 696 L232 557 L298 557 L378 696 L268 696 Z " />
<glyph glyph-name="Ncommaaccent" unicode="&#x145;" horiz-adv-x="636" d="M456 656 L456 280 C456 220 459 161 459 161 L457 161 C457 161 439 207 406 265 L183 656 L74 656 L74 0 L180 0 L180 376 C180 436 177 495 177 495 L179 495 C179 495 197 449 230 391 L453 0 L562 0 L562 656 L456 656 Z M267 -74 L267 -257 L334 -257 L369 -136 L369 -74 L267 -74 Z " />
<glyph glyph-name="ncommaaccent" unicode="&#x146;" horiz-adv-x="528" d="M312 501 C251 501 201 475 158 444 L145 492 L66 492 L66 0 L168 0 L168 378 C205 394 246 406 288 406 C344 406 362 388 362 330 L362 0 L464 0 L464 354 C464 422 438 501 312 501 L312 501 Z M214 -74 L214 -257 L281 -257 L316 -136 L316 -74 L214 -74 Z " />
<glyph glyph-name="Ncaron" unicode="&#x147;" horiz-adv-x="636" d="M456 656 L456 280 C456 220 459 161 459 161 L457 161 C457 161 439 207 406 265 L183 656 L74 656 L74 0 L180 0 L180 376 C180 436 177 495 177 495 L179 495 C179 495 197 449 230 391 L453 0 L562 0 L562 656 L456 656 Z M167 837 L276 735 L360 735 L469 837 L406 871 L319 797 L317 797 L230 871 L167 837 Z " />
<glyph glyph-name="ncaron" unicode="&#x148;" horiz-adv-x="528" d="M312 501 C251 501 201 475 158 444 L145 492 L66 492 L66 0 L168 0 L168 378 C205 394 246 406 288 406 C344 406 362 388 362 330 L362 0 L464 0 L464 354 C464 422 438 501 312 501 L312 501 Z M114 667 L223 565 L307 565 L416 667 L353 701 L266 627 L264 627 L177 701 L114 667 Z " />
<glyph glyph-name="Omacron" unicode="&#x14c;" horiz-adv-x="612" d="M50 328 C50 67 128 -13 306 -13 C484 -13 562 67 562 328 C562 589 484 669 306 669 C128 669 50 589 50 328 L50 328 Z M165 328 C165 518 190 579 306 579 C422 579 447 518 447 328 C447 138 422 77 306 77 C190 77 165 138 165 328 L165 328 Z M166 844 L166 768 L446 768 L446 844 L166 844 Z " />
<glyph glyph-name="omacron" unicode="&#x14d;" horiz-adv-x="514" d="M257 504 C112 504 42 443 42 246 C42 49 112 -12 257 -12 C402 -12 472 49 472 246 C472 443 402 504 257 504 L257 504 Z M257 70 C171 70 149 105 149 246 C149 387 171 422 257 422 C343 422 365 387 365 246 C365 105 343 70 257 70 L257 70 Z M117 674 L117 598 L397 598 L397 674 L117 674 Z " />
<glyph glyph-name="Obreve" unicode="&#x14e;" horiz-adv-x="612" d="M50 328 C50 67 128 -13 306 -13 C484 -13 562 67 562 328 C562 589 484 669 306 669 C128 669 50 589 50 328 L50 328 Z M165 328 C165 518 190 579 306 579 C422 579 447 518 447 328 C447 138 422 77 306 77 C190 77 165 138 165 328 L165 328 Z M152 859 C155 816 171 793 186 777 C200 763 241 743 306 743 C371 743 412 763 426 777 C442 794 457 816 460 859 L388 869 C386 851 380 835 373 828 C365 820 348 813 306 813 C264 813 247 820 239 828 C231 836 226 851 224 869 L152 859 Z " />
<glyph glyph-name="obreve" unicode="&#x14f;" horiz-adv-x="514" d="M257 504 C112 504 42 443 42 246 C42 49 112 -12 257 -12 C402 -12 472 49 472 246 C472 443 402 504 257 504 L257 504 Z M257 70 C171 70 149 105 149 246 C149 387 171 422 257 422 C343 422 365 387 365 246 C365 105 343 70 257 70 L257 70 Z M103 689 C106 646 122 623 137 607 C151 593 192 573 257 573 C322 573 363 593 377 607 C393 624 408 646 411 689 L339 699 C337 681 331 665 324 658 C316 650 299 643 257 643 C215 643 198 650 190 658 C182 666 177 681 175 699 L103 689 Z " />
<glyph glyph-name="Ohungarumlaut" unicode="&#x150;" horiz-adv-x="612" d="M50 328 C50 67 128 -13 306 -13 C484 -13 562 67 562 328 C562 589 484 669 306 669 C128 669 50 589 50 328 L50 328 Z M165 328 C165 518 190 579 306 579 C422 579 447 518 447 328 C447 138 422 77 306 77 C190 77 165 138 165 328 L165 328 Z M238 866 L199 727 L265 727 L339 866 L238 866 Z M382 866 L342 727 L408 727 L486 866 L382 866 Z " />
<glyph glyph-name="ohungarumlaut" unicode="&#x151;" horiz-adv-x="514" d="M257 504 C112 504 42 443 42 246 C42 49 112 -12 257 -12 C402 -12 472 49 472 246 C472 443 402 504 257 504 L257 504 Z M257 70 C171 70 149 105 149 246 C149 387 171 422 257 422 C343 422 365 387 365 246 C365 105 343 70 257 70 L257 70 Z M189 696 L150 557 L216 557 L290 696 L189 696 Z M333 696 L293 557 L359 557 L437 696 L333 696 Z " />
<glyph glyph-name="OE" unicode="&#x152;" horiz-adv-x="873" d="M821 656 L342 656 C184 656 50 631 50 328 C50 25 184 0 342 0 L827 0 L827 96 L513 96 L513 281 L797 281 L797 377 L513 377 L513 560 L821 560 L821 656 Z M163 328 C163 531 202 560 342 560 L407 560 L407 96 L342 96 C202 96 163 125 163 328 L163 328 Z " />
<glyph glyph-name="oe" unicode="&#x153;" horiz-adv-x="813" d="M765 246 C765 435 702 501 565 501 C496 501 450 482 419 434 C390 483 333 504 257 504 C112 504 42 443 42 246 C42 49 112 -12 257 -12 C333 -12 390 9 419 58 C446 11 503 -9 580 -9 C632 -9 682 -4 739 13 L728 89 C670 78 632 75 580 75 C499 75 472 110 472 200 L765 200 L765 246 Z M257 70 C171 70 149 105 149 246 C149 387 171 422 257 422 C343 422 365 387 365 246 C365 105 343 70 257 70 L257 70 Z M472 282 C472 389 499 420 568 420 C637 420 664 389 664 282 L472 282 Z " />
<glyph glyph-name="Racute" unicode="&#x154;" horiz-adv-x="584" d="M74 656 L74 0 L180 0 L180 252 L262 252 C302 252 311 238 324 213 L431 0 L548 0 L440 209 C421 246 410 257 397 263 L397 265 C478 282 526 331 526 454 C526 620 440 656 301 656 L74 656 Z M180 348 L180 560 L301 560 C387 560 417 537 417 454 C417 371 387 348 301 348 L180 348 Z M291 866 L255 727 L321 727 L401 866 L291 866 Z " />
<glyph glyph-name="racute" unicode="&#x155;" horiz-adv-x="338" d="M306 501 C243 501 187 468 160 439 L146 492 L66 492 L66 0 L168 0 L168 371 C202 388 258 398 306 398 L306 501 Z M190 696 L154 557 L220 557 L300 696 L190 696 Z " />
<glyph glyph-name="Rcommaaccent" unicode="&#x156;" horiz-adv-x="584" d="M74 656 L74 0 L180 0 L180 252 L262 252 C302 252 311 238 324 213 L431 0 L548 0 L440 209 C421 246 410 257 397 263 L397 265 C478 282 526 331 526 454 C526 620 440 656 301 656 L74 656 Z M180 348 L180 560 L301 560 C387 560 417 537 417 454 C417 371 387 348 301 348 L180 348 Z M247 -74 L247 -257 L314 -257 L349 -136 L349 -74 L247 -74 Z " />
<glyph glyph-name="rcommaaccent" unicode="&#x157;" horiz-adv-x="338" d="M306 501 C243 501 187 468 160 439 L146 492 L66 492 L66 0 L168 0 L168 371 C202 388 258 398 306 398 L306 501 Z M66 -74 L66 -257 L133 -257 L168 -136 L168 -74 L66 -74 Z " />
<glyph glyph-name="Rcaron" unicode="&#x158;" horiz-adv-x="584" d="M74 656 L74 0 L180 0 L180 252 L262 252 C302 252 311 238 324 213 L431 0 L548 0 L440 209 C421 246 410 257 397 263 L397 265 C478 282 526 331 526 454 C526 620 440 656 301 656 L74 656 Z M180 348 L180 560 L301 560 C387 560 417 537 417 454 C417 371 387 348 301 348 L180 348 Z M137 837 L246 735 L330 735 L439 837 L376 871 L289 797 L287 797 L200 871 L137 837 Z " />
<glyph glyph-name="rcaron" unicode="&#x159;" horiz-adv-x="338" d="M306 501 C243 501 187 468 160 439 L146 492 L66 492 L66 0 L168 0 L168 371 C202 388 258 398 306 398 L306 501 Z M35 667 L144 565 L228 565 L337 667 L274 701 L187 627 L185 627 L98 701 L35 667 Z " />
<glyph glyph-name="Sacute" unicode="&#x15a;" horiz-adv-x="535" d="M242 386 C181 396 153 417 153 482 C153 545 178 573 268 573 C328 573 374 566 446 555 L457 640 C391 656 320 665 268 665 C122 665 48 619 48 482 C48 359 104 302 203 288 L287 276 C358 266 377 241 377 175 C377 110 349 83 268 83 C219 83 160 87 75 102 L64 16 C139 -2 215 -9 268 -9 C437 -9 485 47 485 181 C485 307 432 356 332 372 L242 386 Z M270 866 L234 727 L300 727 L380 866 L270 866 Z " />
<glyph glyph-name="sacute" unicode="&#x15b;" horiz-adv-x="457" d="M203 297 C162 302 141 316 141 358 C141 408 163 418 234 418 C279 418 336 411 382 403 L391 479 C333 493 273 501 222 501 C102 501 46 467 46 357 C46 253 100 222 173 211 L253 199 C294 193 313 179 313 135 C313 91 294 76 217 76 C170 76 123 79 64 89 L55 13 C111 -2 176 -9 222 -9 C370 -9 411 38 411 139 C411 235 369 274 282 286 L203 297 Z M229 696 L193 557 L259 557 L339 696 L229 696 Z " />
<glyph glyph-name="Scircumflex" unicode="&#x15c;" horiz-adv-x="535" d="M242 386 C181 396 153 417 153 482 C153 545 178 573 268 573 C328 573 374 566 446 555 L457 640 C391 656 320 665 268 665 C122 665 48 619 48 482 C48 359 104 302 203 288 L287 276 C358 266 377 241 377 175 C377 110 349 83 268 83 C219 83 160 87 75 102 L64 16 C139 -2 215 -9 268 -9 C437 -9 485 47 485 181 C485 307 432 356 332 372 L242 386 Z M419 764 L310 866 L226 866 L117 764 L180 730 L267 804 L269 804 L356 730 L419 764 Z " />
<glyph glyph-name="scircumflex" unicode="&#x15d;" horiz-adv-x="457" d="M203 297 C162 302 141 316 141 358 C141 408 163 418 234 418 C279 418 336 411 382 403 L391 479 C333 493 273 501 222 501 C102 501 46 467 46 357 C46 253 100 222 173 211 L253 199 C294 193 313 179 313 135 C313 91 294 76 217 76 C170 76 123 79 64 89 L55 13 C111 -2 176 -9 222 -9 C370 -9 411 38 411 139 C411 235 369 274 282 286 L203 297 Z M376 594 L267 696 L183 696 L74 594 L137 560 L224 634 L226 634 L313 560 L376 594 Z " />
<glyph glyph-name="Scedilla" unicode="&#x15e;" horiz-adv-x="535" d="M242 386 C181 396 153 417 153 482 C153 545 178 573 268 573 C328 573 374 566 446 555 L457 640 C391 656 320 665 268 665 C122 665 48 619 48 482 C48 359 104 302 203 288 L287 276 C358 266 377 241 377 175 C377 110 349 83 268 83 C219 83 160 87 75 102 L64 16 C120 2 176 -4 223 -7 L205 -156 L272 -168 L310 -7 C445 1 485 59 485 181 C485 307 432 356 332 372 L242 386 Z " />
<glyph glyph-name="scedilla" unicode="&#x15f;" horiz-adv-x="457" d="M203 297 C162 302 141 316 141 358 C141 408 163 418 234 418 C279 418 336 411 382 403 L391 479 C333 493 273 501 222 501 C102 501 46 467 46 357 C46 253 100 222 173 211 L253 199 C294 193 313 179 313 135 C313 91 294 76 217 76 C170 76 123 79 64 89 L55 13 C95 2 140 -4 179 -7 L161 -156 L228 -168 L266 -7 C378 1 411 49 411 139 C411 235 369 274 282 286 L203 297 Z " />
<glyph glyph-name="Scaron" unicode="&#x160;" horiz-adv-x="535" d="M242 386 C181 396 153 417 153 482 C153 545 178 573 268 573 C328 573 374 566 446 555 L457 640 C391 656 320 665 268 665 C122 665 48 619 48 482 C48 359 104 302 203 288 L287 276 C358 266 377 241 377 175 C377 110 349 83 268 83 C219 83 160 87 75 102 L64 16 C139 -2 215 -9 268 -9 C437 -9 485 47 485 181 C485 307 432 356 332 372 L242 386 Z M116 837 L225 735 L309 735 L418 837 L355 871 L268 797 L266 797 L179 871 L116 837 Z " />
<glyph glyph-name="scaron" unicode="&#x161;" horiz-adv-x="457" d="M203 297 C162 302 141 316 141 358 C141 408 163 418 234 418 C279 418 336 411 382 403 L391 479 C333 493 273 501 222 501 C102 501 46 467 46 357 C46 253 100 222 173 211 L253 199 C294 193 313 179 313 135 C313 91 294 76 217 76 C170 76 123 79 64 89 L55 13 C111 -2 176 -9 222 -9 C370 -9 411 38 411 139 C411 235 369 274 282 286 L203 297 Z M74 667 L183 565 L267 565 L376 667 L313 701 L226 627 L224 627 L137 701 L74 667 Z " />
<glyph glyph-name="Tcaron" unicode="&#x164;" horiz-adv-x="532" d="M514 656 L18 656 L18 560 L213 560 L213 0 L319 0 L319 560 L514 560 L514 656 Z M115 837 L224 735 L308 735 L417 837 L354 871 L267 797 L265 797 L178 871 L115 837 Z " />
<glyph glyph-name="tcaron" unicode="&#x165;" horiz-adv-x="379" d="M199 406 L340 406 L352 492 L199 492 L199 635 L97 620 L97 492 L22 492 L22 406 L97 406 L97 124 C97 30 145 -4 229 -4 C268 -4 304 0 342 13 L333 85 C305 80 284 77 259 77 C210 77 199 96 199 143 L199 406 Z M270 696 L270 513 L337 513 L372 634 L372 696 L270 696 Z " />
<glyph glyph-name="Tbar" unicode="&#x166;" horiz-adv-x="532" d="M514 656 L18 656 L18 560 L213 560 L213 403 L67 403 L67 335 L213 335 L213 0 L319 0 L319 335 L465 335 L465 403 L319 403 L319 560 L514 560 L514 656 Z " />
<glyph glyph-name="tbar" unicode="&#x167;" horiz-adv-x="379" d="M199 406 L340 406 L352 492 L199 492 L199 635 L97 620 L97 492 L22 492 L22 406 L97 406 L97 322 L22 322 L22 254 L97 254 L97 124 C97 30 145 -4 229 -4 C268 -4 304 0 342 13 L333 85 C305 80 284 77 259 77 C210 77 199 96 199 143 L199 254 L327 254 L327 322 L199 322 L199 406 Z " />
<glyph glyph-name="Utilde" unicode="&#x168;" horiz-adv-x="626" d="M554 656 L448 656 L448 232 C448 160 420 84 313 84 C206 84 178 160 178 232 L178 656 L72 656 L72 251 C72 91 142 -10 313 -10 C484 -10 554 92 554 251 L554 656 Z M405 859 C402 837 398 827 390 822 C383 818 372 819 354 826 L298 849 C264 863 236 863 214 855 C185 845 161 818 152 758 L221 747 C224 769 228 779 236 784 C243 788 254 787 272 780 L328 757 C362 743 390 743 412 751 C441 761 465 788 474 848 L405 859 Z " />
<glyph glyph-name="utilde" unicode="&#x169;" horiz-adv-x="528" d="M216 -9 C277 -9 327 17 370 48 L383 0 L462 0 L462 492 L360 492 L360 114 C323 98 282 86 240 86 C184 86 166 104 166 162 L166 492 L64 492 L64 138 C64 70 90 -9 216 -9 L216 -9 Z M357 689 C354 667 350 657 342 652 C335 648 324 649 306 656 L250 679 C216 693 188 693 166 685 C137 675 113 648 104 588 L173 577 C176 599 180 609 188 614 C195 618 206 617 224 610 L280 587 C314 573 342 573 364 581 C393 591 417 618 426 678 L357 689 Z " />
<glyph glyph-name="Umacron" unicode="&#x16a;" horiz-adv-x="626" d="M554 656 L448 656 L448 232 C448 160 420 84 313 84 C206 84 178 160 178 232 L178 656 L72 656 L72 251 C72 91 142 -10 313 -10 C484 -10 554 92 554 251 L554 656 Z M173 844 L173 768 L453 768 L453 844 L173 844 Z " />
<glyph glyph-name="umacron" unicode="&#x16b;" horiz-adv-x="528" d="M216 -9 C277 -9 327 17 370 48 L383 0 L462 0 L462 492 L360 492 L360 114 C323 98 282 86 240 86 C184 86 166 104 166 162 L166 492 L64 492 L64 138 C64 70 90 -9 216 -9 L216 -9 Z M123 674 L123 598 L403 598 L403 674 L123 674 Z " />
<glyph glyph-name="Ubreve" unicode="&#x16c;" horiz-adv-x="626" d="M554 656 L448 656 L448 232 C448 160 420 84 313 84 C206 84 178 160 178 232 L178 656 L72 656 L72 251 C72 91 142 -10 313 -10 C484 -10 554 92 554 251 L554 656 Z M159 859 C162 816 178 793 193 777 C207 763 248 743 313 743 C378 743 419 763 433 777 C449 794 464 816 467 859 L395 869 C393 851 387 835 380 828 C372 820 355 813 313 813 C271 813 254 820 246 828 C238 836 233 851 231 869 L159 859 Z " />
<glyph glyph-name="ubreve" unicode="&#x16d;" horiz-adv-x="528" d="M216 -9 C277 -9 327 17 370 48 L383 0 L462 0 L462 492 L360 492 L360 114 C323 98 282 86 240 86 C184 86 166 104 166 162 L166 492 L64 492 L64 138 C64 70 90 -9 216 -9 L216 -9 Z M111 689 C114 646 130 623 145 607 C159 593 200 573 265 573 C330 573 371 593 385 607 C401 624 416 646 419 689 L347 699 C345 681 339 665 332 658 C324 650 307 643 265 643 C223 643 206 650 198 658 C190 666 185 681 183 699 L111 689 Z " />
<glyph glyph-name="Uring" unicode="&#x16e;" horiz-adv-x="626" d="M554 656 L448 656 L448 232 C448 160 420 84 313 84 C206 84 178 160 178 232 L178 656 L72 656 L72 251 C72 91 142 -10 313 -10 C484 -10 554 92 554 251 L554 656 Z M313 872 C345 872 355 863 355 822 C355 781 345 770 313 770 C281 770 271 781 271 822 C271 863 281 872 313 872 L313 872 Z M313 924 C237 924 207 894 207 822 C207 750 237 718 313 718 C389 718 419 750 419 822 C419 894 389 924 313 924 L313 924 Z " />
<glyph glyph-name="uring" unicode="&#x16f;" horiz-adv-x="528" d="M216 -9 C277 -9 327 17 370 48 L383 0 L462 0 L462 492 L360 492 L360 114 C323 98 282 86 240 86 C184 86 166 104 166 162 L166 492 L64 492 L64 138 C64 70 90 -9 216 -9 L216 -9 Z M263 702 C295 702 305 693 305 652 C305 611 295 600 263 600 C231 600 221 611 221 652 C221 693 231 702 263 702 L263 702 Z M263 754 C187 754 157 724 157 652 C157 580 187 548 263 548 C339 548 369 580 369 652 C369 724 339 754 263 754 L263 754 Z " />
<glyph glyph-name="Uhungarumlaut" unicode="&#x170;" horiz-adv-x="626" d="M554 656 L448 656 L448 232 C448 160 420 84 313 84 C206 84 178 160 178 232 L178 656 L72 656 L72 251 C72 91 142 -10 313 -10 C484 -10 554 92 554 251 L554 656 Z M245 860 L206 721 L272 721 L346 860 L245 860 Z M389 860 L349 721 L415 721 L493 860 L389 860 Z " />
<glyph glyph-name="uhungarumlaut" unicode="&#x171;" horiz-adv-x="528" d="M216 -9 C277 -9 327 17 370 48 L383 0 L462 0 L462 492 L360 492 L360 114 C323 98 282 86 240 86 C184 86 166 104 166 162 L166 492 L64 492 L64 138 C64 70 90 -9 216 -9 L216 -9 Z M195 696 L156 557 L222 557 L296 696 L195 696 Z M339 696 L299 557 L365 557 L443 696 L339 696 Z " />
<glyph glyph-name="Uogonek" unicode="&#x172;" horiz-adv-x="626" d="M554 656 L448 656 L448 232 C448 160 420 84 313 84 C206 84 178 160 178 232 L178 656 L72 656 L72 251 C72 91 142 -10 313 -10 C319 -10 326 -10 332 -9 L300 -33 C261 -61 250 -87 250 -122 C250 -182 290 -202 351 -202 C371 -202 407 -199 428 -194 L421 -131 C401 -134 378 -136 364 -136 C337 -136 330 -128 330 -118 C330 -108 329 -97 357 -71 L483 46 C532 91 554 162 554 251 L554 656 Z " />
<glyph glyph-name="uogonek" unicode="&#x173;" horiz-adv-x="528" d="M216 -9 C277 -9 327 17 370 48 L381 5 L328 -33 C289 -61 278 -87 278 -122 C278 -182 318 -202 379 -202 C399 -202 435 -199 456 -194 L449 -131 C429 -134 406 -136 392 -136 C365 -136 358 -128 358 -118 C358 -108 357 -96 385 -71 L462 0 L462 492 L360 492 L360 114 C323 98 282 86 240 86 C184 86 166 104 166 162 L166 492 L64 492 L64 138 C64 70 90 -9 216 -9 L216 -9 Z " />
<glyph glyph-name="Wcircumflex" unicode="&#x174;" horiz-adv-x="830" d="M804 656 L696 656 L626 324 C609 243 593 149 593 149 L589 149 C589 149 574 239 553 324 L473 646 L357 646 L278 324 C257 239 241 149 241 149 L237 149 C237 149 221 243 204 324 L134 656 L26 656 L180 0 L289 0 L385 385 C401 449 414 524 414 524 L416 524 C416 524 429 449 445 385 L541 0 L650 0 L804 656 Z M566 764 L457 866 L373 866 L264 764 L327 730 L414 804 L416 804 L503 730 L566 764 Z " />
<glyph glyph-name="wcircumflex" unicode="&#x175;" horiz-adv-x="698" d="M575 492 L515 240 C503 190 493 129 493 129 L489 129 C489 129 478 192 466 240 L401 492 L297 492 L232 240 C219 191 209 129 209 129 L205 129 C205 129 195 190 183 240 L123 492 L20 492 L153 0 L254 0 L327 279 C340 327 348 376 348 376 L350 376 C350 376 357 327 370 279 L444 0 L545 0 L678 492 L575 492 Z M500 594 L391 696 L307 696 L198 594 L261 560 L348 634 L350 634 L437 560 L500 594 Z " />
<glyph glyph-name="Ycircumflex" unicode="&#x176;" horiz-adv-x="572" d="M435 656 L338 459 C312 406 288 352 288 352 L284 352 C284 352 260 406 234 459 L137 656 L15 656 L233 243 L233 0 L339 0 L339 243 L557 656 L435 656 Z M437 764 L328 866 L244 866 L135 764 L198 730 L285 804 L287 804 L374 730 L437 764 Z " />
<glyph glyph-name="ycircumflex" unicode="&#x177;" horiz-adv-x="492" d="M365 492 L282 234 C261 169 248 112 248 112 L244 112 C244 112 231 169 210 234 L127 492 L17 492 L194 0 L182 -35 C160 -99 148 -111 68 -122 L79 -203 C203 -193 236 -173 298 0 L475 492 L365 492 Z M397 594 L288 696 L204 696 L95 594 L158 560 L245 634 L247 634 L334 560 L397 594 Z " />
<glyph glyph-name="Ydieresis" unicode="&#x178;" horiz-adv-x="572" d="M435 656 L338 459 C312 406 288 352 288 352 L284 352 C284 352 260 406 234 459 L137 656 L15 656 L233 243 L233 0 L339 0 L339 243 L557 656 L435 656 Z M194 860 C142 860 140 858 140 806 C140 754 142 752 194 752 C246 752 248 754 248 806 C248 858 246 860 194 860 L194 860 Z M378 860 C326 860 324 858 324 806 C324 754 326 752 378 752 C430 752 432 754 432 806 C432 858 430 860 378 860 L378 860 Z " />
<glyph glyph-name="Zacute" unicode="&#x179;" horiz-adv-x="556" d="M499 656 L51 656 L51 560 L378 560 L378 558 L47 98 L47 0 L503 0 L503 96 L168 96 L168 98 L499 558 L499 656 Z M281 860 L245 721 L311 721 L391 860 L281 860 Z " />
<glyph glyph-name="zacute" unicode="&#x17a;" horiz-adv-x="458" d="M160 86 L160 88 L413 406 L413 492 L43 492 L43 406 L294 406 L294 404 L41 86 L41 0 L415 0 L415 86 L160 86 Z M232 696 L196 557 L262 557 L342 696 L232 696 Z " />
<glyph glyph-name="Zdotaccent" unicode="&#x17b;" horiz-adv-x="556" d="M499 656 L51 656 L51 560 L378 560 L378 558 L47 98 L47 0 L503 0 L503 96 L168 96 L168 98 L499 558 L499 656 Z M278 866 C224 866 222 864 222 810 C222 756 224 754 278 754 C332 754 334 756 334 810 C334 864 332 866 278 866 L278 866 Z " />
<glyph glyph-name="zdotaccent" unicode="&#x17c;" horiz-adv-x="458" d="M160 86 L160 88 L413 406 L413 492 L43 492 L43 406 L294 406 L294 404 L41 86 L41 0 L415 0 L415 86 L160 86 Z M229 702 C175 702 173 700 173 646 C173 592 175 590 229 590 C283 590 285 592 285 646 C285 700 283 702 229 702 L229 702 Z " />
<glyph glyph-name="Zcaron" unicode="&#x17d;" horiz-adv-x="556" d="M499 656 L51 656 L51 560 L378 560 L378 558 L47 98 L47 0 L503 0 L503 96 L168 96 L168 98 L499 558 L499 656 Z M127 831 L236 729 L320 729 L429 831 L366 865 L279 791 L277 791 L190 865 L127 831 Z " />
<glyph glyph-name="zcaron" unicode="&#x17e;" horiz-adv-x="458" d="M160 86 L160 88 L413 406 L413 492 L43 492 L43 406 L294 406 L294 404 L41 86 L41 0 L415 0 L415 86 L160 86 Z M78 667 L187 565 L271 565 L380 667 L317 701 L230 627 L228 627 L141 701 L78 667 Z " />
<glyph glyph-name="florin" unicode="&#x192;" horiz-adv-x="489" d="M130 -72 C125 -104 112 -122 79 -122 C57 -122 37 -119 13 -115 L4 -188 C37 -196 77 -203 108 -203 C180 -203 218 -173 231 -81 L301 406 L404 406 L416 492 L313 492 L325 574 C330 606 343 624 376 624 C398 624 418 621 442 617 L451 690 C418 698 378 705 347 705 C275 705 237 675 224 583 L211 492 L129 492 L129 406 L198 406 L130 -72 Z " />
<glyph glyph-name="Scommaaccent" unicode="&#x218;" horiz-adv-x="535" d="M242 386 C181 396 153 417 153 482 C153 545 178 573 268 573 C328 573 374 566 446 555 L457 640 C391 656 320 665 268 665 C122 665 48 619 48 482 C48 359 104 302 203 288 L287 276 C358 266 377 241 377 175 C377 110 349 83 268 83 C219 83 160 87 75 102 L64 16 C139 -2 215 -9 268 -9 C437 -9 485 47 485 181 C485 307 432 356 332 372 L242 386 Z M218 -74 L218 -257 L285 -257 L320 -136 L320 -74 L218 -74 Z " />
<glyph glyph-name="scommaaccent" unicode="&#x219;" horiz-adv-x="457" d="M203 297 C162 302 141 316 141 358 C141 408 163 418 234 418 C279 418 336 411 382 403 L391 479 C333 493 273 501 222 501 C102 501 46 467 46 357 C46 253 100 222 173 211 L253 199 C294 193 313 179 313 135 C313 91 294 76 217 76 C170 76 123 79 64 89 L55 13 C111 -2 176 -9 222 -9 C370 -9 411 38 411 139 C411 235 369 274 282 286 L203 297 Z M181 -74 L181 -257 L248 -257 L283 -136 L283 -74 L181 -74 Z " />
<glyph glyph-name="Tcommaaccent" unicode="&#x21a;" horiz-adv-x="532" d="M514 656 L18 656 L18 560 L213 560 L213 0 L319 0 L319 560 L514 560 L514 656 Z M215 -74 L215 -257 L282 -257 L317 -136 L317 -74 L215 -74 Z " />
<glyph glyph-name="tcommaaccent" unicode="&#x21b;" horiz-adv-x="379" d="M199 406 L340 406 L352 492 L199 492 L199 635 L97 620 L97 492 L22 492 L22 406 L97 406 L97 124 C97 30 145 -4 229 -4 C268 -4 304 0 342 13 L333 85 C305 80 284 77 259 77 C210 77 199 96 199 143 L199 406 Z M161 -74 L161 -257 L228 -257 L263 -136 L263 -74 L161 -74 Z " />
<glyph glyph-name="dotlessj" unicode="&#x237;" horiz-adv-x="243" d="M171 492 L69 492 L69 0 C69 -62 61 -118 40 -190 L120 -201 C151 -144 171 -82 171 0 L171 492 Z " />
<glyph glyph-name="circumflex" unicode="&#x2c6;" horiz-adv-x="446" d="M374 594 L265 696 L181 696 L72 594 L135 560 L222 634 L224 634 L311 560 L374 594 Z " />
<glyph glyph-name="caron" unicode="&#x2c7;" horiz-adv-x="446" d="M72 667 L181 565 L265 565 L374 667 L311 701 L224 627 L222 627 L135 701 L72 667 Z " />
<glyph glyph-name="breve" unicode="&#x2d8;" horiz-adv-x="452" d="M72 689 C75 646 91 623 106 607 C120 593 161 573 226 573 C291 573 332 593 346 607 C362 624 377 646 380 689 L308 699 C306 681 300 665 293 658 C285 650 268 643 226 643 C184 643 167 650 159 658 C151 666 146 681 144 699 L72 689 Z " />
<glyph glyph-name="dotaccent" unicode="&#x2d9;" horiz-adv-x="256" d="M128 702 C74 702 72 700 72 646 C72 592 74 590 128 590 C182 590 184 592 184 646 C184 700 182 702 128 702 L128 702 Z " />
<glyph glyph-name="ring" unicode="&#x2da;" horiz-adv-x="360" d="M180 702 C212 702 222 693 222 652 C222 611 212 600 180 600 C148 600 138 611 138 652 C138 693 148 702 180 702 L180 702 Z M180 754 C104 754 74 724 74 652 C74 580 104 548 180 548 C256 548 286 580 286 652 C286 724 256 754 180 754 L180 754 Z " />
<glyph glyph-name="ogonek" unicode="&#x2db;" horiz-adv-x="328" d="M179 8 L122 -33 C83 -61 72 -87 72 -122 C72 -182 112 -202 173 -202 C193 -202 229 -199 250 -194 L243 -131 C223 -134 200 -136 186 -136 C159 -136 152 -128 152 -118 C152 -108 151 -96 179 -71 L256 0 L245 8 L179 8 Z " />
<glyph glyph-name="tilde" unicode="&#x2dc;" horiz-adv-x="466" d="M325 689 C322 667 318 657 310 652 C303 648 292 649 274 656 L218 679 C184 693 156 693 134 685 C105 675 81 648 72 588 L141 577 C144 599 148 609 156 614 C163 618 174 617 192 610 L248 587 C282 573 310 573 332 581 C361 591 385 618 394 678 L325 689 Z " />
<glyph glyph-name="hungarumlaut" unicode="&#x2dd;" horiz-adv-x="431" d="M111 696 L72 557 L138 557 L212 696 L111 696 Z M255 696 L215 557 L281 557 L359 696 L255 696 Z " />
<glyph glyph-name="Delta" unicode="&#x394;" horiz-adv-x="700" d="M674 0 L674 80 L418 656 L294 656 L38 80 L38 0 L674 0 Z M301 443 C333 516 354 578 354 578 L358 578 C358 578 379 516 411 443 L508 223 C548 133 572 88 572 88 L572 86 L140 86 L140 88 C140 88 164 133 204 223 L301 443 Z " />
<glyph glyph-name="Omega" unicode="&#x3a9;" horiz-adv-x="700" d="M609 0 L609 88 L511 88 L511 90 C603 190 639 264 639 380 C639 576 547 668 346 668 C145 668 53 576 53 380 C53 267 89 190 181 90 L181 88 L83 88 L83 0 L291 0 L291 86 C193 200 156 264 156 380 C156 482 182 580 346 580 C510 580 536 481 536 380 C536 264 499 200 401 86 L401 0 L609 0 Z " />
<glyph glyph-name="pi" unicode="&#x3c0;" horiz-adv-x="629" d="M594 406 L606 492 L16 492 L16 406 L121 406 L121 0 L223 0 L223 406 L392 406 L392 106 C392 27 434 -4 504 -4 C532 -4 563 0 587 11 L577 83 C563 80 545 79 538 79 C510 79 494 88 494 123 L494 406 L594 406 Z " />
<glyph glyph-name="endash" unicode="&#x2013;" horiz-adv-x="445" d="M50 318 L50 230 L396 230 L396 318 L50 318 Z " />
<glyph glyph-name="emdash" unicode="&#x2014;" horiz-adv-x="890" d="M50 318 L50 230 L840 230 L840 318 L50 318 Z " />
<glyph glyph-name="quoteleft" unicode="&#x2018;" horiz-adv-x="278" d="M139 452 C200 452 202 454 202 515 C202 574 200 578 143 578 C145 628 170 660 197 685 L154 712 C95 664 76 613 76 515 C76 454 78 452 139 452 L139 452 Z " />
<glyph glyph-name="quoteright" unicode="&#x2019;" horiz-adv-x="278" d="M139 702 C78 702 76 700 76 639 C76 580 78 576 135 576 C133 526 108 494 81 469 L124 442 C183 490 202 541 202 639 C202 700 200 702 139 702 L139 702 Z " />
<glyph glyph-name="quotesinglbase" unicode="&#x201a;" horiz-adv-x="278" d="M139 122 C78 122 76 120 76 59 C76 0 78 -4 135 -4 C133 -54 108 -86 81 -111 L124 -138 C183 -90 202 -39 202 59 C202 120 200 122 139 122 L139 122 Z " />
<glyph glyph-name="quotedblleft" unicode="&#x201c;" horiz-adv-x="472" d="M333 452 C394 452 396 454 396 515 C396 574 394 578 337 578 C339 628 364 660 391 685 L348 712 C289 664 270 613 270 515 C270 454 272 452 333 452 L333 452 Z M139 452 C200 452 202 454 202 515 C202 574 200 578 143 578 C145 628 170 660 197 685 L154 712 C95 664 76 613 76 515 C76 454 78 452 139 452 L139 452 Z " />
<glyph glyph-name="quotedblright" unicode="&#x201d;" horiz-adv-x="472" d="M139 702 C78 702 76 700 76 639 C76 580 78 576 135 576 C133 526 108 494 81 469 L124 442 C183 490 202 541 202 639 C202 700 200 702 139 702 L139 702 Z M333 702 C272 702 270 700 270 639 C270 580 272 576 329 576 C327 526 302 494 275 469 L318 442 C377 490 396 541 396 639 C396 700 394 702 333 702 L333 702 Z " />
<glyph glyph-name="quotedblbase" unicode="&#x201e;" horiz-adv-x="472" d="M139 122 C78 122 76 120 76 59 C76 0 78 -4 135 -4 C133 -54 108 -86 81 -111 L124 -138 C183 -90 202 -39 202 59 C202 120 200 122 139 122 L139 122 Z M333 122 C272 122 270 120 270 59 C270 0 272 -4 329 -4 C327 -54 302 -86 275 -111 L318 -138 C377 -90 396 -39 396 59 C396 120 394 122 333 122 L333 122 Z " />
<glyph glyph-name="dagger" unicode="&#x2020;" horiz-adv-x="536" d="M217 314 L227 -96 L309 -96 L319 314 L309 410 L390 400 L454 400 L454 494 L390 494 L309 484 L319 580 L319 656 L217 656 L217 580 L227 484 L146 494 L82 494 L82 400 L144 400 L227 410 L217 314 Z " />
<glyph glyph-name="daggerdbl" unicode="&#x2021;" horiz-adv-x="536" d="M217 280 L227 150 L146 160 L82 160 L82 66 L146 66 L227 76 L217 -20 L217 -96 L319 -96 L319 -20 L309 76 L390 66 L454 66 L454 160 L392 160 L309 150 L319 280 L309 410 L390 400 L454 400 L454 494 L390 494 L309 484 L319 580 L319 656 L217 656 L217 580 L227 484 L146 494 L82 494 L82 400 L144 400 L227 410 L217 280 Z " />
<glyph glyph-name="bullet" unicode="&#x2022;" horiz-adv-x="422" d="M211 405 C111 405 108 402 108 302 C108 202 111 199 211 199 C311 199 314 202 314 302 C314 402 311 405 211 405 L211 405 Z " />
<glyph glyph-name="ellipsis" unicode="&#x2026;" horiz-adv-x="738" d="M130 122 C69 122 67 120 67 59 C67 -2 69 -4 130 -4 C191 -4 193 -2 193 59 C193 120 191 122 130 122 L130 122 Z M369 122 C308 122 306 120 306 59 C306 -2 308 -4 369 -4 C430 -4 432 -2 432 59 C432 120 430 122 369 122 L369 122 Z M608 122 C547 122 545 120 545 59 C545 -2 547 -4 608 -4 C669 -4 671 -2 671 59 C671 120 669 122 608 122 L608 122 Z " />
<glyph glyph-name="perthousand" unicode="&#x2030;" horiz-adv-x="1233" d="M195 593 C250 593 261 570 261 472 C261 374 250 351 195 351 C140 351 129 373 129 472 C129 570 140 593 195 593 L195 593 Z M195 662 C89 662 43 618 43 472 C43 327 89 282 195 282 C301 282 347 327 347 472 C347 618 301 662 195 662 L195 662 Z M670 306 C725 306 736 283 736 185 C736 87 725 64 670 64 C615 64 604 86 604 185 C604 283 615 306 670 306 L670 306 Z M670 375 C564 375 518 331 518 185 C518 40 564 -5 670 -5 C776 -5 822 40 822 185 C822 331 776 375 670 375 L670 375 Z M1038 306 C1093 306 1104 283 1104 185 C1104 87 1093 64 1038 64 C983 64 972 86 972 185 C972 283 983 306 1038 306 L1038 306 Z M1038 375 C932 375 886 331 886 185 C886 40 932 -5 1038 -5 C1144 -5 1190 40 1190 185 C1190 331 1144 375 1038 375 L1038 375 Z M290 0 L665 656 L576 656 L200 0 L290 0 Z " />
<glyph glyph-name="guilsinglleft" unicode="&#x2039;" horiz-adv-x="316" d="M60 274 L156 81 L242 94 L167 274 L242 454 L156 467 L60 274 Z " />
<glyph glyph-name="guilsinglright" unicode="&#x203a;" horiz-adv-x="316" d="M256 274 L160 467 L74 454 L149 274 L74 94 L160 81 L256 274 Z " />
<glyph glyph-name="fraction" unicode="&#x2044;" horiz-adv-x="499" d="M107 0 L482 656 L393 656 L17 0 L107 0 Z " />
<glyph glyph-name="Euro" unicode="&#x20ac;" horiz-adv-x="596" d="M374 83 C290 83 243 112 227 220 L413 220 L423 294 L221 294 L221 362 L432 362 L442 436 L227 436 C243 544 290 573 374 573 C427 573 465 568 534 555 L545 640 C474 657 422 665 369 665 C216 665 134 610 112 436 L40 436 L30 362 L106 362 L106 294 L40 294 L30 220 L112 220 C134 46 216 -9 369 -9 C422 -9 474 -1 545 16 L534 101 C465 88 427 83 374 83 L374 83 Z " />
<glyph glyph-name="trademark" unicode="&#x2122;" horiz-adv-x="733" d="M286 656 L21 656 L21 582 L114 582 L114 328 L192 328 L192 582 L286 582 L286 656 Z M505 498 L504 498 L437 656 L336 656 L336 328 L414 328 L414 493 C414 520 412 552 412 552 L414 552 C414 552 421 527 433 500 L473 409 L536 409 L576 500 C588 527 595 552 595 552 L597 552 C597 552 595 520 595 493 L595 328 L673 328 L673 656 L572 656 L505 498 Z " />
<glyph glyph-name="uni2160" unicode="&#x2160;" horiz-adv-x="420" d="M33 0 L387 0 L387 96 L263 96 L263 560 L383 560 L383 656 L37 656 L37 560 L157 560 L157 96 L33 96 L33 0 Z " />
<glyph glyph-name="uni2161" unicode="&#x2161;" horiz-adv-x="740" d="M33 0 L707 0 L707 96 L583 96 L583 560 L703 560 L703 656 L37 656 L37 560 L157 560 L157 96 L33 96 L33 0 Z M263 96 L263 560 L477 560 L477 96 L263 96 Z " />
<glyph glyph-name="uni2162" unicode="&#x2162;" horiz-adv-x="1060" d="M33 0 L1027 0 L1027 96 L903 96 L903 560 L1023 560 L1023 656 L37 656 L37 560 L157 560 L157 96 L33 96 L33 0 Z M263 96 L263 560 L477 560 L477 96 L263 96 Z M583 560 L797 560 L797 96 L583 96 L583 560 Z " />
<glyph glyph-name="uni2163" unicode="&#x2163;" horiz-adv-x="960" d="M387 96 L263 96 L263 560 L424 560 L608 0 L726 0 L941 656 L826 656 L707 260 C688 196 669 121 669 121 L665 121 C665 121 646 196 627 260 L508 656 L37 656 L37 560 L157 560 L157 96 L33 96 L33 0 L387 0 L387 96 Z " />
<glyph glyph-name="uni2164" unicode="&#x2164;" horiz-adv-x="586" d="M352 0 L567 656 L452 656 L333 260 C314 196 295 121 295 121 L291 121 C291 121 272 196 253 260 L134 656 L19 656 L234 0 L352 0 Z " />
<glyph glyph-name="uni2165" unicode="&#x2165;" horiz-adv-x="960" d="M352 0 L535 560 L697 560 L697 96 L573 96 L573 0 L927 0 L927 96 L803 96 L803 560 L923 560 L923 656 L452 656 L333 260 C314 196 295 121 295 121 L291 121 C291 121 272 196 253 260 L134 656 L19 656 L234 0 L352 0 Z " />
<glyph glyph-name="uni2166" unicode="&#x2166;" horiz-adv-x="1280" d="M352 0 L535 560 L697 560 L697 96 L573 96 L573 0 L1247 0 L1247 96 L1123 96 L1123 560 L1243 560 L1243 656 L452 656 L333 260 C314 196 295 121 295 121 L291 121 C291 121 272 196 253 260 L134 656 L19 656 L234 0 L352 0 Z M803 96 L803 560 L1017 560 L1017 96 L803 96 Z " />
<glyph glyph-name="uni2167" unicode="&#x2167;" horiz-adv-x="1600" d="M573 0 L1567 0 L1567 96 L1443 96 L1443 560 L1563 560 L1563 656 L452 656 L333 260 C314 196 295 121 295 121 L291 121 C291 121 272 196 253 260 L134 656 L19 656 L234 0 L352 0 L535 560 L697 560 L697 96 L573 96 L573 0 Z M803 96 L803 560 L1017 560 L1017 96 L803 96 Z M1123 560 L1337 560 L1337 96 L1123 96 L1123 560 Z " />
<glyph glyph-name="uni2168" unicode="&#x2168;" horiz-adv-x="960" d="M932 0 L736 329 L926 656 L803 656 L707 479 C687 441 667 402 667 402 L665 402 C665 402 645 441 625 479 L529 656 L37 656 L37 560 L157 560 L157 96 L33 96 L33 0 L525 0 L618 168 C642 211 665 254 665 254 L667 254 C667 254 690 211 714 168 L807 0 L932 0 Z M596 329 L457 96 L263 96 L263 560 L462 560 L596 329 Z " />
<glyph glyph-name="uni2169" unicode="&#x2169;" horiz-adv-x="588" d="M560 0 L364 329 L554 656 L431 656 L335 479 C315 441 295 402 295 402 L293 402 C293 402 273 441 253 479 L157 656 L34 656 L224 329 L28 0 L153 0 L246 168 C270 211 293 254 293 254 L295 254 C295 254 318 211 342 168 L435 0 L560 0 Z " />
<glyph glyph-name="uni216A" unicode="&#x216a;" horiz-adv-x="960" d="M435 0 L927 0 L927 96 L803 96 L803 560 L923 560 L923 656 L431 656 L335 479 C315 441 295 402 295 402 L293 402 C293 402 273 441 253 479 L157 656 L34 656 L224 329 L28 0 L153 0 L246 168 C270 211 293 254 293 254 L295 254 C295 254 318 211 342 168 L435 0 Z M697 560 L697 96 L503 96 L364 329 L498 560 L697 560 Z " />
<glyph glyph-name="uni216B" unicode="&#x216b;" horiz-adv-x="1280" d="M1247 0 L1247 96 L1123 96 L1123 560 L1243 560 L1243 656 L431 656 L335 479 C315 441 295 402 295 402 L293 402 C293 402 273 441 253 479 L157 656 L34 656 L224 329 L28 0 L153 0 L246 168 C270 211 293 254 293 254 L295 254 C295 254 318 211 342 168 L435 0 L1247 0 Z M697 560 L697 96 L503 96 L364 329 L498 560 L697 560 Z M803 560 L1017 560 L1017 96 L803 96 L803 560 Z " />
<glyph glyph-name="uni216C" unicode="&#x216c;" horiz-adv-x="490" d="M74 656 L74 0 L478 0 L478 96 L180 96 L180 656 L74 656 Z " />
<glyph glyph-name="uni216D" unicode="&#x216d;" horiz-adv-x="541" d="M318 83 C211 83 165 130 165 328 C165 527 211 573 318 573 C371 573 409 568 478 555 L489 640 C418 657 366 665 313 665 C132 665 50 588 50 328 C50 68 132 -9 313 -9 C366 -9 418 -1 489 16 L478 101 C409 88 371 83 318 83 L318 83 Z " />
<glyph glyph-name="uni216E" unicode="&#x216e;" horiz-adv-x="605" d="M74 656 L74 0 L263 0 C421 0 555 25 555 328 C555 631 421 656 263 656 L74 656 Z M180 96 L180 560 L263 560 C403 560 442 531 442 328 C442 125 403 96 263 96 L180 96 Z " />
<glyph glyph-name="uni216F" unicode="&#x216f;" horiz-adv-x="754" d="M378 273 L376 273 L210 656 L74 656 L74 0 L180 0 L180 360 C180 441 175 507 175 507 L179 507 C179 507 198 451 228 386 L330 163 L424 163 L526 386 C556 451 575 507 575 507 L579 507 C579 507 574 441 574 360 L574 0 L680 0 L680 656 L544 656 L378 273 Z " />
<glyph glyph-name="arrowleft" unicode="&#x2190;" horiz-adv-x="712" d="M684 284 L684 372 L175 372 L175 374 L394 593 L331 656 L28 352 L28 302 L331 0 L394 63 L175 282 L175 284 L684 284 Z " />
<glyph glyph-name="arrowup" unicode="&#x2191;" horiz-adv-x="712" d="M312 0 L400 0 L400 509 L402 509 L621 290 L684 353 L380 656 L330 656 L28 353 L91 290 L310 509 L312 509 L312 0 Z " />
<glyph glyph-name="arrowright" unicode="&#x2192;" horiz-adv-x="712" d="M28 372 L28 284 L537 284 L537 282 L318 63 L381 0 L684 304 L684 354 L381 656 L318 593 L537 374 L537 372 L28 372 Z " />
<glyph glyph-name="arrowdown" unicode="&#x2193;" horiz-adv-x="712" d="M400 656 L312 656 L312 147 L310 147 L91 366 L28 303 L332 0 L382 0 L684 303 L621 366 L402 147 L400 147 L400 656 Z " />
<glyph glyph-name="uni2196" unicode="&#x2196;" horiz-adv-x="712" d="M551 71 L612 133 L252 493 L254 496 L564 495 L564 584 L135 583 L100 548 L100 119 L189 119 L189 429 L191 431 L551 71 Z " />
<glyph glyph-name="uni2197" unicode="&#x2197;" horiz-adv-x="712" d="M100 130 L162 69 L522 429 L525 427 L524 117 L613 117 L612 546 L577 581 L148 581 L148 492 L458 492 L460 490 L100 130 Z " />
<glyph glyph-name="uni2198" unicode="&#x2198;" horiz-adv-x="712" d="M161 588 L100 526 L460 166 L458 164 L148 164 L148 75 L577 76 L612 111 L612 540 L523 540 L523 230 L521 228 L161 588 Z " />
<glyph glyph-name="uni2199" unicode="&#x2199;" horiz-adv-x="712" d="M613 529 L551 591 L191 231 L189 233 L189 542 L100 542 L101 113 L136 78 L564 78 L564 167 L255 167 L253 169 L613 529 Z " />
<glyph glyph-name="partialdiff" unicode="&#x2202;" horiz-adv-x="510" d="M349 462 C323 479 280 501 230 501 C128 501 42 443 42 240 C42 40 123 -12 255 -12 C387 -12 468 40 468 240 C468 501 413 628 356 701 L273 689 C307 632 336 547 349 462 L349 462 Z M362 240 C362 114 331 70 255 70 C183 70 148 100 148 240 C148 380 184 408 244 408 C282 408 317 402 354 387 C360 341 362 301 362 240 L362 240 Z " />
<glyph glyph-name="product" unicode="&#x220f;" d="M575 0 L575 570 L689 570 L689 656 L49 656 L49 570 L163 570 L163 0 L265 0 L265 570 L473 570 L473 0 L575 0 Z " />
<glyph glyph-name="summation" unicode="&#x2211;" horiz-adv-x="543" d="M163 88 L163 90 L368 307 L368 361 L168 566 L168 568 L479 568 L479 656 L46 656 L46 568 L265 336 L265 332 L42 88 L42 0 L491 0 L491 88 L163 88 Z " />
<glyph glyph-name="minus" unicode="&#x2212;" horiz-adv-x="540" d="M64 318 L64 230 L476 230 L476 318 L64 318 Z " />
<glyph glyph-name="radical" unicode="&#x221a;" horiz-adv-x="700" d="M407 233 C375 155 358 103 358 103 L354 103 C354 103 337 155 305 233 L199 492 L10 492 L-2 406 L136 406 L305 0 L407 0 L681 656 L581 656 L407 233 Z " />
<glyph glyph-name="infinity" unicode="&#x221e;" horiz-adv-x="792" d="M394 350 L360 387 C325 425 283 446 214 446 C103 446 55 402 55 296 C55 190 103 146 214 146 C283 146 325 167 360 205 L394 242 L396 242 L430 205 C465 167 508 146 577 146 C688 146 737 190 737 296 C737 402 688 446 577 446 C508 446 465 425 430 387 L396 350 L394 350 Z M577 376 C625 376 654 364 654 296 C654 228 625 216 577 216 C535 216 512 223 486 249 L440 295 L440 297 L486 343 C512 369 535 376 577 376 L577 376 Z M351 297 L351 295 L305 249 C279 223 256 216 214 216 C166 216 138 228 138 296 C138 364 166 376 214 376 C256 376 279 369 305 343 L351 297 Z " />
<glyph glyph-name="integral" unicode="&#x222b;" horiz-adv-x="346" d="M100 -72 C100 -104 91 -122 50 -122 C33 -122 5 -119 -20 -115 L-29 -188 C5 -196 45 -203 76 -203 C158 -203 202 -173 202 -81 L202 574 C202 606 211 624 252 624 C269 624 297 621 322 617 L331 690 C297 698 257 705 226 705 C144 705 100 675 100 583 L100 -72 Z " />
<glyph glyph-name="approxequal" unicode="&#x2248;" horiz-adv-x="540" d="M168 429 C121 429 86 416 52 395 L64 311 C104 330 133 339 168 339 C230 339 298 299 372 299 C419 299 454 312 488 333 L476 417 C436 398 407 389 372 389 C310 389 242 429 168 429 L168 429 Z M168 251 C121 251 86 238 52 217 L64 133 C104 152 133 161 168 161 C230 161 298 121 372 121 C419 121 454 134 488 155 L476 239 C436 220 407 211 372 211 C310 211 242 251 168 251 L168 251 Z " />
<glyph glyph-name="notequal" unicode="&#x2260;" horiz-adv-x="540" d="M64 409 L64 321 L261 321 L209 229 L64 229 L64 141 L158 141 L111 58 L181 58 L228 141 L476 141 L476 229 L279 229 L331 321 L476 321 L476 409 L381 409 L429 492 L359 492 L311 409 L64 409 Z " />
<glyph glyph-name="lessequal" unicode="&#x2264;" horiz-adv-x="540" d="M472 170 L472 258 L167 336 L167 338 L472 416 L472 504 L52 384 L52 290 L472 170 Z M472 44 L472 132 L52 252 L52 164 L472 44 Z " />
<glyph glyph-name="greaterequal" unicode="&#x2265;" horiz-adv-x="540" d="M488 290 L488 384 L68 504 L68 416 L373 338 L373 336 L68 258 L68 170 L488 290 Z M488 164 L488 252 L68 132 L68 44 L488 164 Z " />
<glyph glyph-name="squaremultiply" unicode="&#x22a0;" horiz-adv-x="804" d="M74 0 L730 0 L730 656 L74 656 L74 0 Z M180 560 L624 560 L624 96 L180 96 L180 560 Z M402 390 L266 526 L204 464 L340 328 L204 192 L266 130 L402 266 L538 130 L600 192 L464 328 L600 464 L538 526 L402 390 Z " />
<glyph glyph-name="blacksquare" unicode="&#x25a0;" horiz-adv-x="804" d="M74 0 L730 0 L730 656 L74 656 L74 0 Z " />
<glyph glyph-name="whitesquare" unicode="&#x25a1;" horiz-adv-x="804" d="M74 0 L730 0 L730 656 L74 656 L74 0 Z M180 560 L624 560 L624 96 L180 96 L180 560 Z " />
<glyph glyph-name="blacksmallsquare" unicode="&#x25aa;" horiz-adv-x="624" d="M66 0 L558 0 L558 492 L66 492 L66 0 Z " />
<glyph glyph-name="whitesmallsquare" unicode="&#x25ab;" horiz-adv-x="624" d="M66 0 L558 0 L558 492 L66 492 L66 0 Z M168 404 L456 404 L456 88 L168 88 L168 404 Z " />
<glyph glyph-name="lozenge" unicode="&#x25ca;" horiz-adv-x="700" d="M666 300 L666 356 L390 696 L322 696 L46 356 L46 300 L322 -40 L390 -40 L666 300 Z M355 599 L357 599 L570 329 L570 327 L357 57 L355 57 L142 327 L142 329 L355 599 Z " />
<glyph glyph-name="whitecircle" unicode="&#x25cb;" horiz-adv-x="796" d="M58 328 C58 140 210 -12 398 -12 C586 -12 738 140 738 328 C738 516 586 668 398 668 C210 668 58 516 58 328 L58 328 Z M164 328 C164 457 269 562 398 562 C527 562 632 457 632 328 C632 199 527 94 398 94 C269 94 164 199 164 328 L164 328 Z " />
<glyph glyph-name="blackcircle" unicode="&#x25cf;" horiz-adv-x="796" d="M58 328 C58 140 210 -12 398 -12 C586 -12 738 140 738 328 C738 516 586 668 398 668 C210 668 58 516 58 328 L58 328 Z " />
<glyph glyph-name="ballotboxwithx" unicode="&#x2612;" horiz-adv-x="624" d="M66 0 L558 0 L558 492 L66 492 L66 0 Z M168 404 L456 404 L456 88 L168 88 L168 404 Z M312 297 L239 370 L188 319 L261 246 L188 173 L239 122 L312 195 L385 122 L436 173 L363 246 L436 319 L385 370 L312 297 Z " />
<glyph glyph-name="zero.LT" unicode="&#xe53f;" horiz-adv-x="580" d="M290 668 C116 668 49 577 49 328 C49 79 116 -12 290 -12 C464 -12 531 79 531 328 C531 577 464 668 290 668 L290 668 Z M290 75 C186 75 161 124 161 328 C161 532 186 581 290 581 C394 581 419 532 419 328 C419 124 394 75 290 75 L290 75 Z " />
<glyph glyph-name="five.OP" unicode="&#xe540;" horiz-adv-x="518" d="M165 426 L436 426 L446 516 L72 516 L72 136 L165 136 C177 172 209 191 266 191 C332 191 363 164 363 81 C363 -2 335 -28 254 -28 C194 -28 152 -24 76 -11 L65 -96 C135 -113 214 -120 264 -120 C400 -120 470 -67 470 81 C470 226 402 281 285 281 C231 281 188 262 167 233 L165 233 L165 426 Z " />
<glyph glyph-name="one.LT" unicode="&#xe541;" horiz-adv-x="580" d="M91 0 L529 0 L529 92 L362 92 L362 662 L75 631 L86 552 L258 552 L258 92 L91 92 L91 0 Z " />
<glyph glyph-name="two.LT" unicode="&#xe542;" horiz-adv-x="580" d="M186 92 C186 179 197 204 314 276 C478 377 497 407 497 507 C497 636 411 665 279 665 C219 665 155 657 90 640 L101 555 C179 571 220 575 279 575 C363 575 393 557 393 507 C393 450 386 435 256 357 C123 277 83 230 83 92 L83 0 L488 0 L488 92 L186 92 Z " />
<glyph glyph-name="three.LT" unicode="&#xe543;" horiz-adv-x="580" d="M403 339 C460 357 489 412 489 478 C489 625 422 665 276 665 C226 665 136 656 76 640 L87 555 C152 568 226 575 276 575 C367 575 386 546 386 478 C386 410 367 381 276 381 L183 381 L183 289 L276 289 C369 289 395 265 395 185 C395 105 369 81 276 81 C227 81 158 87 83 100 L72 15 C149 -2 226 -9 276 -9 C422 -9 501 25 501 185 C501 282 459 321 403 337 L403 339 Z " />
<glyph glyph-name="four.LT" unicode="&#xe544;" horiz-adv-x="580" d="M345 397 L345 227 L144 227 L144 229 L296 650 L193 664 L37 229 L37 135 L345 135 L345 0 L449 0 L449 135 L551 135 L551 227 L449 227 L449 397 L345 397 Z " />
<glyph glyph-name="five.LT" unicode="&#xe545;" horiz-adv-x="580" d="M187 566 L467 566 L476 656 L87 656 L87 272 L187 272 C197 308 226 327 288 327 C358 327 398 302 398 205 C398 108 365 83 276 83 C216 83 179 84 91 100 L80 15 C156 -8 236 -9 286 -9 C427 -9 505 50 505 204 C505 358 430 417 307 417 C259 417 210 398 189 369 L187 369 L187 566 Z " />
<glyph glyph-name="six.LT" unicode="&#xe546;" horiz-adv-x="580" d="M301 578 C358 578 412 569 475 555 L486 640 C423 658 358 668 301 668 C130 668 64 576 64 328 C64 80 130 -12 301 -12 C433 -12 519 35 519 202 C519 369 434 416 314 416 C229 416 173 379 173 379 C173 538 211 578 301 578 L301 578 Z M301 76 C200 76 173 130 173 296 C173 296 222 326 301 326 C387 326 411 293 411 201 C411 109 387 76 301 76 L301 76 Z " />
<glyph glyph-name="seven.LT" unicode="&#xe547;" horiz-adv-x="580" d="M53 476 L155 489 L155 564 L405 564 L405 562 L190 0 L297 0 L512 562 L512 656 L53 656 L53 476 Z " />
<glyph glyph-name="eight.LT" unicode="&#xe548;" horiz-adv-x="580" d="M437 336 C486 379 511 416 511 485 C511 625 424 668 290 668 C156 668 69 625 69 485 C69 399 101 362 143 336 L143 334 C88 299 51 247 51 179 C51 21 155 -12 290 -12 C425 -12 529 21 529 179 C529 262 497 311 437 334 L437 336 Z M290 581 C367 581 405 566 405 486 C405 433 390 399 354 370 L265 384 C216 392 175 412 175 486 C175 566 213 581 290 581 L290 581 Z M290 75 C205 75 161 96 161 178 C161 232 175 260 227 300 L308 286 C392 273 419 253 419 178 C419 96 375 75 290 75 L290 75 Z " />
<glyph glyph-name="nine.LT" unicode="&#xe549;" horiz-adv-x="580" d="M282 78 C225 78 171 87 108 101 L97 16 C160 -2 225 -12 282 -12 C453 -12 519 80 519 328 C519 576 453 668 282 668 C150 668 64 621 64 454 C64 287 149 240 269 240 C354 240 410 277 410 277 C410 118 372 78 282 78 L282 78 Z M282 580 C383 580 410 526 410 360 C410 360 361 330 282 330 C196 330 172 363 172 455 C172 547 196 580 282 580 L282 580 Z " />
<glyph glyph-name="zero.OP" unicode="&#xe54a;" horiz-adv-x="534" d="M267 528 C108 528 43 452 43 258 C43 64 108 -12 267 -12 C426 -12 493 64 493 258 C493 452 426 528 267 528 L267 528 Z M267 72 C181 72 151 112 151 258 C151 404 181 444 267 444 C353 444 383 404 383 258 C383 112 353 72 267 72 L267 72 Z " />
<glyph glyph-name="one.OP" unicode="&#xe54c;" horiz-adv-x="325" d="M235 0 L235 522 L12 491 L23 412 L131 412 L131 0 L235 0 Z " />
<glyph glyph-name="two.OP" unicode="&#xe54d;" horiz-adv-x="485" d="M157 92 C157 136 172 157 291 221 C414 287 430 314 430 398 C430 501 365 525 234 525 C182 525 124 517 60 502 L71 417 C138 431 190 435 234 435 C310 435 326 423 326 392 C326 358 321 346 205 286 C100 232 54 185 54 83 L54 0 L427 0 L427 92 L157 92 Z " />
<glyph glyph-name="three.OP" unicode="&#xe54e;" horiz-adv-x="468" d="M322 210 C376 228 405 277 405 344 C405 487 341 525 198 525 C148 525 84 515 33 501 L44 416 C102 429 154 435 198 435 C282 435 302 408 302 344 C302 280 282 253 198 253 L129 253 L129 161 L198 161 C282 161 307 141 307 66 C307 -9 282 -29 198 -29 C155 -29 115 -25 40 -10 L29 -95 C103 -112 148 -119 198 -119 C344 -119 413 -89 413 66 C413 157 380 194 322 208 L322 210 Z " />
<glyph glyph-name="four.OP" unicode="&#xe54f;" horiz-adv-x="539" d="M324 267 L324 107 L147 107 L147 109 L288 507 L187 524 L42 109 L42 15 L324 15 L324 -110 L428 -110 L428 15 L514 15 L514 107 L428 107 L428 267 L324 267 Z " />
<glyph glyph-name="six.OP" unicode="&#xe551;" horiz-adv-x="550" d="M283 546 C340 546 386 538 449 524 L460 609 C397 627 340 636 283 636 C123 636 54 553 54 313 C54 73 124 -10 284 -10 C405 -10 493 35 493 195 C493 355 405 400 296 400 C216 400 163 366 163 366 C163 511 204 546 283 546 L283 546 Z M284 78 C194 78 163 117 163 283 C163 283 206 310 283 310 C361 310 386 273 386 194 C386 115 362 78 284 78 L284 78 Z " />
<glyph glyph-name="seven.OP" unicode="&#xe552;" horiz-adv-x="499" d="M29 336 L131 349 L131 424 L350 424 L350 422 L153 -110 L260 -110 L457 422 L457 516 L29 516 L29 336 Z " />
<glyph glyph-name="eight.OP" unicode="&#xe553;" horiz-adv-x="570" d="M423 321 C472 364 490 395 490 462 C490 588 413 636 285 636 C157 636 81 588 81 462 C81 380 105 347 147 321 L147 319 C94 285 64 237 64 171 C64 23 156 -10 285 -10 C414 -10 506 23 506 171 C506 249 481 294 423 319 L423 321 Z M285 549 C355 549 384 528 384 463 C384 412 378 385 342 356 L260 368 C211 375 187 398 187 463 C187 528 215 549 285 549 L285 549 Z M285 77 C207 77 174 98 174 170 C174 220 187 251 228 282 L303 270 C372 259 396 239 396 170 C396 98 363 77 285 77 L285 77 Z " />
<glyph glyph-name="nine.OP" unicode="&#xe554;" horiz-adv-x="550" d="M267 -30 C210 -30 164 -22 101 -8 L90 -93 C153 -111 210 -120 267 -120 C427 -120 496 -37 496 203 C496 443 426 526 266 526 C145 526 57 481 57 321 C57 161 145 116 254 116 C334 116 387 150 387 150 C387 5 346 -30 267 -30 L267 -30 Z M266 438 C356 438 387 399 387 233 C387 233 344 206 267 206 C189 206 164 243 164 322 C164 401 188 438 266 438 L266 438 Z " />
<glyph glyph-name="I.alt" unicode="&#xe788;" horiz-adv-x="420" d="M33 0 L387 0 L387 96 L263 96 L263 560 L383 560 L383 656 L37 656 L37 560 L157 560 L157 96 L33 96 L33 0 Z " />
<glyph glyph-name="breve.cap" unicode="&#xf6a2;" horiz-adv-x="452" d="M72 859 C75 816 91 793 106 777 C120 763 161 743 226 743 C291 743 332 763 346 777 C362 794 377 816 380 859 L308 869 C306 851 300 835 293 828 C285 820 268 813 226 813 C184 813 167 820 159 828 C151 836 146 851 144 869 L72 859 Z " />
<glyph glyph-name="ring.cap" unicode="&#xf6a4;" horiz-adv-x="360" d="M180 872 C212 872 222 863 222 822 C222 781 212 770 180 770 C148 770 138 781 138 822 C138 863 148 872 180 872 L180 872 Z M180 924 C104 924 74 894 74 822 C74 750 104 718 180 718 C256 718 286 750 286 822 C286 894 256 924 180 924 L180 924 Z " />
<glyph glyph-name="circumflex.cap" unicode="&#xf6a5;" horiz-adv-x="446" d="M374 764 L265 866 L181 866 L72 764 L135 730 L222 804 L224 804 L311 730 L374 764 Z " />
<glyph glyph-name="dotaccent.cap" unicode="&#xf6a6;" horiz-adv-x="256" d="M128 862 C74 862 72 860 72 806 C72 752 74 750 128 750 C182 750 184 752 184 806 C184 860 182 862 128 862 L128 862 Z " />
<glyph glyph-name="tilde.cap" unicode="&#xf6a7;" horiz-adv-x="466" d="M325 859 C322 837 318 827 310 822 C303 818 292 819 274 826 L218 849 C184 863 156 863 134 855 C105 845 81 818 72 758 L141 747 C144 769 148 779 156 784 C163 788 174 787 192 780 L248 757 C282 743 310 743 332 751 C361 761 385 788 394 848 L325 859 Z " />
<glyph glyph-name="acute.cap" unicode="&#xf6a8;" horiz-adv-x="290" d="M108 866 L72 727 L138 727 L218 866 L108 866 Z " />
<glyph glyph-name="caron.cap" unicode="&#xf6a9;" horiz-adv-x="446" d="M72 837 L181 735 L265 735 L374 837 L311 871 L224 797 L222 797 L135 871 L72 837 Z " />
<glyph glyph-name="dieresis.cap" unicode="&#xf6aa;" horiz-adv-x="436" d="M126 860 C74 860 72 858 72 806 C72 754 74 752 126 752 C178 752 180 754 180 806 C180 858 178 860 126 860 L126 860 Z M310 860 C258 860 256 858 256 806 C256 754 258 752 310 752 C362 752 364 754 364 806 C364 858 362 860 310 860 L310 860 Z " />
<glyph glyph-name="grave.cap" unicode="&#xf6ab;" horiz-adv-x="290" d="M72 866 L152 727 L218 727 L182 866 L72 866 Z " />
<glyph glyph-name="hungarumlaut.cap" unicode="&#xf6ac;" horiz-adv-x="431" d="M111 866 L72 727 L138 727 L212 866 L111 866 Z M255 866 L215 727 L281 727 L359 866 L255 866 Z " />
<glyph glyph-name="macron.cap" unicode="&#xf6ad;" horiz-adv-x="424" d="M72 844 L72 768 L352 768 L352 844 L72 844 Z " />
<glyph glyph-name="commaaccent" unicode="&#xf6ae;" horiz-adv-x="246" d="M72 -74 L72 -257 L139 -257 L174 -136 L174 -74 L72 -74 Z " />
<glyph glyph-name="fi" unicode="&#xfb01;" horiz-adv-x="604" d="M202 574 C202 606 211 624 252 624 C269 624 297 621 322 617 L331 690 C297 698 257 705 226 705 C144 705 100 675 100 583 L100 492 L26 492 L26 406 L100 406 L100 0 L202 0 L202 406 L301 406 L313 492 L202 492 L202 574 Z M526 492 L424 492 L424 0 L526 0 L526 492 Z M475 702 C421 702 419 700 419 646 C419 592 421 590 475 590 C529 590 531 592 531 646 C531 700 529 702 475 702 L475 702 Z " />
<glyph glyph-name="fl" unicode="&#xfb02;" horiz-adv-x="631" d="M202 574 C202 606 211 624 252 624 C269 624 297 621 322 617 L331 690 C297 698 257 705 226 705 C144 705 100 675 100 583 L100 492 L26 492 L26 406 L100 406 L100 0 L202 0 L202 406 L301 406 L313 492 L202 492 L202 574 Z M518 703 L416 687 L416 106 C416 31 447 -4 517 -4 C545 -4 575 2 596 11 L586 83 C572 80 562 79 555 79 C527 79 518 87 518 123 L518 703 Z " />
</font>
</defs>
</svg>
