<svg xmlns="http://www.w3.org/2000/svg">
<defs>
<font id="Tram Joanneum Light">
<font-face  font-family="Tram Joanneum" units-per-em="1000" ascent="750" descent="-250" font-style="normal" font-weight="300" font-stretch="normal" cap-height="656" x-height="492" underline-position="-75" underline-thickness="50" />

<glyph glyph-name="NULL" d="" />
<glyph glyph-name="CR" unicode="&#xd;" horiz-adv-x="250" d="" />
<glyph glyph-name="space" unicode="&#x20;" horiz-adv-x="244" d="" />
<glyph glyph-name="exclam" unicode="&#x21;" horiz-adv-x="270" d="M166 656 L104 656 L104 333 L115 182 L155 182 L166 333 L166 656 Z M135 82 C94 82 92 80 92 39 C92 -2 94 -4 135 -4 C176 -4 178 -2 178 39 C178 80 176 82 135 82 L135 82 Z " />
<glyph glyph-name="quotedbl" unicode="&#x22;" horiz-adv-x="335" d="M52 696 L52 582 L64 426 L94 426 L106 582 L106 696 L52 696 Z M229 696 L229 582 L241 426 L271 426 L283 582 L283 696 L229 696 Z " />
<glyph glyph-name="numbersign" unicode="&#x23;" horiz-adv-x="609" d="M558 449 L563 498 L469 498 L484 656 L432 656 L417 498 L226 498 L241 656 L189 656 L174 498 L81 498 L76 449 L169 449 L144 207 L51 207 L46 158 L139 158 L124 0 L176 0 L191 158 L382 158 L367 0 L419 0 L434 158 L528 158 L533 207 L439 207 L464 449 L558 449 Z M196 207 L221 449 L412 449 L387 207 L196 207 Z " />
<glyph glyph-name="dollar" unicode="&#x24;" horiz-adv-x="522" d="M218 366 C147 378 119 404 119 489 C119 589 166 612 262 612 C307 612 376 605 428 595 L434 643 C382 654 329 662 287 664 L287 776 C287 776 236 768 237 769 L237 664 C129 660 58 622 59 486 C60 357 124 321 209 309 L305 296 C370 287 400 256 400 168 C400 89 373 44 262 44 C206 44 147 51 81 63 L75 14 C125 1 185 -6 236 -8 L236 -119 L286 -112 L286 -8 C435 -1 462 70 462 176 C462 283 422 337 316 352 L218 366 Z " />
<glyph glyph-name="percent" unicode="&#x25;" horiz-adv-x="828" d="M189 622 C256 622 276 590 276 472 C276 354 256 322 189 322 C122 322 102 353 102 472 C102 590 122 622 189 622 L189 622 Z M189 662 C89 662 52 609 52 472 C52 336 89 282 189 282 C289 282 326 336 326 472 C326 609 289 662 189 662 L189 662 Z M639 334 C706 334 726 302 726 184 C726 66 706 34 639 34 C572 34 552 65 552 184 C552 302 572 334 639 334 L639 334 Z M639 374 C539 374 502 321 502 184 C502 48 539 -6 639 -6 C739 -6 776 48 776 184 C776 321 739 374 639 374 L639 374 Z M252 0 L627 656 L576 656 L200 0 L252 0 Z " />
<glyph glyph-name="ampersand" unicode="&#x26;" horiz-adv-x="643" d="M472 155 L495 325 L574 325 L574 376 L452 376 L429 203 L246 392 C154 487 143 504 143 543 C143 588 163 619 268 619 C310 619 359 613 414 600 L419 638 C373 656 310 665 268 665 C161 665 85 640 85 543 C85 484 106 456 181 380 C76 263 49 228 49 161 C49 26 136 -9 268 -9 C387 -9 444 36 462 92 L550 0 L625 0 L472 155 Z M268 37 C141 37 107 88 107 164 C107 214 128 241 218 341 L419 134 C410 82 371 37 268 37 L268 37 Z " />
<glyph glyph-name="quotesingle" unicode="&#x27;" horiz-adv-x="158" d="M52 696 L52 582 L64 426 L94 426 L106 582 L106 696 L52 696 Z " />
<glyph glyph-name="parenleft" unicode="&#x28;" horiz-adv-x="273" d="M172 750 C106 678 80 587 80 304 C80 21 106 -70 172 -142 L205 -105 C165 -56 142 31 142 304 C142 577 165 664 205 713 L172 750 Z " />
<glyph glyph-name="parenright" unicode="&#x29;" horiz-adv-x="261" d="M70 713 C110 664 133 577 133 304 C133 31 110 -56 70 -105 L103 -142 C169 -70 195 21 195 304 C195 587 169 678 103 750 L70 713 Z " />
<glyph glyph-name="asterisk" unicode="&#x2a;" horiz-adv-x="560" d="M316 530 L289 696 L271 696 L244 530 L78 557 L72 539 L224 463 L145 311 L160 300 L280 423 L400 300 L415 311 L336 463 L488 539 L482 557 L316 530 Z " />
<glyph glyph-name="plus" unicode="&#x2b;" horiz-adv-x="540" d="M298 300 L298 474 L242 474 L242 300 L72 300 L72 248 L242 248 L242 74 L298 74 L298 248 L468 248 L468 300 L298 300 Z " />
<glyph glyph-name="comma" unicode="&#x2c;" horiz-adv-x="242" d="M121 83 C80 83 78 81 78 40 C78 -1 80 -3 121 -3 C120 -41 105 -73 79 -101 L102 -116 C153 -72 164 -26 164 40 C164 81 162 83 121 83 L121 83 Z " />
<glyph glyph-name="hyphen" unicode="&#x2d;" horiz-adv-x="360" d="M50 300 L50 248 L310 248 L310 300 L50 300 Z " />
<glyph glyph-name="period" unicode="&#x2e;" horiz-adv-x="242" d="M121 83 C80 83 78 81 78 40 C78 -1 80 -3 121 -3 C162 -3 164 -1 164 40 C164 81 162 83 121 83 L121 83 Z " />
<glyph glyph-name="slash" unicode="&#x2f;" horiz-adv-x="346" d="M138 -115 L260 744 L208 744 L86 -115 L138 -115 Z " />
<glyph glyph-name="zero" unicode="0" horiz-adv-x="572" d="M62 328 C62 81 122 -12 286 -12 C450 -12 510 81 510 328 C510 575 450 668 286 668 C122 668 62 575 62 328 L62 328 Z M286 39 C155 39 126 114 126 328 C126 542 155 617 286 617 C417 617 446 542 446 328 C446 114 417 39 286 39 L286 39 Z " />
<glyph glyph-name="one" unicode="1" horiz-adv-x="443" d="M88 0 L381 0 L381 54 L264 54 L264 662 L66 633 L72 593 L206 593 L206 54 L88 54 L88 0 Z " />
<glyph glyph-name="two" unicode="2" horiz-adv-x="524" d="M130 54 C130 189 142 215 266 290 C436 393 452 427 452 510 C452 630 383 665 257 665 C206 665 141 658 79 641 L86 592 C151 606 205 613 257 613 C358 613 393 585 393 510 C393 445 383 426 236 337 C90 249 72 204 72 56 L72 0 L443 0 L443 54 L130 54 Z " />
<glyph glyph-name="three" unicode="3" horiz-adv-x="509" d="M427 488 C427 616 372 665 230 665 C179 665 118 656 68 641 L74 593 C128 605 180 613 230 613 C336 613 368 579 368 488 C368 397 336 361 230 361 L172 361 L172 307 L230 307 C354 307 379 270 379 175 C379 80 354 43 230 43 C176 43 130 50 70 62 L64 14 C120 -2 179 -9 230 -9 C381 -9 440 35 440 176 C440 288 398 324 338 335 L338 337 C393 352 427 396 427 488 L427 488 Z " />
<glyph glyph-name="four" unicode="4" horiz-adv-x="572" d="M375 387 L375 207 L118 207 L276 654 L219 662 L60 212 L60 155 L375 155 L375 0 L433 0 L433 155 L540 155 L540 207 L433 207 L433 387 L375 387 Z " />
<glyph glyph-name="five" unicode="5" horiz-adv-x="531" d="M139 602 L431 602 L438 656 L84 656 L84 279 L145 279 C163 322 199 347 265 347 C362 347 406 310 406 195 C406 80 362 43 265 43 C201 43 148 49 82 63 L76 15 C139 -2 191 -9 278 -9 C413 -9 467 63 467 195 C467 327 413 399 278 399 C206 399 161 374 141 341 L139 341 L139 602 Z " />
<glyph glyph-name="six" unicode="6" horiz-adv-x="552" d="M292 397 C226 397 178 380 128 345 C128 567 176 615 288 615 C337 615 400 606 446 595 L453 642 C406 657 341 668 288 668 C138 668 64 592 64 328 C64 64 135 -12 285 -12 C414 -12 485 39 485 193 C485 341 418 397 292 397 L292 397 Z M285 347 C386 347 424 305 424 193 C424 80 388 40 285 40 C171 40 128 98 128 297 C168 330 226 347 285 347 L285 347 Z " />
<glyph glyph-name="seven" unicode="7" horiz-adv-x="499" d="M37 519 L92 526 L92 604 L388 604 L167 0 L229 0 L446 599 L446 656 L37 656 L37 519 Z " />
<glyph glyph-name="eight" unicode="8" horiz-adv-x="552" d="M407 336 C454 379 481 417 481 486 C481 626 397 668 276 668 C155 668 72 626 72 486 C72 400 103 365 142 340 C81 296 54 249 54 178 C54 21 153 -12 276 -12 C399 -12 498 19 498 178 C498 276 456 317 407 336 L407 336 Z M276 618 C379 618 420 583 420 487 C420 417 401 388 354 351 L240 368 C182 376 132 401 132 487 C132 583 174 618 276 618 L276 618 Z M276 38 C167 38 116 73 116 177 C116 232 139 275 194 322 L303 305 C403 289 436 262 436 177 C436 73 385 38 276 38 L276 38 Z " />
<glyph glyph-name="nine" unicode="9" horiz-adv-x="552" d="M260 259 C326 259 374 276 424 311 C424 89 376 41 264 41 C215 41 152 50 106 61 L99 14 C146 -1 211 -12 264 -12 C414 -12 488 64 488 328 C488 592 417 668 267 668 C138 668 67 617 67 463 C67 315 134 259 260 259 L260 259 Z M267 309 C166 309 128 351 128 463 C128 576 164 616 267 616 C381 616 424 558 424 359 C384 326 326 309 267 309 L267 309 Z " />
<glyph glyph-name="colon" unicode="&#x3a;" horiz-adv-x="242" d="M121 83 C80 83 78 81 78 40 C78 -1 80 -3 121 -3 C162 -3 164 -1 164 40 C164 81 162 83 121 83 L121 83 Z M121 426 C80 426 78 424 78 383 C78 342 80 340 121 340 C162 340 164 342 164 383 C164 424 162 426 121 426 L121 426 Z " />
<glyph glyph-name="semicolon" unicode="&#x3b;" horiz-adv-x="242" d="M121 423 C80 423 78 421 78 380 C78 339 80 337 121 337 C162 337 164 339 164 380 C164 421 162 423 121 423 L121 423 Z M121 83 C80 83 78 81 78 40 C78 -1 80 -3 121 -3 C120 -41 105 -73 79 -101 L102 -116 C153 -72 164 -26 164 40 C164 81 162 83 121 83 L121 83 Z " />
<glyph glyph-name="less" unicode="&#x3c;" horiz-adv-x="540" d="M464 63 L464 117 L119 273 L119 275 L464 431 L464 485 L60 296 L60 252 L464 63 Z " />
<glyph glyph-name="equal" unicode="&#x3d;" horiz-adv-x="540" d="M72 395 L72 343 L468 343 L468 395 L72 395 Z M72 207 L72 155 L468 155 L468 207 L72 207 Z " />
<glyph glyph-name="greater" unicode="&#x3e;" horiz-adv-x="540" d="M76 485 L76 431 L421 275 L421 273 L76 117 L76 63 L480 252 L480 296 L76 485 Z " />
<glyph glyph-name="question" unicode="&#x3f;" horiz-adv-x="471" d="M225 665 C176 665 107 658 50 642 L56 594 C119 608 181 612 225 612 C305 612 354 597 354 515 C354 446 332 432 262 399 C164 353 150 318 159 251 L168 182 L213 182 L213 245 C213 299 216 319 294 356 C388 400 413 423 413 515 C413 636 344 665 225 665 L225 665 Z M192 82 C152 82 149 79 149 39 C149 -1 152 -4 192 -4 C232 -4 235 -1 235 39 C235 79 232 82 192 82 L192 82 Z " />
<glyph glyph-name="at" unicode="&#x40;" horiz-adv-x="714" d="M628 306 C628 471 572 501 369 501 C189 501 76 456 76 149 C76 -159 190 -203 369 -203 C458 -203 542 -192 615 -173 L609 -131 C530 -149 455 -158 369 -158 C194 -158 138 -97 138 149 C138 393 193 454 369 455 C554 455 570 427 570 305 L570 299 L416 277 C325 264 268 231 268 127 C268 30 336 -9 407 -9 C479 -9 524 13 574 57 L589 0 L628 0 L628 306 Z M570 98 C548 78 483 40 417 40 C356 40 324 71 324 131 C324 202 363 220 422 229 L570 251 L570 98 Z " />
<glyph glyph-name="A" unicode="A" horiz-adv-x="578" d="M554 0 L324 656 L254 656 L24 0 L89 0 L144 159 L434 159 L489 0 L554 0 Z M162 213 L253 484 C275 549 287 598 287 598 L291 598 C291 598 303 549 325 484 L416 213 L162 213 Z " />
<glyph glyph-name="B" unicode="B" horiz-adv-x="570" d="M416 335 C462 347 502 399 502 482 C502 609 428 656 320 656 L84 656 L84 0 L320 0 C450 0 517 49 517 181 C517 284 468 322 416 333 L416 335 Z M144 54 L144 304 L320 304 C423 304 454 269 454 181 C454 93 423 54 320 54 L144 54 Z M320 602 C409 602 441 560 441 482 C441 404 409 358 320 358 L144 358 L144 602 L320 602 Z " />
<glyph glyph-name="C" unicode="C" horiz-adv-x="531" d="M305 45 C167 45 126 125 126 328 C126 531 167 611 305 611 C359 611 410 604 463 593 L469 641 C413 656 359 664 305 664 C133 664 60 578 60 328 C60 78 133 -8 305 -8 C359 -8 413 0 469 15 L463 63 C410 52 359 45 305 45 L305 45 Z " />
<glyph glyph-name="D" unicode="D" horiz-adv-x="592" d="M84 656 L84 0 L256 0 C410 0 532 32 532 328 C532 624 411 656 257 656 L84 656 Z M144 54 L144 602 L257 602 C415 602 466 559 466 328 C466 97 414 54 256 54 L144 54 Z " />
<glyph glyph-name="E" unicode="E" horiz-adv-x="524" d="M464 656 L84 656 L84 0 L470 0 L470 54 L144 54 L144 306 L440 306 L440 360 L144 360 L144 602 L464 602 L464 656 Z " />
<glyph glyph-name="F" unicode="F" horiz-adv-x="512" d="M464 656 L84 656 L84 0 L144 0 L144 300 L440 300 L440 354 L144 354 L144 602 L464 602 L464 656 Z " />
<glyph glyph-name="G" unicode="G" horiz-adv-x="588" d="M306 339 L306 285 L458 285 L458 66 C421 52 364 45 306 45 C166 45 126 125 126 328 C126 531 166 611 306 611 C368 611 421 605 497 593 L503 641 C430 657 368 664 306 664 C138 664 60 572 60 328 C60 84 138 -8 306 -8 C382 -8 455 5 516 32 L516 339 L306 339 Z " />
<glyph glyph-name="H" unicode="H" horiz-adv-x="612" d="M468 656 L468 360 L144 360 L144 656 L84 656 L84 0 L144 0 L144 306 L468 306 L468 0 L528 0 L528 656 L468 656 Z " />
<glyph glyph-name="I" unicode="I" horiz-adv-x="252" d="M156 656 L96 656 L96 0 L156 0 L156 656 Z " />
<glyph glyph-name="J" unicode="J" horiz-adv-x="384" d="M242 656 L242 162 C242 75 212 47 144 47 C115 47 74 52 34 62 L28 14 C66 2 107 -6 148 -6 C257 -6 302 46 302 168 L302 656 L242 656 Z " />
<glyph glyph-name="K" unicode="K" horiz-adv-x="556" d="M532 0 L298 336 L516 656 L446 656 L249 360 L144 360 L144 656 L84 656 L84 0 L144 0 L144 306 L248 306 L458 0 L532 0 Z " />
<glyph glyph-name="L" unicode="L" horiz-adv-x="472" d="M84 656 L84 0 L454 0 L454 54 L144 54 L144 656 L84 656 Z " />
<glyph glyph-name="M" unicode="M" horiz-adv-x="740" d="M371 237 L369 237 L167 656 L84 656 L84 0 L144 0 L144 430 C144 534 141 583 141 583 L145 583 C145 583 162 536 206 447 L341 175 L399 175 L534 447 C578 536 595 583 595 583 L599 583 C599 583 596 534 596 430 L596 0 L656 0 L656 656 L573 656 L371 237 Z " />
<glyph glyph-name="N" unicode="N" horiz-adv-x="622" d="M478 656 L478 232 C478 139 482 76 482 76 L480 76 C480 76 454 138 408 216 L150 656 L84 656 L84 0 L144 0 L144 424 C144 516 141 580 141 580 L143 580 C143 580 168 518 214 440 L472 0 L538 0 L538 656 L478 656 Z " />
<glyph glyph-name="O" unicode="O" horiz-adv-x="600" d="M300 668 C132 668 60 579 60 328 C60 77 134 -12 300 -12 C466 -12 540 77 540 328 C540 579 468 668 300 668 L300 668 Z M300 40 C165 40 126 121 126 328 C126 535 165 616 300 616 C435 616 474 535 474 328 C474 121 435 40 300 40 L300 40 Z " />
<glyph glyph-name="P" unicode="P" horiz-adv-x="537" d="M84 656 L84 0 L144 0 L144 254 L300 254 C454 254 498 335 498 455 C498 575 454 656 300 656 L84 656 Z M144 308 L144 602 L300 602 C399 602 436 563 436 455 C436 347 399 308 300 308 L144 308 Z " />
<glyph glyph-name="Q" unicode="Q" horiz-adv-x="600" d="M300 668 C132 668 60 579 60 328 C60 92 125 0 271 -11 L271 -120 L329 -108 L329 -11 C474 0 540 92 540 328 C540 579 468 668 300 668 L300 668 Z M271 162 L271 41 C159 53 126 136 126 328 C126 535 165 616 300 616 C435 616 474 535 474 328 C474 136 441 53 329 41 L329 162 L271 162 Z " />
<glyph glyph-name="R" unicode="R" horiz-adv-x="567" d="M144 328 L144 602 L294 602 C408 602 435 557 435 465 C435 373 408 328 294 328 L144 328 Z M452 0 L521 0 L404 228 C386 263 376 274 359 281 C444 294 497 346 497 465 C497 601 439 656 294 656 L84 656 L84 0 L144 0 L144 274 L256 274 C304 274 318 266 337 228 L452 0 Z " />
<glyph glyph-name="S" unicode="S" horiz-adv-x="522" d="M218 366 C147 378 119 404 119 489 C119 589 166 612 262 612 C307 612 376 605 428 595 L434 643 C371 657 308 665 262 665 C140 665 58 632 59 486 C60 357 124 321 209 309 L305 296 C370 287 400 256 400 168 C400 89 373 44 262 44 C206 44 147 51 81 63 L75 14 C134 -1 206 -9 262 -9 C432 -9 462 65 462 176 C462 283 422 337 316 352 L218 366 Z " />
<glyph glyph-name="T" unicode="T" horiz-adv-x="510" d="M486 656 L24 656 L24 602 L225 602 L225 0 L285 0 L285 602 L486 602 L486 656 Z " />
<glyph glyph-name="U" unicode="U" horiz-adv-x="620" d="M538 656 L478 656 L478 216 C478 117 433 45 310 45 C187 45 142 117 142 216 L142 656 L82 656 L82 233 C82 51 178 -9 310 -9 C442 -9 538 51 538 233 L538 656 Z " />
<glyph glyph-name="V" unicode="V" horiz-adv-x="562" d="M316 0 L538 656 L473 656 L321 197 C299 131 283 65 283 65 L279 65 C279 65 263 131 241 197 L89 656 L24 656 L246 0 L316 0 Z " />
<glyph glyph-name="W" unicode="W" horiz-adv-x="808" d="M776 656 L713 656 L626 261 C604 161 591 80 591 80 L587 80 C587 80 572 158 543 261 L436 646 L372 646 L265 261 C236 158 221 80 221 80 L217 80 C217 80 204 161 182 261 L95 656 L32 656 L185 0 L247 0 L367 430 C390 513 403 577 403 577 L405 577 C405 577 418 513 441 430 L561 0 L623 0 L776 656 Z " />
<glyph glyph-name="X" unicode="X" horiz-adv-x="558" d="M524 0 L318 330 L516 656 L449 656 L279 376 L109 656 L42 656 L240 330 L34 0 L105 0 L279 280 L453 0 L524 0 Z " />
<glyph glyph-name="Y" unicode="Y" horiz-adv-x="548" d="M459 656 L322 405 C293 351 275 313 275 313 L273 313 C273 313 255 351 226 405 L89 656 L20 656 L244 255 L244 0 L304 0 L304 255 L528 656 L459 656 Z " />
<glyph glyph-name="Z" unicode="Z" horiz-adv-x="547" d="M480 656 L64 656 L64 602 L421 602 L56 62 L56 0 L484 0 L484 54 L119 54 L480 592 L480 656 Z " />
<glyph glyph-name="bracketleft" unicode="&#x5b;" horiz-adv-x="304" d="M102 -136 L262 -136 L262 -86 L160 -86 L160 694 L262 694 L262 744 L102 744 L102 -136 Z " />
<glyph glyph-name="backslash" unicode="&#x5c;" horiz-adv-x="346" d="M260 -115 L138 744 L86 744 L208 -115 L260 -115 Z " />
<glyph glyph-name="bracketright" unicode="&#x5d;" horiz-adv-x="304" d="M202 744 L42 744 L42 694 L144 694 L144 -86 L42 -86 L42 -136 L202 -136 L202 744 Z " />
<glyph glyph-name="asciicircum" unicode="&#x5e;" horiz-adv-x="472" d="M426 364 L268 696 L204 696 L46 364 L105 364 L188 545 C216 606 234 653 234 653 L238 653 C238 653 256 606 284 545 L367 364 L426 364 Z " />
<glyph glyph-name="underscore" unicode="&#x5f;" horiz-adv-x="389" d="M22 -142 L22 -194 L367 -194 L367 -142 L22 -142 Z " />
<glyph glyph-name="grave" unicode="&#x60;" horiz-adv-x="249" d="M72 696 L139 557 L177 557 L137 696 L72 696 Z " />
<glyph glyph-name="a" unicode="a" horiz-adv-x="482" d="M408 367 C408 461 355 501 253 501 C195 501 127 487 78 467 L84 424 C136 441 201 453 246 453 C325 453 350 423 350 359 L350 298 L217 279 C107 263 49 232 49 127 C49 30 118 -8 188 -8 C251 -8 305 14 354 57 L369 0 L408 0 L408 367 Z M350 98 C328 78 264 40 198 40 C137 40 106 73 106 131 C106 201 143 221 218 232 L350 251 L350 98 Z " />
<glyph glyph-name="b" unicode="b" horiz-adv-x="513" d="M278 44 C200 44 134 98 134 98 L134 394 C134 394 200 448 278 448 C359 448 398 384 398 246 C398 108 359 44 278 44 L278 44 Z M285 501 C217 501 161 463 134 439 L134 702 L76 695 L76 0 L115 0 L130 57 C149 38 210 -9 285 -9 C388 -9 459 72 459 246 C459 420 388 501 285 501 L285 501 Z " />
<glyph glyph-name="c" unicode="c" horiz-adv-x="435" d="M250 39 C141 39 113 94 113 246 C113 397 141 453 250 453 C290 453 328 448 375 438 L381 481 C333 495 290 501 250 501 C120 501 52 448 52 246 C52 44 120 -9 250 -9 C290 -9 333 -3 381 11 L375 54 C328 44 290 39 250 39 L250 39 Z " />
<glyph glyph-name="d" unicode="d" horiz-adv-x="513" d="M235 44 C154 44 115 108 115 246 C115 384 154 448 235 448 C313 448 379 394 379 394 L379 98 C379 98 313 44 235 44 L235 44 Z M228 501 C125 501 54 420 54 246 C54 72 125 -9 228 -9 C303 -9 364 38 383 57 L398 0 L437 0 L437 702 L379 695 L379 439 C352 463 296 501 228 501 L228 501 Z " />
<glyph glyph-name="e" unicode="e" horiz-adv-x="477" d="M419 246 C419 447 348 501 238 501 C127 501 54 449 54 246 C54 43 126 -9 252 -9 C298 -9 341 -3 395 11 L389 54 C342 44 296 39 252 39 C159 39 115 81 115 218 L419 218 L419 246 Z M115 264 C115 413 154 454 238 454 C322 454 361 413 361 264 L115 264 Z " />
<glyph glyph-name="f" unicode="f" horiz-adv-x="325" d="M174 605 C174 646 196 660 235 660 C261 660 300 654 300 654 L305 692 C305 692 264 705 216 705 C146 705 116 669 116 606 L116 492 L36 492 L36 444 L116 444 L116 0 L174 0 L174 444 L282 444 L289 492 L174 492 L174 605 Z " />
<glyph glyph-name="g" unicode="g" horiz-adv-x="506" d="M159 190 C187 185 206 183 236 183 C352 183 415 219 415 342 C415 385 409 415 390 443 L480 443 L473 490 L361 472 C325 496 282 501 236 501 C120 501 57 465 57 342 C57 274 75 228 121 204 L100 144 C85 102 95 76 117 59 C71 30 45 -3 45 -64 C45 -163 108 -203 253 -203 C398 -203 461 -163 461 -64 C461 20 420 62 328 71 L210 83 C156 88 144 99 151 140 L159 190 Z M322 22 C374 17 404 -4 404 -64 C404 -128 370 -158 253 -158 C136 -158 102 -128 102 -64 C102 -15 115 14 150 44 C159 40 172 37 204 34 L322 22 Z M236 227 C144 227 113 254 113 342 C113 430 144 457 236 457 C328 457 359 430 359 342 C359 254 328 227 236 227 L236 227 Z " />
<glyph glyph-name="h" unicode="h" horiz-adv-x="514" d="M297 501 C211 501 160 460 134 438 L134 702 L76 694 L76 0 L134 0 L134 394 C165 419 225 448 289 448 C358 448 382 417 382 347 L382 0 L440 0 L440 355 C440 454 390 501 297 501 L297 501 Z " />
<glyph glyph-name="i" unicode="i" horiz-adv-x="230" d="M144 492 L86 492 L86 0 L144 0 L144 492 Z M115 668 C81 668 80 667 80 633 C80 599 81 598 115 598 C149 598 150 599 150 633 C150 666 149 668 115 668 L115 668 Z " />
<glyph glyph-name="j" unicode="j" horiz-adv-x="233" d="M149 492 L91 492 L91 0 C91 -78 81 -122 60 -194 L102 -200 C133 -140 149 -72 149 0 L149 492 Z M120 668 C86 668 85 667 85 633 C85 599 86 598 120 598 C154 598 155 599 155 633 C155 666 154 668 120 668 L120 668 Z " />
<glyph glyph-name="k" unicode="k" horiz-adv-x="471" d="M450 0 L271 268 L436 492 L369 492 L221 288 L134 288 L134 702 L76 695 L76 0 L134 0 L134 240 L224 240 L383 0 L450 0 Z " />
<glyph glyph-name="l" unicode="l" horiz-adv-x="263" d="M134 702 L76 695 L76 87 C76 13 108 -6 161 -6 C186 -6 203 -2 222 7 L217 44 C203 41 190 39 177 39 C160 39 149 43 142 53 C135 63 134 79 134 107 L134 702 Z " />
<glyph glyph-name="m" unicode="m" horiz-adv-x="754" d="M553 501 C482 501 418 461 390 438 C381 458 351 501 280 501 C212 501 150 455 130 435 L115 492 L76 492 L76 0 L134 0 L134 394 C134 394 200 448 272 448 C335 448 349 407 349 347 L349 0 L407 0 L407 355 C407 375 405 390 403 400 C418 412 469 448 545 448 C608 448 622 407 622 347 L622 0 L680 0 L680 355 C680 458 634 501 553 501 L553 501 Z " />
<glyph glyph-name="n" unicode="n" horiz-adv-x="514" d="M297 501 C207 501 155 456 130 435 L115 492 L76 492 L76 0 L134 0 L134 394 C165 419 225 448 289 448 C358 448 382 417 382 347 L382 0 L440 0 L440 355 C440 454 390 501 297 501 L297 501 Z " />
<glyph glyph-name="o" unicode="o" horiz-adv-x="500" d="M250 504 C117 504 52 444 52 246 C52 48 117 -12 250 -12 C383 -12 448 48 448 246 C448 444 383 504 250 504 L250 504 Z M250 35 C137 35 113 94 113 246 C113 398 137 457 250 457 C363 457 387 398 387 246 C387 94 363 35 250 35 L250 35 Z " />
<glyph glyph-name="p" unicode="p" horiz-adv-x="513" d="M278 448 C359 448 398 384 398 246 C398 108 359 44 278 44 C200 44 134 98 134 98 L134 394 C134 394 200 448 278 448 L278 448 Z M285 -9 C388 -9 459 72 459 246 C459 420 388 501 285 501 C210 501 149 454 130 435 L115 492 L76 492 L76 -200 L134 -192 L134 53 C161 29 217 -9 285 -9 L285 -9 Z " />
<glyph glyph-name="q" unicode="q" horiz-adv-x="513" d="M235 448 C313 448 379 394 379 394 L379 98 C379 98 313 44 235 44 C154 44 115 108 115 246 C115 384 154 448 235 448 L235 448 Z M228 -9 C296 -9 352 29 379 53 L379 -200 L437 -192 L437 492 L398 492 L383 435 C364 454 303 501 228 501 C125 501 54 420 54 246 C54 72 125 -9 228 -9 L228 -9 Z " />
<glyph glyph-name="r" unicode="r" horiz-adv-x="319" d="M282 501 C214 501 154 460 129 428 L111 492 L76 492 L76 0 L134 0 L134 385 C154 409 215 443 282 443 L282 501 Z " />
<glyph glyph-name="s" unicode="s" horiz-adv-x="443" d="M109 366 C109 435 139 453 214 453 C259 453 302 449 359 438 L365 481 C314 494 260 501 214 501 C106 501 56 465 56 366 C56 271 98 241 175 229 L259 216 C310 208 332 186 332 125 C332 58 303 39 214 39 C174 39 123 43 72 54 L66 11 C110 -2 176 -9 214 -9 C344 -9 387 30 387 125 C387 220 355 255 266 269 L184 282 C134 290 109 306 109 366 L109 366 Z " />
<glyph glyph-name="t" unicode="t" horiz-adv-x="365" d="M170 444 L321 444 L328 492 L170 492 L170 634 L112 625 L112 492 L32 492 L32 444 L112 444 L112 114 C112 27 142 -6 224 -6 C256 -6 297 3 318 13 L313 49 C294 44 259 39 237 39 C207 39 187 49 178 66 C171 79 170 102 170 127 L170 444 Z " />
<glyph glyph-name="u" unicode="u" horiz-adv-x="514" d="M217 -9 C307 -9 359 36 384 57 L399 0 L438 0 L438 492 L380 492 L380 98 C349 73 289 44 225 44 C156 44 132 75 132 145 L132 492 L74 492 L74 137 C74 38 124 -9 217 -9 L217 -9 Z " />
<glyph glyph-name="v" unicode="v" horiz-adv-x="468" d="M385 492 L269 164 C248 106 236 59 236 59 L232 59 C232 59 220 106 199 164 L83 492 L22 492 L204 0 L264 0 L446 492 L385 492 Z " />
<glyph glyph-name="w" unicode="w" horiz-adv-x="674" d="M591 492 L508 173 C493 116 487 73 487 73 L483 73 C483 73 472 123 457 174 L364 492 L310 492 L218 176 C203 125 192 72 192 72 L188 72 C188 72 180 120 165 177 L83 492 L25 492 L161 0 L213 0 L308 316 C326 375 336 422 336 422 L338 422 C338 422 348 375 366 316 L461 0 L513 0 L649 492 L591 492 Z " />
<glyph glyph-name="x" unicode="x" horiz-adv-x="464" d="M428 492 L361 492 L232 296 L103 492 L36 492 L196 255 L29 0 L95 0 L232 214 L369 0 L435 0 L269 255 L428 492 Z " />
<glyph glyph-name="y" unicode="y" horiz-adv-x="464" d="M383 492 L267 164 C246 106 234 59 234 59 L230 59 C230 59 218 106 197 164 L81 492 L20 492 L203 0 L185 -51 C151 -147 150 -150 80 -160 L86 -203 C182 -193 195 -178 242 -51 L261 0 L444 492 L383 492 Z " />
<glyph glyph-name="z" unicode="z" horiz-adv-x="455" d="M114 50 L396 440 L396 492 L57 492 L57 442 L334 442 L51 52 L51 0 L402 0 L402 50 L114 50 Z " />
<glyph glyph-name="braceleft" unicode="&#x7b;" horiz-adv-x="336" d="M135 -40 C135 -104 175 -136 224 -136 L294 -136 L294 -86 L248 -86 C199 -86 193 -61 193 -28 L193 178 C193 267 170 293 133 304 C170 315 193 341 193 430 L193 636 C193 669 199 694 248 694 L294 694 L294 744 L224 744 C175 744 135 712 135 648 L135 430 C135 350 118 329 56 329 L56 279 C118 279 135 258 135 178 L135 -40 Z " />
<glyph glyph-name="bar" unicode="&#x7c;" horiz-adv-x="242" d="M96 -115 L146 -115 L146 744 L96 744 L96 -115 Z " />
<glyph glyph-name="braceright" unicode="&#x7d;" horiz-adv-x="336" d="M201 178 C201 258 218 279 280 279 L280 329 C218 329 201 350 201 430 L201 648 C201 712 161 744 112 744 L42 744 L42 694 L88 694 C137 694 143 669 143 636 L143 430 C143 341 166 315 203 304 C166 293 143 267 143 178 L143 -28 C143 -61 137 -86 88 -86 L42 -86 L42 -136 L112 -136 C161 -136 201 -104 201 -40 L201 178 Z " />
<glyph glyph-name="asciitilde" unicode="&#x7e;" horiz-adv-x="457" d="M355 337 C351 312 341 293 330 285 C320 279 302 278 278 289 L192 329 C167 341 137 342 117 335 C90 325 66 303 56 235 L102 229 C105 253 116 273 127 281 C137 287 155 288 179 277 L265 237 C289 227 320 224 339 231 C367 241 391 263 401 331 L355 337 Z " />
<glyph glyph-name="nbspace" unicode="&#xa0;" horiz-adv-x="244" d="" />
<glyph glyph-name="exclamdown" unicode="&#xa1;" horiz-adv-x="270" d="M104 -164 L166 -164 L166 159 L155 310 L115 310 L104 159 L104 -164 Z M135 410 C176 410 178 412 178 453 C178 494 176 496 135 496 C94 496 92 494 92 453 C92 412 94 410 135 410 L135 410 Z " />
<glyph glyph-name="cent" unicode="&#xa2;" horiz-adv-x="435" d="M250 39 C141 39 113 94 113 246 C113 397 141 453 250 453 C290 453 328 448 375 438 L381 481 C343 492 308 498 275 500 L275 611 C275 611 224 603 225 604 L225 500 C111 493 52 434 52 246 C52 57 111 -1 225 -8 L225 -119 L275 -112 L275 -8 C308 -6 343 0 381 11 L375 54 C328 44 290 39 250 39 L250 39 Z " />
<glyph glyph-name="sterling" unicode="&#xa3;" horiz-adv-x="543" d="M413 305 L420 355 L200 355 L200 471 C200 593 264 612 328 612 C377 612 416 607 475 595 L482 642 C422 659 371 665 328 665 C239 665 140 634 140 471 L140 355 L50 355 L50 305 L140 305 L140 54 L50 54 L50 0 L497 0 L497 54 L200 54 L200 305 L413 305 Z " />
<glyph glyph-name="currency" unicode="&#xa4;" horiz-adv-x="680" d="M340 512 C294 512 248 506 215 487 L111 591 L66 546 L170 442 C152 412 145 368 145 317 C145 266 152 222 170 192 L66 88 L111 43 L215 147 C247 128 294 122 340 122 C386 122 433 128 465 147 L569 43 L614 88 L510 192 C528 222 535 266 535 317 C535 368 528 412 510 442 L614 546 L569 591 L465 487 C432 506 386 512 340 512 L340 512 Z M340 170 C236 170 205 204 205 317 C205 430 236 464 340 464 C444 464 475 430 475 317 C475 203 444 170 340 170 L340 170 Z " />
<glyph glyph-name="yen" unicode="&#xa5;" horiz-adv-x="548" d="M459 656 L322 405 C293 351 275 313 275 313 L273 313 C273 313 255 351 226 405 L89 656 L20 656 L150 422 L73 422 L66 372 L178 372 L228 284 L73 284 L66 234 L244 234 L244 0 L304 0 L304 234 L454 234 L461 284 L320 284 L369 372 L474 372 L481 422 L397 422 L528 656 L459 656 Z " />
<glyph glyph-name="brokenbar" unicode="&#xa6;" horiz-adv-x="242" d="M96 -115 L146 -115 L146 263 L96 263 L96 -115 Z M96 366 L146 366 L146 744 L96 744 L96 366 Z " />
<glyph glyph-name="section" unicode="&#xa7;" horiz-adv-x="480" d="M240 423 C216 423 199 423 180 421 C142 465 125 488 125 530 C125 598 159 616 240 616 C291 616 339 609 385 600 L391 643 C347 655 284 664 240 664 C126 664 71 638 71 530 C71 481 85 455 129 410 C86 394 52 363 52 249 C52 96 111 75 240 75 C263 75 282 76 301 78 C338 41 355 8 355 -31 C355 -88 335 -114 240 -114 C186 -114 139 -107 95 -97 L89 -140 C138 -155 190 -162 240 -162 C384 -162 410 -105 410 -31 C410 10 399 43 353 88 C403 107 428 151 428 249 C428 402 368 423 240 423 L240 423 Z M240 121 C142 121 113 141 113 249 C113 357 142 377 240 377 C338 377 367 357 367 249 C367 141 338 121 240 121 L240 121 Z " />
<glyph glyph-name="dieresis" unicode="&#xa8;" horiz-adv-x="374" d="M107 668 C73 668 72 667 72 633 C72 599 73 598 107 598 C141 598 142 599 142 633 C142 666 141 668 107 668 L107 668 Z M267 668 C233 668 232 667 232 633 C232 599 233 598 267 598 C301 598 302 599 302 633 C302 666 301 668 267 668 L267 668 Z " />
<glyph glyph-name="copyright" unicode="&#xa9;" horiz-adv-x="772" d="M387 668 C183 668 62 545 62 328 C62 111 184 -12 387 -12 C589 -12 710 111 710 328 C710 545 589 668 387 668 L387 668 Z M387 26 C207 26 104 129 104 327 C104 525 207 630 387 630 C567 630 667 525 667 327 C667 129 567 26 387 26 L387 26 Z M389 173 C319 173 284 207 284 327 C284 447 319 481 389 481 C433 481 461 477 499 470 L504 508 C464 518 418 523 389 523 C293 523 231 481 231 327 C231 173 293 131 389 131 C418 131 464 136 504 146 L499 184 C461 177 433 173 389 173 L389 173 Z " />
<glyph glyph-name="ordfeminine" unicode="&#xaa;" horiz-adv-x="350" d="M288 565 C288 638 251 662 179 662 C147 662 103 654 62 639 L66 604 C107 616 148 622 172 622 C227 622 242 607 242 564 L242 530 L147 516 C74 505 44 478 44 413 C44 344 92 322 139 322 C183 322 214 337 248 365 L257 328 L288 328 L288 565 Z M242 397 C219 377 186 362 147 362 C111 362 89 377 89 415 C89 452 101 470 153 478 L242 491 L242 397 Z " />
<glyph glyph-name="guillemotleft" unicode="&#xab;" horiz-adv-x="474" d="M166 82 L210 89 L132 274 L210 459 L166 466 L70 274 L166 82 Z M354 82 L398 89 L320 274 L398 459 L354 466 L258 274 L354 82 Z " />
<glyph glyph-name="logicalnot" unicode="&#xac;" horiz-adv-x="540" d="M72 300 L72 248 L418 248 L418 87 L468 87 L468 300 L72 300 Z " />
<glyph glyph-name="registered" unicode="&#xae;" horiz-adv-x="772" d="M387 668 C183 668 62 545 62 328 C62 111 184 -12 387 -12 C589 -12 710 111 710 328 C710 545 589 668 387 668 L387 668 Z M387 26 C207 26 104 129 104 327 C104 525 207 630 387 630 C567 630 667 525 667 327 C667 129 567 26 387 26 L387 26 Z M539 136 L475 265 C465 283 459 288 452 293 L452 294 C490 303 528 327 528 403 C528 482 488 518 401 518 L270 518 L270 136 L314 136 L315 288 L388 288 C406 288 417 281 424 267 L489 136 L539 136 Z M315 328 L315 478 L401 478 C460 478 482 459 482 403 C482 347 460 328 401 328 L315 328 Z " />
<glyph glyph-name="macron" unicode="&#xaf;" horiz-adv-x="392" d="M72 658 L72 614 L320 614 L320 658 L72 658 Z " />
<glyph glyph-name="degree" unicode="&#xb0;" horiz-adv-x="426" d="M88 538 C88 462 139 410 213 410 C287 410 338 462 338 538 C338 614 287 666 213 666 C139 666 88 614 88 538 L88 538 Z M127 538 C127 592 162 628 213 628 C264 628 299 592 299 538 C299 484 264 448 213 448 C162 448 127 484 127 538 L127 538 Z " />
<glyph glyph-name="plusminus" unicode="&#xb1;" horiz-adv-x="540" d="M72 126 L72 74 L468 74 L468 126 L72 126 Z M298 352 L298 474 L242 474 L242 352 L72 352 L72 300 L242 300 L242 178 L298 178 L298 300 L468 300 L468 352 L298 352 Z " />
<glyph glyph-name="twosuperior" unicode="&#xb2;" horiz-adv-x="328" d="M92 331 C92 392 100 405 181 452 C268 503 278 519 278 573 C278 637 238 662 160 662 C124 662 85 657 51 648 L57 612 C100 619 123 622 160 622 C204 622 232 609 232 573 C232 537 227 527 149 483 C66 436 46 410 46 330 L46 288 L274 288 L274 330 L92 331 Z " />
<glyph glyph-name="threesuperior" unicode="&#xb3;" horiz-adv-x="322" d="M215 475 C248 488 265 507 265 559 C265 644 222 662 146 662 C119 662 84 657 48 648 L53 612 C86 618 115 622 146 622 C195 622 221 612 221 559 C221 506 195 496 146 496 L105 496 L105 454 L146 454 C200 454 224 443 224 388 C224 333 200 322 146 322 C116 322 90 324 51 331 L46 295 C83 286 119 282 146 282 C227 282 270 305 270 388 C270 440 255 463 215 474 L215 475 Z " />
<glyph glyph-name="acute" unicode="&#xb4;" horiz-adv-x="249" d="M112 696 L72 557 L110 557 L177 696 L112 696 Z " />
<glyph glyph-name="micro" unicode="&#xb5;" horiz-adv-x="516" d="M219 -9 C309 -9 361 36 386 57 L401 0 L440 0 L440 492 L382 492 L382 98 C351 73 291 44 227 44 C158 44 134 75 134 145 L134 492 L76 492 L76 -200 L134 -192 L134 19 C148 2 184 -9 219 -9 L219 -9 Z " />
<glyph glyph-name="paragraph" unicode="&#xb6;" horiz-adv-x="537" d="M451 656 L254 656 C122 656 50 609 50 453 C50 305 117 257 229 252 L229 -200 L287 -192 L287 252 L393 252 L393 -200 L451 -192 L451 656 Z M107 454 C107 577 157 608 254 608 L393 608 L393 300 L254 300 C157 300 107 331 107 454 L107 454 Z " />
<glyph glyph-name="periodcentered" unicode="&#xb7;" horiz-adv-x="242" d="M121 317 C80 317 78 315 78 274 C78 233 80 231 121 231 C162 231 164 233 164 274 C164 315 162 317 121 317 L121 317 Z " />
<glyph glyph-name="cedilla" unicode="&#xb8;" horiz-adv-x="223" d="M94 8 L72 -158 L112 -164 L151 8 L94 8 Z " />
<glyph glyph-name="onesuperior" unicode="&#xb9;" horiz-adv-x="286" d="M52 288 L254 288 L254 330 L177 330 L177 661 L40 642 L45 607 L131 607 L131 330 L52 330 L52 288 Z " />
<glyph glyph-name="ordmasculine" unicode="&#xba;" horiz-adv-x="359" d="M179 662 C90 662 44 622 44 492 C44 362 90 322 179 322 C268 322 315 362 315 492 C315 622 268 662 179 662 L179 662 Z M179 360 C119 360 93 387 93 492 C93 597 119 624 179 624 C239 624 266 597 266 492 C266 387 239 360 179 360 L179 360 Z " />
<glyph glyph-name="guillemotright" unicode="&#xbb;" horiz-adv-x="474" d="M404 274 L308 466 L264 459 L342 274 L264 89 L308 82 L404 274 Z M216 274 L120 466 L76 459 L154 274 L76 89 L120 82 L216 274 Z " />
<glyph glyph-name="onequarter" unicode="&#xbc;" horiz-adv-x="801" d="M660 204 L660 116 L528 116 L528 118 L627 367 L580 373 L480 114 L480 74 L660 74 L660 0 L706 0 L706 74 L768 74 L768 116 L706 116 L706 204 L660 204 Z M56 288 L258 288 L258 330 L181 330 L181 661 L44 642 L49 607 L135 607 L135 330 L56 330 L56 288 Z M243 0 L618 656 L567 656 L191 0 L243 0 Z " />
<glyph glyph-name="onehalf" unicode="&#xbd;" horiz-adv-x="818" d="M56 288 L258 288 L258 330 L181 330 L181 661 L44 642 L49 607 L135 607 L135 330 L56 330 L56 288 Z M248 0 L623 656 L572 656 L196 0 L248 0 Z M586 43 C586 104 594 117 675 164 C762 215 772 231 772 285 C772 349 732 374 654 374 C618 374 579 369 545 360 L551 324 C594 331 617 334 654 334 C698 334 726 321 726 285 C726 249 721 239 643 195 C560 148 540 122 540 42 L540 0 L768 0 L768 42 L586 43 Z " />
<glyph glyph-name="threequarters" unicode="&#xbe;" horiz-adv-x="773" d="M631 204 L631 116 L499 116 L499 118 L598 367 L551 373 L451 114 L451 74 L631 74 L631 0 L677 0 L677 74 L739 74 L739 116 L677 116 L677 204 L631 204 Z M217 0 L592 656 L541 656 L165 0 L217 0 Z M227 475 C260 488 277 507 277 559 C277 644 234 662 158 662 C131 662 96 657 60 648 L65 612 C98 618 127 622 158 622 C207 622 233 612 233 559 C233 506 207 496 158 496 L117 496 L117 454 L158 454 C212 454 236 443 236 388 C236 333 212 322 158 322 C128 322 102 324 63 331 L58 295 C95 286 131 282 158 282 C239 282 282 305 282 388 C282 440 267 463 227 474 L227 475 Z " />
<glyph glyph-name="questiondown" unicode="&#xbf;" horiz-adv-x="471" d="M246 -173 C295 -173 364 -166 421 -150 L415 -102 C352 -116 290 -120 246 -120 C166 -120 117 -105 117 -23 C117 46 139 60 209 93 C307 139 321 174 312 241 L303 310 L258 310 L258 247 C258 193 255 173 177 136 C83 92 58 69 58 -23 C58 -144 127 -173 246 -173 L246 -173 Z M279 410 C319 410 322 413 322 453 C322 493 319 496 279 496 C239 496 236 493 236 453 C236 413 239 410 279 410 L279 410 Z " />
<glyph glyph-name="Agrave" unicode="&#xc0;" horiz-adv-x="578" d="M554 0 L324 656 L254 656 L24 0 L89 0 L144 159 L434 159 L489 0 L554 0 Z M162 213 L253 484 C275 549 287 598 287 598 L291 598 C291 598 303 549 325 484 L416 213 L162 213 Z M197 866 L264 727 L302 727 L262 866 L197 866 Z " />
<glyph glyph-name="Aacute" unicode="&#xc1;" horiz-adv-x="578" d="M554 0 L324 656 L254 656 L24 0 L89 0 L144 159 L434 159 L489 0 L554 0 Z M162 213 L253 484 C275 549 287 598 287 598 L291 598 C291 598 303 549 325 484 L416 213 L162 213 Z M317 866 L277 727 L315 727 L382 866 L317 866 Z " />
<glyph glyph-name="Acircumflex" unicode="&#xc2;" horiz-adv-x="578" d="M554 0 L324 656 L254 656 L24 0 L89 0 L144 159 L434 159 L489 0 L554 0 Z M162 213 L253 484 C275 549 287 598 287 598 L291 598 C291 598 303 549 325 484 L416 213 L162 213 Z M423 757 L314 866 L264 866 L155 757 L191 736 L288 825 L290 825 L387 736 L423 757 Z " />
<glyph glyph-name="Atilde" unicode="&#xc3;" horiz-adv-x="578" d="M554 0 L324 656 L254 656 L24 0 L89 0 L144 159 L434 159 L489 0 L554 0 Z M162 213 L253 484 C275 549 287 598 287 598 L291 598 C291 598 303 549 325 484 L416 213 L162 213 Z M395 848 C392 827 383 811 374 805 C366 800 351 798 331 807 L258 841 C237 851 212 852 196 846 C173 837 153 820 145 763 L183 758 C186 779 195 795 204 801 C212 806 227 808 247 799 L320 765 C341 755 366 754 382 760 C405 769 425 786 433 843 L395 848 Z " />
<glyph glyph-name="Adieresis" unicode="&#xc4;" horiz-adv-x="578" d="M554 0 L324 656 L254 656 L24 0 L89 0 L144 159 L434 159 L489 0 L554 0 Z M162 213 L253 484 C275 549 287 598 287 598 L291 598 C291 598 303 549 325 484 L416 213 L162 213 Z M209 838 C175 838 174 837 174 803 C174 769 175 768 209 768 C243 768 244 769 244 803 C244 836 243 838 209 838 L209 838 Z M369 838 C335 838 334 837 334 803 C334 769 335 768 369 768 C403 768 404 769 404 803 C404 836 403 838 369 838 L369 838 Z " />
<glyph glyph-name="Aring" unicode="&#xc5;" horiz-adv-x="578" d="M554 0 L324 656 L254 656 L24 0 L89 0 L144 159 L434 159 L489 0 L554 0 Z M162 213 L253 484 C275 549 287 598 287 598 L291 598 C291 598 303 549 325 484 L416 213 L162 213 Z M289 882 C334 882 341 867 341 818 C341 770 334 756 289 756 C244 756 237 770 237 818 C237 866 244 882 289 882 L289 882 Z M289 913 C222 913 197 887 197 818 C197 746 222 723 289 723 C356 723 381 749 381 818 C381 887 356 913 289 913 L289 913 Z " />
<glyph glyph-name="AE" unicode="&#xc6;" horiz-adv-x="930" d="M866 656 L459 656 L10 0 L82 0 L202 175 L486 175 L486 0 L872 0 L872 54 L546 54 L546 306 L842 306 L842 360 L546 360 L546 602 L866 602 L866 656 Z M237 229 L424 505 C459 557 484 598 484 598 L486 598 L486 229 L237 229 Z " />
<glyph glyph-name="Ccedilla" unicode="&#xc7;" horiz-adv-x="532" d="M306 45 C168 45 126 125 126 328 C126 531 168 611 306 611 C360 611 411 604 464 593 L470 641 C414 656 360 664 306 664 C134 664 60 578 60 328 C60 106 118 13 251 -4 L231 -158 L271 -164 L306 -8 C360 -8 414 0 470 15 L464 63 C411 52 360 45 306 45 L306 45 Z " />
<glyph glyph-name="Egrave" unicode="&#xc8;" horiz-adv-x="524" d="M464 656 L84 656 L84 0 L470 0 L470 54 L144 54 L144 306 L440 306 L440 360 L144 360 L144 602 L464 602 L464 656 Z M187 866 L254 727 L292 727 L252 866 L187 866 Z " />
<glyph glyph-name="Eacute" unicode="&#xc9;" horiz-adv-x="524" d="M464 656 L84 656 L84 0 L470 0 L470 54 L144 54 L144 306 L440 306 L440 360 L144 360 L144 602 L464 602 L464 656 Z M303 866 L263 727 L301 727 L368 866 L303 866 Z " />
<glyph glyph-name="Ecircumflex" unicode="&#xca;" horiz-adv-x="524" d="M464 656 L84 656 L84 0 L470 0 L470 54 L144 54 L144 306 L440 306 L440 360 L144 360 L144 602 L464 602 L464 656 Z M409 757 L300 866 L250 866 L141 757 L177 736 L274 825 L276 825 L373 736 L409 757 Z " />
<glyph glyph-name="Edieresis" unicode="&#xcb;" horiz-adv-x="524" d="M464 656 L84 656 L84 0 L470 0 L470 54 L144 54 L144 306 L440 306 L440 360 L144 360 L144 602 L464 602 L464 656 Z M195 838 C161 838 160 837 160 803 C160 769 161 768 195 768 C229 768 230 769 230 803 C230 836 229 838 195 838 L195 838 Z M355 838 C321 838 320 837 320 803 C320 769 321 768 355 768 C389 768 390 769 390 803 C390 836 389 838 355 838 L355 838 Z " />
<glyph glyph-name="Igrave" unicode="&#xcc;" horiz-adv-x="252" d="M156 656 L96 656 L96 0 L156 0 L156 656 Z M34 866 L101 727 L139 727 L99 866 L34 866 Z " />
<glyph glyph-name="Iacute" unicode="&#xcd;" horiz-adv-x="252" d="M156 656 L96 656 L96 0 L156 0 L156 656 Z M154 866 L114 727 L152 727 L219 866 L154 866 Z " />
<glyph glyph-name="Icircumflex" unicode="&#xce;" horiz-adv-x="252" d="M156 656 L96 656 L96 0 L156 0 L156 656 Z M260 757 L151 866 L101 866 L-8 757 L28 736 L125 825 L127 825 L224 736 L260 757 Z " />
<glyph glyph-name="Idieresis" unicode="&#xcf;" horiz-adv-x="252" d="M156 656 L96 656 L96 0 L156 0 L156 656 Z M46 838 C12 838 11 837 11 803 C11 769 12 768 46 768 C80 768 81 769 81 803 C81 836 80 838 46 838 L46 838 Z M206 838 C172 838 171 837 171 803 C171 769 172 768 206 768 C240 768 241 769 241 803 C241 836 240 838 206 838 L206 838 Z " />
<glyph glyph-name="Eth" unicode="&#xd0;" horiz-adv-x="606" d="M16 307 L98 307 L98 0 L270 0 C424 0 546 32 546 328 C546 624 425 656 271 656 L98 656 L98 349 L16 349 L16 307 Z M158 54 L158 307 L310 307 L310 349 L158 349 L158 602 L271 602 C429 602 480 559 480 328 C480 97 428 54 270 54 L158 54 Z " />
<glyph glyph-name="Ntilde" unicode="&#xd1;" horiz-adv-x="622" d="M478 656 L478 232 C478 139 482 76 482 76 L480 76 C480 76 454 138 408 216 L150 656 L84 656 L84 0 L144 0 L144 424 C144 516 141 580 141 580 L143 580 C143 580 168 518 214 440 L472 0 L538 0 L538 656 L478 656 Z M417 848 C414 827 405 811 396 805 C388 800 373 798 353 807 L280 841 C259 851 234 852 218 846 C195 837 175 820 167 763 L205 758 C208 779 217 795 226 801 C234 806 249 808 269 799 L342 765 C363 755 388 754 404 760 C427 769 447 786 455 843 L417 848 Z " />
<glyph glyph-name="Ograve" unicode="&#xd2;" horiz-adv-x="600" d="M300 668 C132 668 60 579 60 328 C60 77 134 -12 300 -12 C466 -12 540 77 540 328 C540 579 468 668 300 668 L300 668 Z M300 40 C165 40 126 121 126 328 C126 535 165 616 300 616 C435 616 474 535 474 328 C474 121 435 40 300 40 L300 40 Z M208 866 L275 727 L313 727 L273 866 L208 866 Z " />
<glyph glyph-name="Oacute" unicode="&#xd3;" horiz-adv-x="600" d="M300 668 C132 668 60 579 60 328 C60 77 134 -12 300 -12 C466 -12 540 77 540 328 C540 579 468 668 300 668 L300 668 Z M300 40 C165 40 126 121 126 328 C126 535 165 616 300 616 C435 616 474 535 474 328 C474 121 435 40 300 40 L300 40 Z M328 866 L288 727 L326 727 L393 866 L328 866 Z " />
<glyph glyph-name="Ocircumflex" unicode="&#xd4;" horiz-adv-x="600" d="M300 668 C132 668 60 579 60 328 C60 77 134 -12 300 -12 C466 -12 540 77 540 328 C540 579 468 668 300 668 L300 668 Z M300 40 C165 40 126 121 126 328 C126 535 165 616 300 616 C435 616 474 535 474 328 C474 121 435 40 300 40 L300 40 Z M434 757 L325 866 L275 866 L166 757 L202 736 L299 825 L301 825 L398 736 L434 757 Z " />
<glyph glyph-name="Otilde" unicode="&#xd5;" horiz-adv-x="600" d="M300 668 C132 668 60 579 60 328 C60 77 134 -12 300 -12 C466 -12 540 77 540 328 C540 579 468 668 300 668 L300 668 Z M300 40 C165 40 126 121 126 328 C126 535 165 616 300 616 C435 616 474 535 474 328 C474 121 435 40 300 40 L300 40 Z M406 848 C403 827 394 811 385 805 C377 800 362 798 342 807 L269 841 C248 851 223 852 207 846 C184 837 164 820 156 763 L194 758 C197 779 206 795 215 801 C223 806 238 808 258 799 L331 765 C352 755 377 754 393 760 C416 769 436 786 444 843 L406 848 Z " />
<glyph glyph-name="Odieresis" unicode="&#xd6;" horiz-adv-x="600" d="M300 668 C132 668 60 579 60 328 C60 77 134 -12 300 -12 C466 -12 540 77 540 328 C540 579 468 668 300 668 L300 668 Z M300 40 C165 40 126 121 126 328 C126 535 165 616 300 616 C435 616 474 535 474 328 C474 121 435 40 300 40 L300 40 Z M220 838 C186 838 185 837 185 803 C185 769 186 768 220 768 C254 768 255 769 255 803 C255 836 254 838 220 838 L220 838 Z M380 838 C346 838 345 837 345 803 C345 769 346 768 380 768 C414 768 415 769 415 803 C415 836 414 838 380 838 L380 838 Z " />
<glyph glyph-name="multiply" unicode="&#xd7;" horiz-adv-x="540" d="M270 312 L111 471 L73 433 L232 274 L73 115 L111 77 L270 236 L429 77 L467 115 L308 274 L467 433 L429 471 L270 312 Z " />
<glyph glyph-name="Oslash" unicode="&#xd8;" horiz-adv-x="600" d="M300 668 C132 668 60 579 60 328 C60 198 80 112 122 58 L51 -66 L98 -66 L152 28 C189 0 238 -12 300 -12 C466 -12 540 77 540 328 C540 458 520 545 478 598 L549 722 L502 722 L448 628 C411 656 362 668 300 668 L300 668 Z M300 40 C247 40 209 53 182 80 L443 538 C465 491 474 423 474 328 C474 121 435 40 300 40 L300 40 Z M126 328 C126 535 165 616 300 616 C353 616 391 603 418 575 L156 118 C134 165 126 233 126 328 L126 328 Z " />
<glyph glyph-name="Ugrave" unicode="&#xd9;" horiz-adv-x="620" d="M538 656 L478 656 L478 216 C478 117 433 45 310 45 C187 45 142 117 142 216 L142 656 L82 656 L82 233 C82 51 178 -9 310 -9 C442 -9 538 51 538 233 L538 656 Z M218 866 L285 727 L323 727 L283 866 L218 866 Z " />
<glyph glyph-name="Uacute" unicode="&#xda;" horiz-adv-x="620" d="M538 656 L478 656 L478 216 C478 117 433 45 310 45 C187 45 142 117 142 216 L142 656 L82 656 L82 233 C82 51 178 -9 310 -9 C442 -9 538 51 538 233 L538 656 Z M338 866 L298 727 L336 727 L403 866 L338 866 Z " />
<glyph glyph-name="Ucircumflex" unicode="&#xdb;" horiz-adv-x="620" d="M538 656 L478 656 L478 216 C478 117 433 45 310 45 C187 45 142 117 142 216 L142 656 L82 656 L82 233 C82 51 178 -9 310 -9 C442 -9 538 51 538 233 L538 656 Z M444 757 L335 866 L285 866 L176 757 L212 736 L309 825 L311 825 L408 736 L444 757 Z " />
<glyph glyph-name="Udieresis" unicode="&#xdc;" horiz-adv-x="620" d="M538 656 L478 656 L478 216 C478 117 433 45 310 45 C187 45 142 117 142 216 L142 656 L82 656 L82 233 C82 51 178 -9 310 -9 C442 -9 538 51 538 233 L538 656 Z M230 838 C196 838 195 837 195 803 C195 769 196 768 230 768 C264 768 265 769 265 803 C265 836 264 838 230 838 L230 838 Z M390 838 C356 838 355 837 355 803 C355 769 356 768 390 768 C424 768 425 769 425 803 C425 836 424 838 390 838 L390 838 Z " />
<glyph glyph-name="Yacute" unicode="&#xdd;" horiz-adv-x="548" d="M459 656 L322 405 C293 351 275 313 275 313 L273 313 C273 313 255 351 226 405 L89 656 L20 656 L244 255 L244 0 L304 0 L304 255 L528 656 L459 656 Z M302 866 L262 727 L300 727 L367 866 L302 866 Z " />
<glyph glyph-name="Thorn" unicode="&#xde;" horiz-adv-x="539" d="M144 534 L144 656 L84 656 L84 0 L144 0 L144 132 L301 132 C455 132 500 213 500 333 C500 453 455 534 301 534 L144 534 Z M144 186 L144 480 L301 480 C400 480 436 441 436 333 C436 225 400 186 301 186 L144 186 Z " />
<glyph glyph-name="germandbls" unicode="&#xdf;" horiz-adv-x="531" d="M419 170 C419 62 384 37 324 37 C288 37 258 40 224 46 L219 8 C248 -1 292 -9 324 -9 C428 -9 477 43 477 170 C477 308 423 351 330 351 L328 371 C328 396 333 416 370 459 C408 503 422 536 422 572 C422 667 350 705 249 705 C131 705 76 652 76 552 L76 0 L134 0 L134 543 C134 627 171 659 249 659 C324 659 365 634 365 572 C365 542 349 516 320 477 C286 432 270 400 281 335 L286 303 L324 303 C384 303 419 278 419 170 L419 170 Z " />
<glyph glyph-name="agrave" unicode="&#xe0;" horiz-adv-x="482" d="M408 367 C408 461 355 501 253 501 C195 501 127 487 78 467 L84 424 C136 441 201 453 246 453 C325 453 350 423 350 359 L350 298 L217 279 C107 263 49 232 49 127 C49 30 118 -8 188 -8 C251 -8 305 14 354 57 L369 0 L408 0 L408 367 Z M350 98 C328 78 264 40 198 40 C137 40 106 73 106 131 C106 201 143 221 218 232 L350 251 L350 98 Z M151 696 L218 557 L256 557 L216 696 L151 696 Z " />
<glyph glyph-name="aacute" unicode="&#xe1;" horiz-adv-x="482" d="M408 367 C408 461 355 501 253 501 C195 501 127 487 78 467 L84 424 C136 441 201 453 246 453 C325 453 350 423 350 359 L350 298 L217 279 C107 263 49 232 49 127 C49 30 118 -8 188 -8 C251 -8 305 14 354 57 L369 0 L408 0 L408 367 Z M350 98 C328 78 264 40 198 40 C137 40 106 73 106 131 C106 201 143 221 218 232 L350 251 L350 98 Z M271 696 L231 557 L269 557 L336 696 L271 696 Z " />
<glyph glyph-name="acircumflex" unicode="&#xe2;" horiz-adv-x="482" d="M408 367 C408 461 355 501 253 501 C195 501 127 487 78 467 L84 424 C136 441 201 453 246 453 C325 453 350 423 350 359 L350 298 L217 279 C107 263 49 232 49 127 C49 30 118 -8 188 -8 C251 -8 305 14 354 57 L369 0 L408 0 L408 367 Z M350 98 C328 78 264 40 198 40 C137 40 106 73 106 131 C106 201 143 221 218 232 L350 251 L350 98 Z M377 587 L268 696 L218 696 L109 587 L145 566 L242 655 L244 655 L341 566 L377 587 Z " />
<glyph glyph-name="atilde" unicode="&#xe3;" horiz-adv-x="482" d="M408 367 C408 461 355 501 253 501 C195 501 127 487 78 467 L84 424 C136 441 201 453 246 453 C325 453 350 423 350 359 L350 298 L217 279 C107 263 49 232 49 127 C49 30 118 -8 188 -8 C251 -8 305 14 354 57 L369 0 L408 0 L408 367 Z M350 98 C328 78 264 40 198 40 C137 40 106 73 106 131 C106 201 143 221 218 232 L350 251 L350 98 Z M349 678 C346 657 337 641 328 635 C320 630 305 628 285 637 L212 671 C191 681 166 682 150 676 C127 667 107 650 99 593 L137 588 C140 609 149 625 158 631 C166 636 181 638 201 629 L274 595 C295 585 320 584 336 590 C359 599 379 616 387 673 L349 678 Z " />
<glyph glyph-name="adieresis" unicode="&#xe4;" horiz-adv-x="482" d="M408 367 C408 461 355 501 253 501 C195 501 127 487 78 467 L84 424 C136 441 201 453 246 453 C325 453 350 423 350 359 L350 298 L217 279 C107 263 49 232 49 127 C49 30 118 -8 188 -8 C251 -8 305 14 354 57 L369 0 L408 0 L408 367 Z M350 98 C328 78 264 40 198 40 C137 40 106 73 106 131 C106 201 143 221 218 232 L350 251 L350 98 Z M163 668 C129 668 128 667 128 633 C128 599 129 598 163 598 C197 598 198 599 198 633 C198 666 197 668 163 668 L163 668 Z M323 668 C289 668 288 667 288 633 C288 599 289 598 323 598 C357 598 358 599 358 633 C358 666 357 668 323 668 L323 668 Z " />
<glyph glyph-name="aring" unicode="&#xe5;" horiz-adv-x="482" d="M408 367 C408 461 355 501 253 501 C195 501 127 487 78 467 L84 424 C136 441 201 453 246 453 C325 453 350 423 350 359 L350 298 L217 279 C107 263 49 232 49 127 C49 30 118 -8 188 -8 C251 -8 305 14 354 57 L369 0 L408 0 L408 367 Z M350 98 C328 78 264 40 198 40 C137 40 106 73 106 131 C106 201 143 221 218 232 L350 251 L350 98 Z M243 712 C288 712 295 697 295 648 C295 600 288 586 243 586 C198 586 191 600 191 648 C191 696 198 712 243 712 L243 712 Z M243 743 C176 743 151 717 151 648 C151 576 176 553 243 553 C310 553 335 579 335 648 C335 717 310 743 243 743 L243 743 Z " />
<glyph glyph-name="ae" unicode="&#xe6;" horiz-adv-x="769" d="M711 246 C711 447 640 501 530 501 C469 501 423 477 394 437 C369 485 322 501 253 501 C195 501 127 487 78 467 L84 424 C136 441 201 453 246 453 C325 453 350 423 350 359 L350 298 L217 279 C107 263 49 232 49 127 C49 30 118 -8 188 -8 C261 -8 313 6 381 67 C410 16 458 -9 544 -9 C590 -9 633 -3 687 11 L681 54 C634 44 588 39 544 39 C451 39 407 81 407 218 L711 218 L711 246 Z M363 107 C325 76 264 40 198 40 C137 40 106 73 106 131 C106 201 143 221 218 232 L350 251 C350 193 353 155 363 107 L363 107 Z M407 264 L408 394 C429 426 472 454 534 454 C618 454 653 413 653 264 L407 264 Z " />
<glyph glyph-name="ccedilla" unicode="&#xe7;" horiz-adv-x="435" d="M250 39 C141 39 113 94 113 246 C113 397 141 453 250 453 C290 453 328 448 375 438 L381 481 C333 495 290 501 250 501 C120 501 52 448 52 246 C52 67 105 5 208 -7 L188 -158 L228 -164 L263 -9 C299 -8 338 -1 381 11 L375 54 C328 44 290 39 250 39 L250 39 Z " />
<glyph glyph-name="egrave" unicode="&#xe8;" horiz-adv-x="477" d="M419 246 C419 447 348 501 238 501 C127 501 54 449 54 246 C54 43 126 -9 252 -9 C298 -9 341 -3 395 11 L389 54 C342 44 296 39 252 39 C159 39 115 81 115 218 L419 218 L419 246 Z M115 264 C115 413 154 454 238 454 C322 454 361 413 361 264 L115 264 Z M146 696 L213 557 L251 557 L211 696 L146 696 Z " />
<glyph glyph-name="eacute" unicode="&#xe9;" horiz-adv-x="477" d="M419 246 C419 447 348 501 238 501 C127 501 54 449 54 246 C54 43 126 -9 252 -9 C298 -9 341 -3 395 11 L389 54 C342 44 296 39 252 39 C159 39 115 81 115 218 L419 218 L419 246 Z M115 264 C115 413 154 454 238 454 C322 454 361 413 361 264 L115 264 Z M266 696 L226 557 L264 557 L331 696 L266 696 Z " />
<glyph glyph-name="ecircumflex" unicode="&#xea;" horiz-adv-x="477" d="M419 246 C419 447 348 501 238 501 C127 501 54 449 54 246 C54 43 126 -9 252 -9 C298 -9 341 -3 395 11 L389 54 C342 44 296 39 252 39 C159 39 115 81 115 218 L419 218 L419 246 Z M115 264 C115 413 154 454 238 454 C322 454 361 413 361 264 L115 264 Z M372 587 L263 696 L213 696 L104 587 L140 566 L237 655 L239 655 L336 566 L372 587 Z " />
<glyph glyph-name="edieresis" unicode="&#xeb;" horiz-adv-x="477" d="M419 246 C419 447 348 501 238 501 C127 501 54 449 54 246 C54 43 126 -9 252 -9 C298 -9 341 -3 395 11 L389 54 C342 44 296 39 252 39 C159 39 115 81 115 218 L419 218 L419 246 Z M115 264 C115 413 154 454 238 454 C322 454 361 413 361 264 L115 264 Z M158 668 C124 668 123 667 123 633 C123 599 124 598 158 598 C192 598 193 599 193 633 C193 666 192 668 158 668 L158 668 Z M318 668 C284 668 283 667 283 633 C283 599 284 598 318 598 C352 598 353 599 353 633 C353 666 352 668 318 668 L318 668 Z " />
<glyph glyph-name="igrave" unicode="&#xec;" horiz-adv-x="230" d="M144 492 L86 492 L86 0 L144 0 L144 492 Z M23 696 L90 557 L128 557 L88 696 L23 696 Z " />
<glyph glyph-name="iacute" unicode="&#xed;" horiz-adv-x="230" d="M144 492 L86 492 L86 0 L144 0 L144 492 Z M143 696 L103 557 L141 557 L208 696 L143 696 Z " />
<glyph glyph-name="icircumflex" unicode="&#xee;" horiz-adv-x="230" d="M144 492 L86 492 L86 0 L144 0 L144 492 Z M249 587 L140 696 L90 696 L-19 587 L17 566 L114 655 L116 655 L213 566 L249 587 Z " />
<glyph glyph-name="idieresis" unicode="&#xef;" horiz-adv-x="230" d="M144 492 L86 492 L86 0 L144 0 L144 492 Z M35 668 C1 668 0 667 0 633 C0 599 1 598 35 598 C69 598 70 599 70 633 C70 666 69 668 35 668 L35 668 Z M195 668 C161 668 160 667 160 633 C160 599 161 598 195 598 C229 598 230 599 230 633 C230 666 229 668 195 668 L195 668 Z " />
<glyph glyph-name="eth" unicode="&#xf0;" horiz-adv-x="498" d="M379 623 C366 650 351 678 334 700 L292 692 C306 666 319 639 329 615 L231 601 L237 563 L343 578 C358 535 366 491 371 442 C333 478 276 501 226 501 C123 501 52 425 52 246 C52 36 139 -12 248 -12 C357 -12 444 36 444 246 C444 366 430 488 395 586 L488 600 L482 638 L379 623 Z M375 396 C380 352 382 303 382 246 C382 79 338 35 248 35 C158 35 114 79 114 246 C114 384 152 448 233 448 C291 448 333 426 375 396 L375 396 Z " />
<glyph glyph-name="ntilde" unicode="&#xf1;" horiz-adv-x="514" d="M297 501 C207 501 155 456 130 435 L115 492 L76 492 L76 0 L134 0 L134 394 C165 419 225 448 289 448 C358 448 382 417 382 347 L382 0 L440 0 L440 355 C440 454 390 501 297 501 L297 501 Z M364 678 C361 657 352 641 343 635 C335 630 320 628 300 637 L227 671 C206 681 181 682 165 676 C142 667 122 650 114 593 L152 588 C155 609 164 625 173 631 C181 636 196 638 216 629 L289 595 C310 585 335 584 351 590 C374 599 394 616 402 673 L364 678 Z " />
<glyph glyph-name="ograve" unicode="&#xf2;" horiz-adv-x="500" d="M250 504 C117 504 52 444 52 246 C52 48 117 -12 250 -12 C383 -12 448 48 448 246 C448 444 383 504 250 504 L250 504 Z M250 35 C137 35 113 94 113 246 C113 398 137 457 250 457 C363 457 387 398 387 246 C387 94 363 35 250 35 L250 35 Z M158 696 L225 557 L263 557 L223 696 L158 696 Z " />
<glyph glyph-name="oacute" unicode="&#xf3;" horiz-adv-x="500" d="M250 504 C117 504 52 444 52 246 C52 48 117 -12 250 -12 C383 -12 448 48 448 246 C448 444 383 504 250 504 L250 504 Z M250 35 C137 35 113 94 113 246 C113 398 137 457 250 457 C363 457 387 398 387 246 C387 94 363 35 250 35 L250 35 Z M278 696 L238 557 L276 557 L343 696 L278 696 Z " />
<glyph glyph-name="ocircumflex" unicode="&#xf4;" horiz-adv-x="500" d="M250 504 C117 504 52 444 52 246 C52 48 117 -12 250 -12 C383 -12 448 48 448 246 C448 444 383 504 250 504 L250 504 Z M250 35 C137 35 113 94 113 246 C113 398 137 457 250 457 C363 457 387 398 387 246 C387 94 363 35 250 35 L250 35 Z M384 587 L275 696 L225 696 L116 587 L152 566 L249 655 L251 655 L348 566 L384 587 Z " />
<glyph glyph-name="otilde" unicode="&#xf5;" horiz-adv-x="500" d="M250 504 C117 504 52 444 52 246 C52 48 117 -12 250 -12 C383 -12 448 48 448 246 C448 444 383 504 250 504 L250 504 Z M250 35 C137 35 113 94 113 246 C113 398 137 457 250 457 C363 457 387 398 387 246 C387 94 363 35 250 35 L250 35 Z M356 678 C353 657 344 641 335 635 C327 630 312 628 292 637 L219 671 C198 681 173 682 157 676 C134 667 114 650 106 593 L144 588 C147 609 156 625 165 631 C173 636 188 638 208 629 L281 595 C302 585 327 584 343 590 C366 599 386 616 394 673 L356 678 Z " />
<glyph glyph-name="odieresis" unicode="&#xf6;" horiz-adv-x="500" d="M250 504 C117 504 52 444 52 246 C52 48 117 -12 250 -12 C383 -12 448 48 448 246 C448 444 383 504 250 504 L250 504 Z M250 35 C137 35 113 94 113 246 C113 398 137 457 250 457 C363 457 387 398 387 246 C387 94 363 35 250 35 L250 35 Z M170 668 C136 668 135 667 135 633 C135 599 136 598 170 598 C204 598 205 599 205 633 C205 666 204 668 170 668 L170 668 Z M330 668 C296 668 295 667 295 633 C295 599 296 598 330 598 C364 598 365 599 365 633 C365 666 364 668 330 668 L330 668 Z " />
<glyph glyph-name="divide" unicode="&#xf7;" horiz-adv-x="540" d="M270 482 C236 482 235 481 235 447 C235 413 236 412 270 412 C304 412 305 413 305 447 C305 480 304 482 270 482 L270 482 Z M270 136 C236 136 235 135 235 101 C235 67 236 66 270 66 C304 66 305 67 305 101 C305 134 304 136 270 136 L270 136 Z M72 300 L72 248 L468 248 L468 300 L72 300 Z " />
<glyph glyph-name="oslash" unicode="&#xf8;" horiz-adv-x="500" d="M48 -66 L94 -66 L138 11 C168 -5 205 -12 250 -12 C383 -12 448 48 448 246 C448 350 430 416 393 455 L452 558 L406 558 L361 480 C332 497 295 504 250 504 C117 504 52 443 52 246 C52 141 70 75 107 36 L48 -66 Z M113 246 C113 398 137 457 250 457 C288 457 315 450 336 435 L136 88 C118 122 113 173 113 246 L113 246 Z M250 35 C212 35 184 41 164 56 L363 404 C381 370 387 318 387 246 C387 94 363 35 250 35 L250 35 Z " />
<glyph glyph-name="ugrave" unicode="&#xf9;" horiz-adv-x="514" d="M217 -9 C307 -9 359 36 384 57 L399 0 L438 0 L438 492 L380 492 L380 98 C349 73 289 44 225 44 C156 44 132 75 132 145 L132 492 L74 492 L74 137 C74 38 124 -9 217 -9 L217 -9 Z M164 696 L231 557 L269 557 L229 696 L164 696 Z " />
<glyph glyph-name="uacute" unicode="&#xfa;" horiz-adv-x="514" d="M217 -9 C307 -9 359 36 384 57 L399 0 L438 0 L438 492 L380 492 L380 98 C349 73 289 44 225 44 C156 44 132 75 132 145 L132 492 L74 492 L74 137 C74 38 124 -9 217 -9 L217 -9 Z M284 696 L244 557 L282 557 L349 696 L284 696 Z " />
<glyph glyph-name="ucircumflex" unicode="&#xfb;" horiz-adv-x="514" d="M217 -9 C307 -9 359 36 384 57 L399 0 L438 0 L438 492 L380 492 L380 98 C349 73 289 44 225 44 C156 44 132 75 132 145 L132 492 L74 492 L74 137 C74 38 124 -9 217 -9 L217 -9 Z M390 587 L281 696 L231 696 L122 587 L158 566 L255 655 L257 655 L354 566 L390 587 Z " />
<glyph glyph-name="udieresis" unicode="&#xfc;" horiz-adv-x="514" d="M217 -9 C307 -9 359 36 384 57 L399 0 L438 0 L438 492 L380 492 L380 98 C349 73 289 44 225 44 C156 44 132 75 132 145 L132 492 L74 492 L74 137 C74 38 124 -9 217 -9 L217 -9 Z M176 668 C142 668 141 667 141 633 C141 599 142 598 176 598 C210 598 211 599 211 633 C211 666 210 668 176 668 L176 668 Z M336 668 C302 668 301 667 301 633 C301 599 302 598 336 598 C370 598 371 599 371 633 C371 666 370 668 336 668 L336 668 Z " />
<glyph glyph-name="yacute" unicode="&#xfd;" horiz-adv-x="464" d="M383 492 L267 164 C246 106 234 59 234 59 L230 59 C230 59 218 106 197 164 L81 492 L20 492 L203 0 L185 -51 C151 -147 150 -150 80 -160 L86 -203 C182 -193 195 -178 242 -51 L261 0 L444 492 L383 492 Z M260 696 L220 557 L258 557 L325 696 L260 696 Z " />
<glyph glyph-name="thorn" unicode="&#xfe;" horiz-adv-x="513" d="M285 -9 C388 -9 459 72 459 246 C459 420 388 501 285 501 C217 501 161 463 134 439 L134 702 L76 694 L76 -200 L134 -192 L134 53 C161 29 217 -9 285 -9 L285 -9 Z M278 448 C359 448 398 384 398 246 C398 108 359 44 278 44 C200 44 134 98 134 98 L134 394 C134 394 200 448 278 448 L278 448 Z " />
<glyph glyph-name="ydieresis" unicode="&#xff;" horiz-adv-x="464" d="M383 492 L267 164 C246 106 234 59 234 59 L230 59 C230 59 218 106 197 164 L81 492 L20 492 L203 0 L185 -51 C151 -147 150 -150 80 -160 L86 -203 C182 -193 195 -178 242 -51 L261 0 L444 492 L383 492 Z M152 668 C118 668 117 667 117 633 C117 599 118 598 152 598 C186 598 187 599 187 633 C187 666 186 668 152 668 L152 668 Z M312 668 C278 668 277 667 277 633 C277 599 278 598 312 598 C346 598 347 599 347 633 C347 666 346 668 312 668 L312 668 Z " />
<glyph glyph-name="Amacron" unicode="&#x100;" horiz-adv-x="578" d="M554 0 L324 656 L254 656 L24 0 L89 0 L144 159 L434 159 L489 0 L554 0 Z M162 213 L253 484 C275 549 287 598 287 598 L291 598 C291 598 303 549 325 484 L416 213 L162 213 Z M165 828 L165 784 L413 784 L413 828 L165 828 Z " />
<glyph glyph-name="amacron" unicode="&#x101;" horiz-adv-x="482" d="M408 367 C408 461 355 501 253 501 C195 501 127 487 78 467 L84 424 C136 441 201 453 246 453 C325 453 350 423 350 359 L350 298 L217 279 C107 263 49 232 49 127 C49 30 118 -8 188 -8 C251 -8 305 14 354 57 L369 0 L408 0 L408 367 Z M350 98 C328 78 264 40 198 40 C137 40 106 73 106 131 C106 201 143 221 218 232 L350 251 L350 98 Z M119 658 L119 614 L367 614 L367 658 L119 658 Z " />
<glyph glyph-name="Abreve" unicode="&#x102;" horiz-adv-x="578" d="M554 0 L324 656 L254 656 L24 0 L89 0 L144 159 L434 159 L489 0 L554 0 Z M162 213 L253 484 C275 549 287 598 287 598 L291 598 C291 598 303 549 325 484 L416 213 L162 213 Z M152 860 C155 774 207 745 289 745 C371 745 423 774 426 860 L385 866 C379 813 363 785 289 785 C215 785 199 813 193 866 L152 860 Z " />
<glyph glyph-name="abreve" unicode="&#x103;" horiz-adv-x="482" d="M408 367 C408 461 355 501 253 501 C195 501 127 487 78 467 L84 424 C136 441 201 453 246 453 C325 453 350 423 350 359 L350 298 L217 279 C107 263 49 232 49 127 C49 30 118 -8 188 -8 C251 -8 305 14 354 57 L369 0 L408 0 L408 367 Z M350 98 C328 78 264 40 198 40 C137 40 106 73 106 131 C106 201 143 221 218 232 L350 251 L350 98 Z M106 690 C109 604 161 575 243 575 C325 575 377 604 380 690 L339 696 C333 643 317 615 243 615 C169 615 153 643 147 696 L106 690 Z " />
<glyph glyph-name="Aogonek" unicode="&#x104;" horiz-adv-x="578" d="M554 0 L324 656 L254 656 L24 0 L89 0 L144 159 L434 159 L489 0 L502 0 L469 -25 C429 -55 406 -82 406 -126 C406 -178 440 -202 489 -202 C509 -202 528 -201 554 -195 L550 -159 C528 -163 513 -164 499 -164 C469 -164 452 -151 452 -123 C452 -99 463 -81 494 -53 L554 0 Z M162 213 L253 484 C275 549 287 598 287 598 L291 598 C291 598 303 549 325 484 L416 213 L162 213 Z " />
<glyph glyph-name="aogonek" unicode="&#x105;" horiz-adv-x="482" d="M408 367 C408 461 355 501 253 501 C195 501 127 487 78 467 L84 424 C136 441 201 453 246 453 C325 453 350 423 350 359 L350 298 L217 279 C107 263 49 232 49 127 C49 30 118 -8 188 -8 C251 -8 305 14 354 57 L367 8 L323 -25 C283 -55 260 -82 260 -126 C260 -178 294 -202 343 -202 C363 -202 382 -201 408 -195 L404 -159 C382 -163 367 -164 353 -164 C323 -164 306 -151 306 -123 C306 -99 317 -81 348 -53 L408 0 L408 367 Z M350 98 C328 78 264 40 198 40 C137 40 106 73 106 131 C106 201 143 221 218 232 L350 251 L350 98 Z " />
<glyph glyph-name="Cacute" unicode="&#x106;" horiz-adv-x="531" d="M305 45 C167 45 126 125 126 328 C126 531 167 611 305 611 C359 611 410 604 463 593 L469 641 C413 656 359 664 305 664 C133 664 60 578 60 328 C60 78 133 -8 305 -8 C359 -8 413 0 469 15 L463 63 C410 52 359 45 305 45 L305 45 Z M326 866 L286 727 L324 727 L391 866 L326 866 Z " />
<glyph glyph-name="cacute" unicode="&#x107;" horiz-adv-x="435" d="M250 39 C141 39 113 94 113 246 C113 397 141 453 250 453 C290 453 328 448 375 438 L381 481 C333 495 290 501 250 501 C120 501 52 448 52 246 C52 44 120 -9 250 -9 C290 -9 333 -3 381 11 L375 54 C328 44 290 39 250 39 L250 39 Z M269 696 L229 557 L267 557 L334 696 L269 696 Z " />
<glyph glyph-name="Ccircumflex" unicode="&#x108;" horiz-adv-x="531" d="M305 45 C167 45 126 125 126 328 C126 531 167 611 305 611 C359 611 410 604 463 593 L469 641 C413 656 359 664 305 664 C133 664 60 578 60 328 C60 78 133 -8 305 -8 C359 -8 413 0 469 15 L463 63 C410 52 359 45 305 45 L305 45 Z M432 757 L323 866 L273 866 L164 757 L200 736 L297 825 L299 825 L396 736 L432 757 Z " />
<glyph glyph-name="ccircumflex" unicode="&#x109;" horiz-adv-x="435" d="M250 39 C141 39 113 94 113 246 C113 397 141 453 250 453 C290 453 328 448 375 438 L381 481 C333 495 290 501 250 501 C120 501 52 448 52 246 C52 44 120 -9 250 -9 C290 -9 333 -3 381 11 L375 54 C328 44 290 39 250 39 L250 39 Z M376 587 L267 696 L217 696 L108 587 L144 566 L241 655 L243 655 L340 566 L376 587 Z " />
<glyph glyph-name="Cdotaccent" unicode="&#x10a;" horiz-adv-x="531" d="M305 45 C167 45 126 125 126 328 C126 531 167 611 305 611 C359 611 410 604 463 593 L469 641 C413 656 359 664 305 664 C133 664 60 578 60 328 C60 78 133 -8 305 -8 C359 -8 413 0 469 15 L463 63 C410 52 359 45 305 45 L305 45 Z " />
<glyph glyph-name="cdotaccent" unicode="&#x10b;" horiz-adv-x="435" d="M250 39 C141 39 113 94 113 246 C113 397 141 453 250 453 C290 453 328 448 375 438 L381 481 C333 495 290 501 250 501 C120 501 52 448 52 246 C52 44 120 -9 250 -9 C290 -9 333 -3 381 11 L375 54 C328 44 290 39 250 39 L250 39 Z M242 668 C208 668 207 667 207 633 C207 599 208 598 242 598 C276 598 277 599 277 633 C277 666 276 668 242 668 L242 668 Z " />
<glyph glyph-name="Ccaron" unicode="&#x10c;" horiz-adv-x="531" d="M305 45 C167 45 126 125 126 328 C126 531 167 611 305 611 C359 611 410 604 463 593 L469 641 C413 656 359 664 305 664 C133 664 60 578 60 328 C60 78 133 -8 305 -8 C359 -8 413 0 469 15 L463 63 C410 52 359 45 305 45 L305 45 Z M396 868 L299 779 L297 779 L200 868 L164 847 L273 738 L323 738 L432 847 L396 868 Z " />
<glyph glyph-name="ccaron" unicode="&#x10d;" horiz-adv-x="435" d="M250 39 C141 39 113 94 113 246 C113 397 141 453 250 453 C290 453 328 448 375 438 L381 481 C333 495 290 501 250 501 C120 501 52 448 52 246 C52 44 120 -9 250 -9 C290 -9 333 -3 381 11 L375 54 C328 44 290 39 250 39 L250 39 Z M340 698 L243 609 L241 609 L144 698 L108 677 L217 568 L267 568 L376 677 L340 698 Z " />
<glyph glyph-name="Dcaron" unicode="&#x10e;" horiz-adv-x="592" d="M84 656 L84 0 L256 0 C410 0 532 32 532 328 C532 624 411 656 257 656 L84 656 Z M144 54 L144 602 L257 602 C415 602 466 559 466 328 C466 97 414 54 256 54 L144 54 Z M395 862 L298 773 L296 773 L199 862 L163 841 L272 732 L322 732 L431 841 L395 862 Z " />
<glyph glyph-name="dcaron" unicode="&#x10f;" horiz-adv-x="557" d="M501 696 L501 521 L533 521 L559 639 L559 696 L501 696 Z M235 44 C154 44 115 108 115 246 C115 384 154 448 235 448 C313 448 379 394 379 394 L379 98 C379 98 313 44 235 44 L235 44 Z M228 501 C125 501 54 420 54 246 C54 72 125 -9 228 -9 C303 -9 364 38 383 57 L398 0 L437 0 L437 702 L379 695 L379 439 C352 463 296 501 228 501 L228 501 Z " />
<glyph glyph-name="Dcroat" unicode="&#x110;" horiz-adv-x="606" d="M16 307 L98 307 L98 0 L270 0 C424 0 546 32 546 328 C546 624 425 656 271 656 L98 656 L98 349 L16 349 L16 307 Z M158 54 L158 307 L310 307 L310 349 L158 349 L158 602 L271 602 C429 602 480 559 480 328 C480 97 428 54 270 54 L158 54 Z " />
<glyph glyph-name="dcroat" unicode="&#x111;" horiz-adv-x="513" d="M228 501 C125 501 54 420 54 246 C54 72 125 -9 228 -9 C303 -9 364 38 383 57 L398 0 L437 0 L437 562 L515 562 L515 604 L437 604 L437 702 L379 695 L379 604 L265 604 L265 562 L379 562 L379 439 C352 463 296 501 228 501 L228 501 Z M235 44 C154 44 115 108 115 246 C115 384 154 448 235 448 C313 448 379 394 379 394 L379 98 C379 98 313 44 235 44 L235 44 Z " />
<glyph glyph-name="Emacron" unicode="&#x112;" horiz-adv-x="524" d="M464 656 L84 656 L84 0 L470 0 L470 54 L144 54 L144 306 L440 306 L440 360 L144 360 L144 602 L464 602 L464 656 Z M151 828 L151 784 L399 784 L399 828 L151 828 Z " />
<glyph glyph-name="emacron" unicode="&#x113;" horiz-adv-x="477" d="M419 246 C419 447 348 501 238 501 C127 501 54 449 54 246 C54 43 126 -9 252 -9 C298 -9 341 -3 395 11 L389 54 C342 44 296 39 252 39 C159 39 115 81 115 218 L419 218 L419 246 Z M115 264 C115 413 154 454 238 454 C322 454 361 413 361 264 L115 264 Z M114 658 L114 614 L362 614 L362 658 L114 658 Z " />
<glyph glyph-name="Ebreve" unicode="&#x114;" horiz-adv-x="524" d="M464 656 L84 656 L84 0 L470 0 L470 54 L144 54 L144 306 L440 306 L440 360 L144 360 L144 602 L464 602 L464 656 Z M138 854 C141 768 193 739 275 739 C357 739 409 768 412 854 L371 860 C365 807 349 779 275 779 C201 779 185 807 179 860 L138 854 Z " />
<glyph glyph-name="ebreve" unicode="&#x115;" horiz-adv-x="477" d="M419 246 C419 447 348 501 238 501 C127 501 54 449 54 246 C54 43 126 -9 252 -9 C298 -9 341 -3 395 11 L389 54 C342 44 296 39 252 39 C159 39 115 81 115 218 L419 218 L419 246 Z M115 264 C115 413 154 454 238 454 C322 454 361 413 361 264 L115 264 Z M101 690 C104 604 156 575 238 575 C320 575 372 604 375 690 L334 696 C328 643 312 615 238 615 C164 615 148 643 142 696 L101 690 Z " />
<glyph glyph-name="Edotaccent" unicode="&#x116;" horiz-adv-x="524" d="M464 656 L84 656 L84 0 L470 0 L470 54 L144 54 L144 306 L440 306 L440 360 L144 360 L144 602 L464 602 L464 656 Z M275 838 C241 838 240 837 240 803 C240 769 241 768 275 768 C309 768 310 769 310 803 C310 836 309 838 275 838 L275 838 Z " />
<glyph glyph-name="edotaccent" unicode="&#x117;" horiz-adv-x="477" d="M419 246 C419 447 348 501 238 501 C127 501 54 449 54 246 C54 43 126 -9 252 -9 C298 -9 341 -3 395 11 L389 54 C342 44 296 39 252 39 C159 39 115 81 115 218 L419 218 L419 246 Z M115 264 C115 413 154 454 238 454 C322 454 361 413 361 264 L115 264 Z M238 668 C204 668 203 667 203 633 C203 599 204 598 238 598 C272 598 273 599 273 633 C273 666 272 668 238 668 L238 668 Z " />
<glyph glyph-name="Eogonek" unicode="&#x118;" horiz-adv-x="524" d="M464 656 L84 656 L84 0 L418 0 L385 -25 C345 -55 322 -82 322 -126 C322 -178 356 -202 405 -202 C425 -202 444 -201 470 -195 L466 -159 C444 -163 429 -164 415 -164 C385 -164 368 -151 368 -123 C368 -99 379 -81 410 -53 L470 0 L470 54 L144 54 L144 306 L440 306 L440 360 L144 360 L144 602 L464 602 L464 656 Z " />
<glyph glyph-name="eogonek" unicode="&#x119;" horiz-adv-x="477" d="M419 246 C419 447 348 501 238 501 C127 501 54 449 54 246 C54 43 126 -9 252 -9 C277 -9 301 -7 327 -3 L298 -25 C258 -55 235 -82 235 -126 C235 -178 269 -202 318 -202 C338 -202 357 -201 383 -195 L379 -159 C357 -163 342 -164 328 -164 C298 -164 281 -151 281 -123 C281 -99 292 -81 323 -53 L395 11 L389 54 C342 44 296 39 252 39 C159 39 115 81 115 218 L419 218 L419 246 Z M115 264 C115 413 154 454 238 454 C322 454 361 413 361 264 L115 264 Z " />
<glyph glyph-name="Ecaron" unicode="&#x11a;" horiz-adv-x="524" d="M464 656 L84 656 L84 0 L470 0 L470 54 L144 54 L144 306 L440 306 L440 360 L144 360 L144 602 L464 602 L464 656 Z M373 868 L276 779 L274 779 L177 868 L141 847 L250 738 L300 738 L409 847 L373 868 Z " />
<glyph glyph-name="ecaron" unicode="&#x11b;" horiz-adv-x="477" d="M419 246 C419 447 348 501 238 501 C127 501 54 449 54 246 C54 43 126 -9 252 -9 C298 -9 341 -3 395 11 L389 54 C342 44 296 39 252 39 C159 39 115 81 115 218 L419 218 L419 246 Z M115 264 C115 413 154 454 238 454 C322 454 361 413 361 264 L115 264 Z M336 698 L239 609 L237 609 L140 698 L104 677 L213 568 L263 568 L372 677 L336 698 Z " />
<glyph glyph-name="Gcircumflex" unicode="&#x11c;" horiz-adv-x="588" d="M306 339 L306 285 L458 285 L458 66 C421 52 364 45 306 45 C166 45 126 125 126 328 C126 531 166 611 306 611 C368 611 421 605 497 593 L503 641 C430 657 368 664 306 664 C138 664 60 572 60 328 C60 84 138 -8 306 -8 C382 -8 455 5 516 32 L516 339 L306 339 Z M444 757 L335 866 L285 866 L176 757 L212 736 L309 825 L311 825 L408 736 L444 757 Z " />
<glyph glyph-name="gcircumflex" unicode="&#x11d;" horiz-adv-x="506" d="M159 190 C187 185 206 183 236 183 C352 183 415 219 415 342 C415 385 409 415 390 443 L480 443 L473 490 L361 472 C325 496 282 501 236 501 C120 501 57 465 57 342 C57 274 75 228 121 204 L100 144 C85 102 95 76 117 59 C71 30 45 -3 45 -64 C45 -163 108 -203 253 -203 C398 -203 461 -163 461 -64 C461 20 420 62 328 71 L210 83 C156 88 144 99 151 140 L159 190 Z M322 22 C374 17 404 -4 404 -64 C404 -128 370 -158 253 -158 C136 -158 102 -128 102 -64 C102 -15 115 14 150 44 C159 40 172 37 204 34 L322 22 Z M236 227 C144 227 113 254 113 342 C113 430 144 457 236 457 C328 457 359 430 359 342 C359 254 328 227 236 227 L236 227 Z M370 587 L261 696 L211 696 L102 587 L138 566 L235 655 L237 655 L334 566 L370 587 Z " />
<glyph glyph-name="Gbreve" unicode="&#x11e;" horiz-adv-x="588" d="M306 339 L306 285 L458 285 L458 66 C421 52 364 45 306 45 C166 45 126 125 126 328 C126 531 166 611 306 611 C368 611 421 605 497 593 L503 641 C430 657 368 664 306 664 C138 664 60 572 60 328 C60 84 138 -8 306 -8 C382 -8 455 5 516 32 L516 339 L306 339 Z M173 860 C176 774 228 745 310 745 C392 745 444 774 447 860 L406 866 C400 813 384 785 310 785 C236 785 220 813 214 866 L173 860 Z " />
<glyph glyph-name="gbreve" unicode="&#x11f;" horiz-adv-x="506" d="M159 190 C187 185 206 183 236 183 C352 183 415 219 415 342 C415 385 409 415 390 443 L480 443 L473 490 L361 472 C325 496 282 501 236 501 C120 501 57 465 57 342 C57 274 75 228 121 204 L100 144 C85 102 95 76 117 59 C71 30 45 -3 45 -64 C45 -163 108 -203 253 -203 C398 -203 461 -163 461 -64 C461 20 420 62 328 71 L210 83 C156 88 144 99 151 140 L159 190 Z M322 22 C374 17 404 -4 404 -64 C404 -128 370 -158 253 -158 C136 -158 102 -128 102 -64 C102 -15 115 14 150 44 C159 40 172 37 204 34 L322 22 Z M236 227 C144 227 113 254 113 342 C113 430 144 457 236 457 C328 457 359 430 359 342 C359 254 328 227 236 227 L236 227 Z M99 690 C102 604 154 575 236 575 C318 575 370 604 373 690 L332 696 C326 643 310 615 236 615 C162 615 146 643 140 696 L99 690 Z " />
<glyph glyph-name="Gdotaccent" unicode="&#x120;" horiz-adv-x="588" d="M306 339 L306 285 L458 285 L458 66 C421 52 364 45 306 45 C166 45 126 125 126 328 C126 531 166 611 306 611 C368 611 421 605 497 593 L503 641 C430 657 368 664 306 664 C138 664 60 572 60 328 C60 84 138 -8 306 -8 C382 -8 455 5 516 32 L516 339 L306 339 Z " />
<glyph glyph-name="gdotaccent" unicode="&#x121;" horiz-adv-x="506" d="M159 190 C187 185 206 183 236 183 C352 183 415 219 415 342 C415 385 409 415 390 443 L480 443 L473 490 L361 472 C325 496 282 501 236 501 C120 501 57 465 57 342 C57 274 75 228 121 204 L100 144 C85 102 95 76 117 59 C71 30 45 -3 45 -64 C45 -163 108 -203 253 -203 C398 -203 461 -163 461 -64 C461 20 420 62 328 71 L210 83 C156 88 144 99 151 140 L159 190 Z M322 22 C374 17 404 -4 404 -64 C404 -128 370 -158 253 -158 C136 -158 102 -128 102 -64 C102 -15 115 14 150 44 C159 40 172 37 204 34 L322 22 Z M236 227 C144 227 113 254 113 342 C113 430 144 457 236 457 C328 457 359 430 359 342 C359 254 328 227 236 227 L236 227 Z M236 668 C202 668 201 667 201 633 C201 599 202 598 236 598 C270 598 271 599 271 633 C271 666 270 668 236 668 L236 668 Z " />
<glyph glyph-name="Gcommaaccent" unicode="&#x122;" horiz-adv-x="588" d="M306 339 L306 285 L458 285 L458 66 C421 52 364 45 306 45 C166 45 126 125 126 328 C126 531 166 611 306 611 C368 611 421 605 497 593 L503 641 C430 657 368 664 306 664 C138 664 60 572 60 328 C60 84 138 -8 306 -8 C382 -8 455 5 516 32 L516 339 L306 339 Z M284 -73 L284 -248 L316 -248 L342 -130 L342 -73 L284 -73 Z " />
<glyph glyph-name="gcommaaccent" unicode="&#x123;" horiz-adv-x="506" d="M159 190 C187 185 206 183 236 183 C352 183 415 219 415 342 C415 385 409 415 390 443 L480 443 L473 490 L361 472 C325 496 282 501 236 501 C120 501 57 465 57 342 C57 274 75 228 121 204 L100 144 C85 102 95 76 117 59 C71 30 45 -3 45 -64 C45 -163 108 -203 253 -203 C398 -203 461 -163 461 -64 C461 20 420 62 328 71 L210 83 C156 88 144 99 151 140 L159 190 Z M322 22 C374 17 404 -4 404 -64 C404 -128 370 -158 253 -158 C136 -158 102 -128 102 -64 C102 -15 115 14 150 44 C159 40 172 37 204 34 L322 22 Z M236 227 C144 227 113 254 113 342 C113 430 144 457 236 457 C328 457 359 430 359 342 C359 254 328 227 236 227 L236 227 Z M263 588 L263 763 L231 763 L205 645 L205 588 L263 588 Z " />
<glyph glyph-name="Hcircumflex" unicode="&#x124;" horiz-adv-x="612" d="M468 656 L468 360 L144 360 L144 656 L84 656 L84 0 L144 0 L144 306 L468 306 L468 0 L528 0 L528 656 L468 656 Z M440 757 L331 866 L281 866 L172 757 L208 736 L305 825 L307 825 L404 736 L440 757 Z " />
<glyph glyph-name="hcircumflex" unicode="&#x125;" horiz-adv-x="514" d="M297 501 C211 501 160 460 134 438 L134 702 L76 694 L76 0 L134 0 L134 394 C165 419 225 448 289 448 C358 448 382 417 382 347 L382 0 L440 0 L440 355 C440 454 390 501 297 501 L297 501 Z M239 797 L130 906 L80 906 L-29 797 L7 776 L104 865 L106 865 L203 776 L239 797 Z " />
<glyph glyph-name="Hbar" unicode="&#x126;" horiz-adv-x="640" d="M482 656 L482 526 L158 526 L158 656 L98 656 L98 526 L20 526 L20 484 L98 484 L98 0 L158 0 L158 306 L482 306 L482 0 L542 0 L542 484 L620 484 L620 526 L542 526 L542 656 L482 656 Z M158 360 L158 484 L482 484 L482 360 L158 360 Z " />
<glyph glyph-name="hbar" unicode="&#x127;" horiz-adv-x="514" d="M297 501 C211 501 160 460 134 438 L134 562 L259 562 L259 604 L134 604 L134 702 L76 694 L76 604 L0 604 L0 562 L76 562 L76 0 L134 0 L134 394 C165 419 225 448 289 448 C358 448 382 417 382 347 L382 0 L440 0 L440 355 C440 454 390 501 297 501 L297 501 Z " />
<glyph glyph-name="Itilde" unicode="&#x128;" horiz-adv-x="252" d="M156 656 L96 656 L96 0 L156 0 L156 656 Z M232 848 C229 827 220 811 211 805 C203 800 188 798 168 807 L95 841 C74 851 49 852 33 846 C10 837 -10 820 -18 763 L20 758 C23 779 32 795 41 801 C49 806 64 808 84 799 L157 765 C178 755 203 754 219 760 C242 769 262 786 270 843 L232 848 Z " />
<glyph glyph-name="itilde" unicode="&#x129;" horiz-adv-x="230" d="M144 492 L86 492 L86 0 L144 0 L144 492 Z M221 678 C218 657 209 641 200 635 C192 630 177 628 157 637 L84 671 C63 681 38 682 22 676 C-1 667 -21 650 -29 593 L9 588 C12 609 21 625 30 631 C38 636 53 638 73 629 L146 595 C167 585 192 584 208 590 C231 599 251 616 259 673 L221 678 Z " />
<glyph glyph-name="Imacron" unicode="&#x12a;" horiz-adv-x="252" d="M156 656 L96 656 L96 0 L156 0 L156 656 Z M2 828 L2 784 L250 784 L250 828 L2 828 Z " />
<glyph glyph-name="imacron" unicode="&#x12b;" horiz-adv-x="230" d="M144 492 L86 492 L86 0 L144 0 L144 492 Z M-9 658 L-9 614 L239 614 L239 658 L-9 658 Z " />
<glyph glyph-name="Iogonek" unicode="&#x12e;" horiz-adv-x="252" d="M156 656 L96 656 L96 0 L104 0 L71 -25 C31 -55 8 -82 8 -126 C8 -178 42 -202 91 -202 C111 -202 130 -201 156 -195 L152 -159 C130 -163 115 -164 101 -164 C71 -164 54 -151 54 -123 C54 -99 65 -81 96 -53 L156 0 L156 656 Z " />
<glyph glyph-name="iogonek" unicode="&#x12f;" horiz-adv-x="230" d="M144 492 L86 492 L86 0 L92 0 L59 -25 C19 -55 -4 -82 -4 -126 C-4 -178 30 -202 79 -202 C99 -202 118 -201 144 -195 L140 -159 C118 -163 103 -164 89 -164 C59 -164 42 -151 42 -123 C42 -99 53 -81 84 -53 L144 0 L144 492 Z M115 702 C81 702 80 701 80 667 C80 633 81 632 115 632 C149 632 150 633 150 667 C150 700 149 702 115 702 L115 702 Z " />
<glyph glyph-name="Idotaccent" unicode="&#x130;" horiz-adv-x="252" d="M156 656 L96 656 L96 0 L156 0 L156 656 Z M126 838 C92 838 91 837 91 803 C91 769 92 768 126 768 C160 768 161 769 161 803 C161 836 160 838 126 838 L126 838 Z " />
<glyph glyph-name="dotlessi" unicode="&#x131;" horiz-adv-x="230" d="M144 492 L86 492 L86 0 L144 0 L144 492 Z " />
<glyph glyph-name="IJ" unicode="&#x132;" horiz-adv-x="636" d="M152 656 L92 656 L92 0 L152 0 L152 656 Z M490 656 L490 162 C490 75 460 47 392 47 C363 47 322 52 282 62 L276 14 C314 2 355 -6 396 -6 C505 -6 550 46 550 168 L550 656 L490 656 Z " />
<glyph glyph-name="ij" unicode="&#x133;" horiz-adv-x="463" d="M144 492 L86 492 L86 0 L144 0 L144 492 Z M115 668 C81 668 80 667 80 633 C80 599 81 598 115 598 C149 598 150 599 150 633 C150 666 149 668 115 668 L115 668 Z M379 492 L321 492 L321 0 C321 -78 311 -122 290 -194 L332 -200 C363 -140 379 -72 379 0 L379 492 Z M350 668 C316 668 315 667 315 633 C315 599 316 598 350 598 C384 598 385 599 385 633 C385 666 384 668 350 668 L350 668 Z " />
<glyph glyph-name="Jcircumflex" unicode="&#x134;" horiz-adv-x="384" d="M242 656 L242 162 C242 75 212 47 144 47 C115 47 74 52 34 62 L28 14 C66 2 107 -6 148 -6 C257 -6 302 46 302 168 L302 656 L242 656 Z M406 757 L297 866 L247 866 L138 757 L174 736 L271 825 L273 825 L370 736 L406 757 Z " />
<glyph glyph-name="jcircumflex" unicode="&#x135;" horiz-adv-x="233" d="M149 492 L91 492 L91 0 C91 -78 81 -122 60 -194 L102 -200 C133 -140 149 -72 149 0 L149 492 Z M254 587 L145 696 L95 696 L-14 587 L22 566 L119 655 L121 655 L218 566 L254 587 Z " />
<glyph glyph-name="Kcommaaccent" unicode="&#x136;" horiz-adv-x="556" d="M532 0 L298 336 L516 656 L446 656 L249 360 L144 360 L144 656 L84 656 L84 0 L144 0 L144 306 L248 306 L458 0 L532 0 Z M265 -73 L265 -248 L297 -248 L323 -130 L323 -73 L265 -73 Z " />
<glyph glyph-name="kcommaaccent" unicode="&#x137;" horiz-adv-x="471" d="M450 0 L271 268 L436 492 L369 492 L221 288 L134 288 L134 702 L76 695 L76 0 L134 0 L134 240 L224 240 L383 0 L450 0 Z M222 -73 L222 -248 L254 -248 L280 -130 L280 -73 L222 -73 Z " />
<glyph glyph-name="Lacute" unicode="&#x139;" horiz-adv-x="472" d="M84 656 L84 0 L454 0 L454 54 L144 54 L144 656 L84 656 Z M140 860 L100 721 L138 721 L205 860 L140 860 Z " />
<glyph glyph-name="lacute" unicode="&#x13a;" horiz-adv-x="263" d="M134 702 L76 695 L76 87 C76 13 108 -6 161 -6 C186 -6 203 -2 222 7 L217 44 C203 41 190 39 177 39 C160 39 149 43 142 53 C135 63 134 79 134 107 L134 702 Z M133 906 L93 767 L131 767 L198 906 L133 906 Z " />
<glyph glyph-name="Lcommaaccent" unicode="&#x13b;" horiz-adv-x="472" d="M84 656 L84 0 L454 0 L454 54 L144 54 L144 656 L84 656 Z M240 -73 L240 -248 L272 -248 L298 -130 L298 -73 L240 -73 Z " />
<glyph glyph-name="lcommaaccent" unicode="&#x13c;" horiz-adv-x="263" d="M134 702 L76 695 L76 87 C76 13 108 -6 161 -6 C186 -6 203 -2 222 7 L217 44 C203 41 190 39 177 39 C160 39 149 43 142 53 C135 63 134 79 134 107 L134 702 Z M117 -73 L117 -248 L149 -248 L175 -130 L175 -73 L117 -73 Z " />
<glyph glyph-name="Lcaron" unicode="&#x13d;" horiz-adv-x="472" d="M208 656 L208 481 L240 481 L266 599 L266 656 L208 656 Z M84 656 L84 0 L454 0 L454 54 L144 54 L144 656 L84 656 Z " />
<glyph glyph-name="lcaron" unicode="&#x13e;" horiz-adv-x="263" d="M198 696 L198 521 L230 521 L256 639 L256 696 L198 696 Z M134 702 L76 695 L76 87 C76 13 108 -6 161 -6 C186 -6 203 -2 222 7 L217 44 C203 41 190 39 177 39 C160 39 149 43 142 53 C135 63 134 79 134 107 L134 702 Z " />
<glyph glyph-name="Ldot" unicode="&#x13f;" horiz-adv-x="472" d="M84 656 L84 0 L454 0 L454 54 L144 54 L144 656 L84 656 Z M307 337 C273 337 272 336 272 302 C272 268 273 267 307 267 C341 267 342 268 342 302 C342 335 341 337 307 337 L307 337 Z " />
<glyph glyph-name="ldot" unicode="&#x140;" horiz-adv-x="309" d="M134 702 L76 695 L76 87 C76 13 108 -6 161 -6 C186 -6 203 -2 222 7 L217 44 C203 41 190 39 177 39 C160 39 149 43 142 53 C135 63 134 79 134 107 L134 702 Z M258 337 C224 337 223 336 223 302 C223 268 224 267 258 267 C292 267 293 268 293 302 C293 335 292 337 258 337 L258 337 Z " />
<glyph glyph-name="Lslash" unicode="&#x141;" horiz-adv-x="494" d="M106 656 L106 350 L20 338 L20 296 L106 308 L106 0 L476 0 L476 54 L166 54 L166 317 L323 340 L323 382 L166 359 L166 656 L106 656 Z " />
<glyph glyph-name="lslash" unicode="&#x142;" horiz-adv-x="263" d="M134 702 L76 695 L76 376 L12 367 L12 325 L76 334 L76 87 C76 13 108 -6 161 -6 C186 -6 203 -2 222 7 L217 44 C203 41 190 39 177 39 C160 39 149 43 142 53 C135 63 134 79 134 107 L134 342 L230 356 L230 398 L134 384 L134 702 Z " />
<glyph glyph-name="Nacute" unicode="&#x143;" horiz-adv-x="622" d="M478 656 L478 232 C478 139 482 76 482 76 L480 76 C480 76 454 138 408 216 L150 656 L84 656 L84 0 L144 0 L144 424 C144 516 141 580 141 580 L143 580 C143 580 168 518 214 440 L472 0 L538 0 L538 656 L478 656 Z M339 866 L299 727 L337 727 L404 866 L339 866 Z " />
<glyph glyph-name="nacute" unicode="&#x144;" horiz-adv-x="514" d="M297 501 C207 501 155 456 130 435 L115 492 L76 492 L76 0 L134 0 L134 394 C165 419 225 448 289 448 C358 448 382 417 382 347 L382 0 L440 0 L440 355 C440 454 390 501 297 501 L297 501 Z M286 696 L246 557 L284 557 L351 696 L286 696 Z " />
<glyph glyph-name="Ncommaaccent" unicode="&#x145;" horiz-adv-x="622" d="M478 656 L478 232 C478 139 482 76 482 76 L480 76 C480 76 454 138 408 216 L150 656 L84 656 L84 0 L144 0 L144 424 C144 516 141 580 141 580 L143 580 C143 580 168 518 214 440 L472 0 L538 0 L538 656 L478 656 Z M282 -73 L282 -248 L314 -248 L340 -130 L340 -73 L282 -73 Z " />
<glyph glyph-name="ncommaaccent" unicode="&#x146;" horiz-adv-x="514" d="M297 501 C207 501 155 456 130 435 L115 492 L76 492 L76 0 L134 0 L134 394 C165 419 225 448 289 448 C358 448 382 417 382 347 L382 0 L440 0 L440 355 C440 454 390 501 297 501 L297 501 Z M229 -73 L229 -248 L261 -248 L287 -130 L287 -73 L229 -73 Z " />
<glyph glyph-name="Ncaron" unicode="&#x147;" horiz-adv-x="622" d="M478 656 L478 232 C478 139 482 76 482 76 L480 76 C480 76 454 138 408 216 L150 656 L84 656 L84 0 L144 0 L144 424 C144 516 141 580 141 580 L143 580 C143 580 168 518 214 440 L472 0 L538 0 L538 656 L478 656 Z M409 862 L312 773 L310 773 L213 862 L177 841 L286 732 L336 732 L445 841 L409 862 Z " />
<glyph glyph-name="ncaron" unicode="&#x148;" horiz-adv-x="514" d="M297 501 C207 501 155 456 130 435 L115 492 L76 492 L76 0 L134 0 L134 394 C165 419 225 448 289 448 C358 448 382 417 382 347 L382 0 L440 0 L440 355 C440 454 390 501 297 501 L297 501 Z M356 698 L259 609 L257 609 L160 698 L124 677 L233 568 L283 568 L392 677 L356 698 Z " />
<glyph glyph-name="Omacron" unicode="&#x14c;" horiz-adv-x="600" d="M300 668 C132 668 60 579 60 328 C60 77 134 -12 300 -12 C466 -12 540 77 540 328 C540 579 468 668 300 668 L300 668 Z M300 40 C165 40 126 121 126 328 C126 535 165 616 300 616 C435 616 474 535 474 328 C474 121 435 40 300 40 L300 40 Z M176 828 L176 784 L424 784 L424 828 L176 828 Z " />
<glyph glyph-name="omacron" unicode="&#x14d;" horiz-adv-x="500" d="M250 504 C117 504 52 444 52 246 C52 48 117 -12 250 -12 C383 -12 448 48 448 246 C448 444 383 504 250 504 L250 504 Z M250 35 C137 35 113 94 113 246 C113 398 137 457 250 457 C363 457 387 398 387 246 C387 94 363 35 250 35 L250 35 Z M126 658 L126 614 L374 614 L374 658 L126 658 Z " />
<glyph glyph-name="Obreve" unicode="&#x14e;" horiz-adv-x="600" d="M300 668 C132 668 60 579 60 328 C60 77 134 -12 300 -12 C466 -12 540 77 540 328 C540 579 468 668 300 668 L300 668 Z M300 40 C165 40 126 121 126 328 C126 535 165 616 300 616 C435 616 474 535 474 328 C474 121 435 40 300 40 L300 40 Z M163 854 C166 768 218 739 300 739 C382 739 434 768 437 854 L396 860 C390 807 374 779 300 779 C226 779 210 807 204 860 L163 854 Z " />
<glyph glyph-name="obreve" unicode="&#x14f;" horiz-adv-x="500" d="M250 504 C117 504 52 444 52 246 C52 48 117 -12 250 -12 C383 -12 448 48 448 246 C448 444 383 504 250 504 L250 504 Z M250 35 C137 35 113 94 113 246 C113 398 137 457 250 457 C363 457 387 398 387 246 C387 94 363 35 250 35 L250 35 Z M113 690 C116 604 168 575 250 575 C332 575 384 604 387 690 L346 696 C340 643 324 615 250 615 C176 615 160 643 154 696 L113 690 Z " />
<glyph glyph-name="Ohungarumlaut" unicode="&#x150;" horiz-adv-x="600" d="M300 668 C132 668 60 579 60 328 C60 77 134 -12 300 -12 C466 -12 540 77 540 328 C540 579 468 668 300 668 L300 668 Z M300 40 C165 40 126 121 126 328 C126 535 165 616 300 616 C435 616 474 535 474 328 C474 121 435 40 300 40 L300 40 Z M259 866 L218 727 L256 727 L322 866 L259 866 Z M392 866 L351 727 L389 727 L455 866 L392 866 Z " />
<glyph glyph-name="ohungarumlaut" unicode="&#x151;" horiz-adv-x="500" d="M250 504 C117 504 52 444 52 246 C52 48 117 -12 250 -12 C383 -12 448 48 448 246 C448 444 383 504 250 504 L250 504 Z M250 35 C137 35 113 94 113 246 C113 398 137 457 250 457 C363 457 387 398 387 246 C387 94 363 35 250 35 L250 35 Z M209 696 L168 557 L206 557 L272 696 L209 696 Z M342 696 L301 557 L339 557 L405 696 L342 696 Z " />
<glyph glyph-name="OE" unicode="&#x152;" horiz-adv-x="846" d="M335 656 C181 656 60 624 60 328 C60 32 182 0 336 0 L792 0 L792 54 L478 54 L478 308 L762 308 L762 362 L478 362 L478 602 L786 602 L786 656 L335 656 Z M336 54 C178 54 126 95 126 328 C126 561 177 602 335 602 L418 602 L418 54 L336 54 Z " />
<glyph glyph-name="oe" unicode="&#x153;" horiz-adv-x="811" d="M747 246 C747 447 676 501 566 501 C493 501 441 480 418 409 C395 478 340 504 254 504 C121 504 56 443 56 246 C56 49 121 -12 254 -12 C341 -12 393 13 418 86 C445 12 497 -9 580 -9 C626 -9 669 -3 723 11 L717 54 C670 44 624 39 580 39 C487 39 443 81 443 218 L747 218 L747 246 Z M254 35 C141 35 117 94 117 246 C117 398 141 457 254 457 C367 457 391 398 391 246 C391 94 367 35 254 35 L254 35 Z M443 264 C443 413 482 454 566 454 C650 454 689 413 689 264 L443 264 Z " />
<glyph glyph-name="Racute" unicode="&#x154;" horiz-adv-x="567" d="M144 328 L144 602 L294 602 C408 602 435 557 435 465 C435 373 408 328 294 328 L144 328 Z M452 0 L521 0 L404 228 C386 263 376 274 359 281 C444 294 497 346 497 465 C497 601 439 656 294 656 L84 656 L84 0 L144 0 L144 274 L256 274 C304 274 318 266 337 228 L452 0 Z M309 860 L269 721 L307 721 L374 860 L309 860 Z " />
<glyph glyph-name="racute" unicode="&#x155;" horiz-adv-x="319" d="M282 501 C214 501 154 460 129 428 L111 492 L76 492 L76 0 L134 0 L134 385 C154 409 215 443 282 443 L282 501 Z M201 696 L161 557 L199 557 L266 696 L201 696 Z " />
<glyph glyph-name="Rcommaaccent" unicode="&#x156;" horiz-adv-x="567" d="M144 328 L144 602 L294 602 C408 602 435 557 435 465 C435 373 408 328 294 328 L144 328 Z M452 0 L521 0 L404 228 C386 263 376 274 359 281 C444 294 497 346 497 465 C497 601 439 656 294 656 L84 656 L84 0 L144 0 L144 274 L256 274 C304 274 318 266 337 228 L452 0 Z M262 -73 L262 -248 L294 -248 L320 -130 L320 -73 L262 -73 Z " />
<glyph glyph-name="rcommaaccent" unicode="&#x157;" horiz-adv-x="319" d="M282 501 C214 501 154 460 129 428 L111 492 L76 492 L76 0 L134 0 L134 385 C154 409 215 443 282 443 L282 501 Z M76 -73 L76 -248 L108 -248 L134 -130 L134 -73 L76 -73 Z " />
<glyph glyph-name="Rcaron" unicode="&#x158;" horiz-adv-x="567" d="M144 328 L144 602 L294 602 C408 602 435 557 435 465 C435 373 408 328 294 328 L144 328 Z M452 0 L521 0 L404 228 C386 263 376 274 359 281 C444 294 497 346 497 465 C497 601 439 656 294 656 L84 656 L84 0 L144 0 L144 274 L256 274 C304 274 318 266 337 228 L452 0 Z M379 868 L282 779 L280 779 L183 868 L147 847 L256 738 L306 738 L415 847 L379 868 Z " />
<glyph glyph-name="rcaron" unicode="&#x159;" horiz-adv-x="319" d="M282 501 C214 501 154 460 129 428 L111 492 L76 492 L76 0 L134 0 L134 385 C154 409 215 443 282 443 L282 501 Z M275 698 L178 609 L176 609 L79 698 L43 677 L152 568 L202 568 L311 677 L275 698 Z " />
<glyph glyph-name="Sacute" unicode="&#x15a;" horiz-adv-x="522" d="M218 366 C147 378 119 404 119 489 C119 589 166 612 262 612 C307 612 376 605 428 595 L434 643 C371 657 308 665 262 665 C140 665 58 632 59 486 C60 357 124 321 209 309 L305 296 C370 287 400 256 400 168 C400 89 373 44 262 44 C206 44 147 51 81 63 L75 14 C134 -1 206 -9 262 -9 C432 -9 462 65 462 176 C462 283 422 337 316 352 L218 366 Z M289 860 L249 721 L287 721 L354 860 L289 860 Z " />
<glyph glyph-name="sacute" unicode="&#x15b;" horiz-adv-x="443" d="M109 366 C109 435 139 453 214 453 C259 453 302 449 359 438 L365 481 C314 494 260 501 214 501 C106 501 56 465 56 366 C56 271 98 241 175 229 L259 216 C310 208 332 186 332 125 C332 58 303 39 214 39 C174 39 123 43 72 54 L66 11 C110 -2 176 -9 214 -9 C344 -9 387 30 387 125 C387 220 355 255 266 269 L184 282 C134 290 109 306 109 366 L109 366 Z M248 696 L208 557 L246 557 L313 696 L248 696 Z " />
<glyph glyph-name="Scircumflex" unicode="&#x15c;" horiz-adv-x="522" d="M218 366 C147 378 119 404 119 489 C119 589 166 612 262 612 C307 612 376 605 428 595 L434 643 C371 657 308 665 262 665 C140 665 58 632 59 486 C60 357 124 321 209 309 L305 296 C370 287 400 256 400 168 C400 89 373 44 262 44 C206 44 147 51 81 63 L75 14 C134 -1 206 -9 262 -9 C432 -9 462 65 462 176 C462 283 422 337 316 352 L218 366 Z M395 761 L286 870 L236 870 L127 761 L163 740 L260 829 L262 829 L359 740 L395 761 Z " />
<glyph glyph-name="scircumflex" unicode="&#x15d;" horiz-adv-x="443" d="M109 366 C109 435 139 453 214 453 C259 453 302 449 359 438 L365 481 C314 494 260 501 214 501 C106 501 56 465 56 366 C56 271 98 241 175 229 L259 216 C310 208 332 186 332 125 C332 58 303 39 214 39 C174 39 123 43 72 54 L66 11 C110 -2 176 -9 214 -9 C344 -9 387 30 387 125 C387 220 355 255 266 269 L184 282 C134 290 109 306 109 366 L109 366 Z M353 587 L244 696 L194 696 L85 587 L121 566 L218 655 L220 655 L317 566 L353 587 Z " />
<glyph glyph-name="Scedilla" unicode="&#x15e;" horiz-adv-x="522" d="M218 366 C147 378 119 404 119 489 C119 589 166 612 262 612 C307 612 376 605 428 595 L434 643 C371 657 308 665 262 665 C140 665 58 632 59 486 C60 357 124 321 209 309 L305 296 C370 287 400 256 400 168 C400 89 373 44 262 44 C206 44 147 51 81 63 L75 14 C123 1 180 -6 230 -8 L210 -158 L250 -164 L285 -8 C434 -2 462 70 462 176 C462 283 422 337 316 352 L218 366 Z " />
<glyph glyph-name="scedilla" unicode="&#x15f;" horiz-adv-x="443" d="M109 366 C109 435 139 453 214 453 C259 453 302 449 359 438 L365 481 C314 494 260 501 214 501 C106 501 56 465 56 366 C56 271 98 241 175 229 L259 216 C310 208 332 186 332 125 C332 58 303 39 214 39 C174 39 123 43 72 54 L66 11 C101 0 151 -6 189 -8 L169 -158 L209 -164 L244 -8 C351 -2 387 38 387 125 C387 220 355 255 266 269 L184 282 C134 290 109 306 109 366 L109 366 Z " />
<glyph glyph-name="Scaron" unicode="&#x160;" horiz-adv-x="522" d="M218 366 C147 378 119 404 119 489 C119 589 166 612 262 612 C307 612 376 605 428 595 L434 643 C371 657 308 665 262 665 C140 665 58 632 59 486 C60 357 124 321 209 309 L305 296 C370 287 400 256 400 168 C400 89 373 44 262 44 C206 44 147 51 81 63 L75 14 C134 -1 206 -9 262 -9 C432 -9 462 65 462 176 C462 283 422 337 316 352 L218 366 Z M359 868 L262 779 L260 779 L163 868 L127 847 L236 738 L286 738 L395 847 L359 868 Z " />
<glyph glyph-name="scaron" unicode="&#x161;" horiz-adv-x="443" d="M109 366 C109 435 139 453 214 453 C259 453 302 449 359 438 L365 481 C314 494 260 501 214 501 C106 501 56 465 56 366 C56 271 98 241 175 229 L259 216 C310 208 332 186 332 125 C332 58 303 39 214 39 C174 39 123 43 72 54 L66 11 C110 -2 176 -9 214 -9 C344 -9 387 30 387 125 C387 220 355 255 266 269 L184 282 C134 290 109 306 109 366 L109 366 Z M317 698 L220 609 L218 609 L121 698 L85 677 L194 568 L244 568 L353 677 L317 698 Z " />
<glyph glyph-name="Tcaron" unicode="&#x164;" horiz-adv-x="510" d="M486 656 L24 656 L24 602 L225 602 L225 0 L285 0 L285 602 L486 602 L486 656 Z M353 868 L256 779 L254 779 L157 868 L121 847 L230 738 L280 738 L389 847 L353 868 Z " />
<glyph glyph-name="tcaron" unicode="&#x165;" horiz-adv-x="365" d="M282 696 L282 545 L315 545 L336 644 L336 696 L282 696 Z M170 444 L321 444 L328 492 L170 492 L170 634 L112 625 L112 492 L32 492 L32 444 L112 444 L112 114 C112 27 142 -6 224 -6 C256 -6 297 3 318 13 L313 49 C294 44 259 39 237 39 C207 39 187 49 178 66 C171 79 170 102 170 127 L170 444 Z " />
<glyph glyph-name="Tbar" unicode="&#x166;" horiz-adv-x="510" d="M486 656 L24 656 L24 602 L225 602 L225 390 L73 390 L73 348 L225 348 L225 0 L285 0 L285 348 L437 348 L437 390 L285 390 L285 602 L486 602 L486 656 Z " />
<glyph glyph-name="tbar" unicode="&#x167;" horiz-adv-x="365" d="M170 444 L321 444 L328 492 L170 492 L170 634 L112 625 L112 492 L32 492 L32 444 L112 444 L112 309 L32 309 L32 267 L112 267 L112 114 C112 27 142 -6 224 -6 C256 -6 297 3 318 13 L313 49 C294 44 259 39 237 39 C207 39 187 49 178 66 C171 79 170 102 170 127 L170 267 L307 267 L307 309 L170 309 L170 444 Z " />
<glyph glyph-name="Utilde" unicode="&#x168;" horiz-adv-x="620" d="M538 656 L478 656 L478 216 C478 117 433 45 310 45 C187 45 142 117 142 216 L142 656 L82 656 L82 233 C82 51 178 -9 310 -9 C442 -9 538 51 538 233 L538 656 Z M416 848 C413 827 404 811 395 805 C387 800 372 798 352 807 L279 841 C258 851 233 852 217 846 C194 837 174 820 166 763 L204 758 C207 779 216 795 225 801 C233 806 248 808 268 799 L341 765 C362 755 387 754 403 760 C426 769 446 786 454 843 L416 848 Z " />
<glyph glyph-name="utilde" unicode="&#x169;" horiz-adv-x="514" d="M217 -9 C307 -9 359 36 384 57 L399 0 L438 0 L438 492 L380 492 L380 98 C349 73 289 44 225 44 C156 44 132 75 132 145 L132 492 L74 492 L74 137 C74 38 124 -9 217 -9 L217 -9 Z M364 678 C361 657 352 641 343 635 C335 630 320 628 300 637 L227 671 C206 681 181 682 165 676 C142 667 122 650 114 593 L152 588 C155 609 164 625 173 631 C181 636 196 638 216 629 L289 595 C310 585 335 584 351 590 C374 599 394 616 402 673 L364 678 Z " />
<glyph glyph-name="Umacron" unicode="&#x16a;" horiz-adv-x="620" d="M538 656 L478 656 L478 216 C478 117 433 45 310 45 C187 45 142 117 142 216 L142 656 L82 656 L82 233 C82 51 178 -9 310 -9 C442 -9 538 51 538 233 L538 656 Z M186 828 L186 784 L434 784 L434 828 L186 828 Z " />
<glyph glyph-name="umacron" unicode="&#x16b;" horiz-adv-x="514" d="M217 -9 C307 -9 359 36 384 57 L399 0 L438 0 L438 492 L380 492 L380 98 C349 73 289 44 225 44 C156 44 132 75 132 145 L132 492 L74 492 L74 137 C74 38 124 -9 217 -9 L217 -9 Z M132 658 L132 614 L380 614 L380 658 L132 658 Z " />
<glyph glyph-name="Ubreve" unicode="&#x16c;" horiz-adv-x="620" d="M538 656 L478 656 L478 216 C478 117 433 45 310 45 C187 45 142 117 142 216 L142 656 L82 656 L82 233 C82 51 178 -9 310 -9 C442 -9 538 51 538 233 L538 656 Z M173 860 C176 774 228 745 310 745 C392 745 444 774 447 860 L406 866 C400 813 384 785 310 785 C236 785 220 813 214 866 L173 860 Z " />
<glyph glyph-name="ubreve" unicode="&#x16d;" horiz-adv-x="514" d="M217 -9 C307 -9 359 36 384 57 L399 0 L438 0 L438 492 L380 492 L380 98 C349 73 289 44 225 44 C156 44 132 75 132 145 L132 492 L74 492 L74 137 C74 38 124 -9 217 -9 L217 -9 Z M121 690 C124 604 176 575 258 575 C340 575 392 604 395 690 L354 696 C348 643 332 615 258 615 C184 615 168 643 162 696 L121 690 Z " />
<glyph glyph-name="Uring" unicode="&#x16e;" horiz-adv-x="620" d="M538 656 L478 656 L478 216 C478 117 433 45 310 45 C187 45 142 117 142 216 L142 656 L82 656 L82 233 C82 51 178 -9 310 -9 C442 -9 538 51 538 233 L538 656 Z M310 882 C355 882 362 867 362 818 C362 770 355 756 310 756 C265 756 258 770 258 818 C258 866 265 882 310 882 L310 882 Z M310 913 C243 913 218 887 218 818 C218 746 243 723 310 723 C377 723 402 749 402 818 C402 887 377 913 310 913 L310 913 Z " />
<glyph glyph-name="uring" unicode="&#x16f;" horiz-adv-x="514" d="M217 -9 C307 -9 359 36 384 57 L399 0 L438 0 L438 492 L380 492 L380 98 C349 73 289 44 225 44 C156 44 132 75 132 145 L132 492 L74 492 L74 137 C74 38 124 -9 217 -9 L217 -9 Z M257 712 C302 712 309 697 309 648 C309 600 302 586 257 586 C212 586 205 600 205 648 C205 696 212 712 257 712 L257 712 Z M257 743 C190 743 165 717 165 648 C165 576 190 553 257 553 C324 553 349 579 349 648 C349 717 324 743 257 743 L257 743 Z " />
<glyph glyph-name="Uhungarumlaut" unicode="&#x170;" horiz-adv-x="620" d="M538 656 L478 656 L478 216 C478 117 433 45 310 45 C187 45 142 117 142 216 L142 656 L82 656 L82 233 C82 51 178 -9 310 -9 C442 -9 538 51 538 233 L538 656 Z M269 860 L228 721 L266 721 L332 860 L269 860 Z M402 860 L361 721 L399 721 L465 860 L402 860 Z " />
<glyph glyph-name="uhungarumlaut" unicode="&#x171;" horiz-adv-x="514" d="M217 -9 C307 -9 359 36 384 57 L399 0 L438 0 L438 492 L380 492 L380 98 C349 73 289 44 225 44 C156 44 132 75 132 145 L132 492 L74 492 L74 137 C74 38 124 -9 217 -9 L217 -9 Z M213 696 L172 557 L210 557 L276 696 L213 696 Z M346 696 L305 557 L343 557 L409 696 L346 696 Z " />
<glyph glyph-name="Uogonek" unicode="&#x172;" horiz-adv-x="620" d="M538 656 L478 656 L478 216 C478 117 433 45 310 45 C187 45 142 117 142 216 L142 656 L82 656 L82 233 C82 51 178 -9 310 -9 C329 -9 348 -7 366 -4 L339 -25 C299 -55 276 -82 276 -126 C276 -178 310 -202 359 -202 C379 -202 398 -201 424 -195 L420 -159 C398 -163 383 -164 369 -164 C339 -164 322 -151 322 -123 C322 -99 333 -81 364 -53 L465 36 C510 73 538 135 538 233 L538 656 Z " />
<glyph glyph-name="uogonek" unicode="&#x173;" horiz-adv-x="514" d="M217 -9 C307 -9 359 36 384 57 L397 8 L353 -25 C313 -55 290 -82 290 -126 C290 -178 324 -202 373 -202 C393 -202 412 -201 438 -195 L434 -159 C412 -163 397 -164 383 -164 C353 -164 336 -151 336 -123 C336 -99 347 -81 378 -53 L438 0 L438 492 L380 492 L380 98 C349 73 289 44 225 44 C156 44 132 75 132 145 L132 492 L74 492 L74 137 C74 38 124 -9 217 -9 L217 -9 Z " />
<glyph glyph-name="Wcircumflex" unicode="&#x174;" horiz-adv-x="808" d="M776 656 L713 656 L626 261 C604 161 591 80 591 80 L587 80 C587 80 572 158 543 261 L436 646 L372 646 L265 261 C236 158 221 80 221 80 L217 80 C217 80 204 161 182 261 L95 656 L32 656 L185 0 L247 0 L367 430 C390 513 403 577 403 577 L405 577 C405 577 418 513 441 430 L561 0 L623 0 L776 656 Z M538 757 L429 866 L379 866 L270 757 L306 736 L403 825 L405 825 L502 736 L538 757 Z " />
<glyph glyph-name="wcircumflex" unicode="&#x175;" horiz-adv-x="674" d="M591 492 L508 173 C493 116 487 73 487 73 L483 73 C483 73 472 123 457 174 L364 492 L310 492 L218 176 C203 125 192 72 192 72 L188 72 C188 72 180 120 165 177 L83 492 L25 492 L161 0 L213 0 L308 316 C326 375 336 422 336 422 L338 422 C338 422 348 375 366 316 L461 0 L513 0 L649 492 L591 492 Z M471 587 L362 696 L312 696 L203 587 L239 566 L336 655 L338 655 L435 566 L471 587 Z " />
<glyph glyph-name="Ycircumflex" unicode="&#x176;" horiz-adv-x="548" d="M459 656 L322 405 C293 351 275 313 275 313 L273 313 C273 313 255 351 226 405 L89 656 L20 656 L244 255 L244 0 L304 0 L304 255 L528 656 L459 656 Z M408 757 L299 866 L249 866 L140 757 L176 736 L273 825 L275 825 L372 736 L408 757 Z " />
<glyph glyph-name="ycircumflex" unicode="&#x177;" horiz-adv-x="464" d="M383 492 L267 164 C246 106 234 59 234 59 L230 59 C230 59 218 106 197 164 L81 492 L20 492 L203 0 L185 -51 C151 -147 150 -150 80 -160 L86 -203 C182 -193 195 -178 242 -51 L261 0 L444 492 L383 492 Z M366 587 L257 696 L207 696 L98 587 L134 566 L231 655 L233 655 L330 566 L366 587 Z " />
<glyph glyph-name="Ydieresis" unicode="&#x178;" horiz-adv-x="548" d="M459 656 L322 405 C293 351 275 313 275 313 L273 313 C273 313 255 351 226 405 L89 656 L20 656 L244 255 L244 0 L304 0 L304 255 L528 656 L459 656 Z M194 838 C160 838 159 837 159 803 C159 769 160 768 194 768 C228 768 229 769 229 803 C229 836 228 838 194 838 L194 838 Z M354 838 C320 838 319 837 319 803 C319 769 320 768 354 768 C388 768 389 769 389 803 C389 836 388 838 354 838 L354 838 Z " />
<glyph glyph-name="Zacute" unicode="&#x179;" horiz-adv-x="547" d="M480 656 L64 656 L64 602 L421 602 L56 62 L56 0 L484 0 L484 54 L119 54 L480 592 L480 656 Z M301 866 L261 727 L299 727 L366 866 L301 866 Z " />
<glyph glyph-name="zacute" unicode="&#x17a;" horiz-adv-x="455" d="M114 50 L396 440 L396 492 L57 492 L57 442 L334 442 L51 52 L51 0 L402 0 L402 50 L114 50 Z M257 696 L217 557 L255 557 L322 696 L257 696 Z " />
<glyph glyph-name="Zdotaccent" unicode="&#x17b;" horiz-adv-x="547" d="M480 656 L64 656 L64 602 L421 602 L56 62 L56 0 L484 0 L484 54 L119 54 L480 592 L480 656 Z M273 838 C239 838 238 837 238 803 C238 769 239 768 273 768 C307 768 308 769 308 803 C308 836 307 838 273 838 L273 838 Z " />
<glyph glyph-name="zdotaccent" unicode="&#x17c;" horiz-adv-x="455" d="M114 50 L396 440 L396 492 L57 492 L57 442 L334 442 L51 52 L51 0 L402 0 L402 50 L114 50 Z M229 668 C195 668 194 667 194 633 C194 599 195 598 229 598 C263 598 264 599 264 633 C264 666 263 668 229 668 L229 668 Z " />
<glyph glyph-name="Zcaron" unicode="&#x17d;" horiz-adv-x="547" d="M480 656 L64 656 L64 602 L421 602 L56 62 L56 0 L484 0 L484 54 L119 54 L480 592 L480 656 Z M371 868 L274 779 L272 779 L175 868 L139 847 L248 738 L298 738 L407 847 L371 868 Z " />
<glyph glyph-name="zcaron" unicode="&#x17e;" horiz-adv-x="455" d="M114 50 L396 440 L396 492 L57 492 L57 442 L334 442 L51 52 L51 0 L402 0 L402 50 L114 50 Z M326 698 L229 609 L227 609 L130 698 L94 677 L203 568 L253 568 L362 677 L326 698 Z " />
<glyph glyph-name="florin" unicode="&#x192;" horiz-adv-x="475" d="M142 -103 C136 -146 125 -158 79 -158 C57 -158 14 -152 14 -152 L9 -190 C38 -199 67 -203 98 -203 C160 -203 189 -180 200 -104 L278 444 L388 444 L395 492 L284 492 L300 605 C306 648 315 660 361 660 C383 660 426 654 426 654 L431 692 C402 701 373 705 342 705 C280 705 253 682 242 606 L226 492 L142 492 L142 444 L220 444 L142 -103 Z " />
<glyph glyph-name="Scommaaccent" unicode="&#x218;" horiz-adv-x="522" d="M218 366 C147 378 119 404 119 489 C119 589 166 612 262 612 C307 612 376 605 428 595 L434 643 C371 657 308 665 262 665 C140 665 58 632 59 486 C60 357 124 321 209 309 L305 296 C370 287 400 256 400 168 C400 89 373 44 262 44 C206 44 147 51 81 63 L75 14 C134 -1 206 -9 262 -9 C432 -9 462 65 462 176 C462 283 422 337 316 352 L218 366 Z M232 -73 L232 -248 L264 -248 L290 -130 L290 -73 L232 -73 Z " />
<glyph glyph-name="scommaaccent" unicode="&#x219;" horiz-adv-x="443" d="M109 366 C109 435 139 453 214 453 C259 453 302 449 359 438 L365 481 C314 494 260 501 214 501 C106 501 56 465 56 366 C56 271 98 241 175 229 L259 216 C310 208 332 186 332 125 C332 58 303 39 214 39 C174 39 123 43 72 54 L66 11 C110 -2 176 -9 214 -9 C344 -9 387 30 387 125 C387 220 355 255 266 269 L184 282 C134 290 109 306 109 366 L109 366 Z M191 -73 L191 -248 L223 -248 L249 -130 L249 -73 L191 -73 Z " />
<glyph glyph-name="Tcommaaccent" unicode="&#x21a;" horiz-adv-x="510" d="M486 656 L24 656 L24 602 L225 602 L225 0 L285 0 L285 602 L486 602 L486 656 Z M226 -73 L226 -248 L258 -248 L284 -130 L284 -73 L226 -73 Z " />
<glyph glyph-name="tcommaaccent" unicode="&#x21b;" horiz-adv-x="365" d="M170 444 L321 444 L328 492 L170 492 L170 634 L112 625 L112 492 L32 492 L32 444 L112 444 L112 114 C112 27 142 -6 224 -6 C256 -6 297 3 318 13 L313 49 C294 44 259 39 237 39 C207 39 187 49 178 66 C171 79 170 102 170 127 L170 444 Z M180 -73 L180 -248 L212 -248 L238 -130 L238 -73 L180 -73 Z " />
<glyph glyph-name="dotlessj" unicode="&#x237;" horiz-adv-x="233" d="M149 492 L91 492 L91 0 C91 -78 81 -122 60 -194 L102 -200 C133 -140 149 -72 149 0 L149 492 Z " />
<glyph glyph-name="circumflex" unicode="&#x2c6;" horiz-adv-x="412" d="M340 587 L231 696 L181 696 L72 587 L108 566 L205 655 L207 655 L304 566 L340 587 Z " />
<glyph glyph-name="caron" unicode="&#x2c7;" horiz-adv-x="412" d="M304 698 L207 609 L205 609 L108 698 L72 677 L181 568 L231 568 L340 677 L304 698 Z " />
<glyph glyph-name="breve" unicode="&#x2d8;" horiz-adv-x="418" d="M72 690 C75 604 127 575 209 575 C291 575 343 604 346 690 L305 696 C299 643 283 615 209 615 C135 615 119 643 113 696 L72 690 Z " />
<glyph glyph-name="dotaccent" unicode="&#x2d9;" horiz-adv-x="212" d="M106 668 C72 668 71 667 71 633 C71 599 72 598 106 598 C140 598 141 599 141 633 C141 666 140 668 106 668 L106 668 Z " />
<glyph glyph-name="ring" unicode="&#x2da;" horiz-adv-x="328" d="M164 712 C209 712 216 697 216 648 C216 600 209 586 164 586 C119 586 112 600 112 648 C112 696 119 712 164 712 L164 712 Z M164 743 C97 743 72 717 72 648 C72 576 97 553 164 553 C231 553 256 579 256 648 C256 717 231 743 164 743 L164 743 Z " />
<glyph glyph-name="ogonek" unicode="&#x2db;" horiz-adv-x="292" d="M220 14 L187 14 L135 -25 C95 -55 72 -82 72 -126 C72 -178 106 -202 155 -202 C175 -202 194 -201 220 -195 L216 -159 C194 -163 179 -164 165 -164 C135 -164 118 -151 118 -123 C118 -99 129 -81 160 -53 L220 0 L220 14 Z " />
<glyph glyph-name="tilde" unicode="&#x2dc;" horiz-adv-x="432" d="M322 678 C319 657 310 641 301 635 C293 630 278 628 258 637 L185 671 C164 681 139 682 123 676 C100 667 80 650 72 593 L110 588 C113 609 122 625 131 631 C139 636 154 638 174 629 L247 595 C268 585 293 584 309 590 C332 599 352 616 360 673 L322 678 Z " />
<glyph glyph-name="hungarumlaut" unicode="&#x2dd;" horiz-adv-x="381" d="M113 696 L72 557 L110 557 L176 696 L113 696 Z M246 696 L205 557 L243 557 L309 696 L246 696 Z " />
<glyph glyph-name="Delta" unicode="&#x394;" horiz-adv-x="688" d="M646 0 L646 44 L380 656 L308 656 L42 44 L42 0 L646 0 Z M282 462 C319 547 342 610 342 610 L346 610 C346 610 369 547 406 462 L525 191 C560 111 588 52 588 52 L588 50 L100 50 L100 52 C100 52 128 111 163 191 L282 462 Z " />
<glyph glyph-name="Omega" unicode="&#x3a9;" horiz-adv-x="682" d="M586 0 L586 49 L465 49 L465 51 C571 181 616 264 616 380 C616 569 535 668 341 668 C147 668 66 569 66 380 C66 264 112 181 218 51 L218 49 L96 49 L96 0 L281 0 L281 49 C164 194 124 260 124 380 C124 502 152 619 341 619 C530 619 558 502 558 380 C558 260 519 194 402 49 L402 0 L586 0 Z " />
<glyph glyph-name="pi" unicode="&#x3c0;" horiz-adv-x="618" d="M571 444 L578 492 L22 492 L22 444 L131 444 L131 0 L189 0 L189 444 L404 444 L404 85 C404 11 441 -6 493 -6 C515 -6 539 -2 558 7 L553 44 C539 41 524 39 511 39 C494 39 480 42 472 52 C464 63 462 75 462 107 L462 444 L571 444 Z " />
<glyph glyph-name="endash" unicode="&#x2013;" horiz-adv-x="445" d="M50 300 L50 248 L395 248 L395 300 L50 300 Z " />
<glyph glyph-name="emdash" unicode="&#x2014;" horiz-adv-x="890" d="M50 300 L50 248 L840 248 L840 300 L50 300 Z " />
<glyph glyph-name="quoteleft" unicode="&#x2018;" horiz-adv-x="192" d="M96 503 C134 503 136 506 136 546 C136 586 134 589 96 589 C97 627 110 660 136 688 L115 702 C91 680 77 658 69 636 C62 617 56 590 56 546 C56 506 58 503 96 503 L96 503 Z " />
<glyph glyph-name="quoteright" unicode="&#x2019;" horiz-adv-x="192" d="M96 700 C58 700 56 697 56 657 C56 617 58 614 96 614 C95 576 82 543 56 515 L77 501 C101 523 115 545 123 567 C130 586 136 613 136 657 C136 697 134 700 96 700 L96 700 Z " />
<glyph glyph-name="quotesinglbase" unicode="&#x201a;" horiz-adv-x="192" d="M96 82 C58 82 56 79 56 39 C56 -1 58 -4 96 -4 C95 -42 82 -75 56 -103 L77 -117 C101 -95 115 -73 123 -51 C130 -32 136 -5 136 39 C136 79 134 82 96 82 L96 82 Z " />
<glyph glyph-name="quotedblleft" unicode="&#x201c;" horiz-adv-x="352" d="M96 503 C134 503 136 506 136 546 C136 586 134 589 96 589 C97 627 110 660 136 688 L115 702 C91 680 77 658 69 636 C62 617 56 590 56 546 C56 506 58 503 96 503 L96 503 Z M256 503 C294 503 296 506 296 546 C296 586 294 589 256 589 C257 627 270 660 296 688 L275 702 C251 680 237 658 229 636 C222 617 216 590 216 546 C216 506 218 503 256 503 L256 503 Z " />
<glyph glyph-name="quotedblright" unicode="&#x201d;" horiz-adv-x="351" d="M96 700 C58 700 56 697 56 657 C56 617 58 614 96 614 C95 576 82 543 56 515 L77 501 C101 523 115 545 123 567 C130 586 136 613 136 657 C136 697 134 700 96 700 L96 700 Z M255 700 C217 700 215 697 215 657 C215 617 217 614 255 614 C254 576 241 543 215 515 L236 501 C260 523 274 545 282 567 C289 586 295 613 295 657 C295 697 293 700 255 700 L255 700 Z " />
<glyph glyph-name="quotedblbase" unicode="&#x201e;" horiz-adv-x="353" d="M96 82 C58 82 56 79 56 39 C56 -1 58 -4 96 -4 C95 -42 82 -75 56 -103 L77 -117 C101 -95 115 -73 123 -51 C130 -32 136 -5 136 39 C136 79 134 82 96 82 L96 82 Z M257 82 C219 82 217 79 217 39 C217 -1 219 -4 257 -4 C256 -42 243 -75 217 -103 L238 -117 C262 -95 276 -73 284 -51 C291 -32 297 -5 297 39 C297 79 295 82 257 82 L257 82 Z " />
<glyph glyph-name="dagger" unicode="&#x2020;" horiz-adv-x="494" d="M218 350 L224 -96 L270 -96 L276 350 L270 446 L366 440 L424 440 L424 494 L366 494 L270 488 L276 586 L276 656 L218 656 L218 586 L224 488 L128 494 L70 494 L70 440 L128 440 L224 446 L218 350 Z " />
<glyph glyph-name="daggerdbl" unicode="&#x2021;" horiz-adv-x="494" d="M218 280 L224 114 L128 120 L70 120 L70 66 L128 66 L224 72 L218 -26 L218 -96 L276 -96 L276 -26 L270 72 L366 66 L424 66 L424 120 L366 120 L270 114 L276 280 L270 446 L366 440 L424 440 L424 494 L366 494 L270 488 L276 586 L276 656 L218 656 L218 586 L224 488 L128 494 L70 494 L70 440 L128 440 L224 446 L218 280 Z " />
<glyph glyph-name="bullet" unicode="&#x2022;" horiz-adv-x="386" d="M193 371 C127 371 124 368 124 302 C124 236 127 233 193 233 C259 233 262 236 262 302 C262 368 259 371 193 371 L193 371 Z " />
<glyph glyph-name="ellipsis" unicode="&#x2026;" horiz-adv-x="680" d="M121 83 C81 83 78 80 78 40 C78 0 81 -3 121 -3 C161 -3 164 0 164 40 C164 80 161 83 121 83 L121 83 Z M340 83 C300 83 297 80 297 40 C297 0 300 -3 340 -3 C380 -3 383 0 383 40 C383 80 380 83 340 83 L340 83 Z M559 83 C519 83 516 80 516 40 C516 0 519 -3 559 -3 C599 -3 602 0 602 40 C602 80 599 83 559 83 L559 83 Z " />
<glyph glyph-name="perthousand" unicode="&#x2030;" horiz-adv-x="1174" d="M189 622 C256 622 276 590 276 472 C276 354 256 322 189 322 C122 322 102 353 102 472 C102 590 122 622 189 622 L189 622 Z M189 662 C89 662 52 609 52 472 C52 336 89 282 189 282 C289 282 326 336 326 472 C326 609 289 662 189 662 L189 662 Z M639 334 C706 334 726 302 726 184 C726 66 706 34 639 34 C572 34 552 65 552 184 C552 302 572 334 639 334 L639 334 Z M639 374 C539 374 502 321 502 184 C502 48 539 -6 639 -6 C739 -6 776 48 776 184 C776 321 739 374 639 374 L639 374 Z M985 334 C1052 334 1072 302 1072 184 C1072 66 1052 34 985 34 C918 34 898 65 898 184 C898 302 918 334 985 334 L985 334 Z M985 374 C885 374 848 321 848 184 C848 48 885 -6 985 -6 C1085 -6 1122 48 1122 184 C1122 321 1085 374 985 374 L985 374 Z M252 0 L627 656 L576 656 L200 0 L252 0 Z " />
<glyph glyph-name="guilsinglleft" unicode="&#x2039;" horiz-adv-x="286" d="M166 82 L210 89 L132 274 L210 459 L166 466 L70 274 L166 82 Z " />
<glyph glyph-name="guilsinglright" unicode="&#x203a;" horiz-adv-x="286" d="M216 274 L120 466 L76 459 L154 274 L76 89 L120 82 L216 274 Z " />
<glyph glyph-name="fraction" unicode="&#x2044;" horiz-adv-x="435" d="M56 0 L431 656 L380 656 L4 0 L56 0 Z " />
<glyph glyph-name="Euro" unicode="&#x20ac;" horiz-adv-x="586" d="M360 45 C245 45 196 100 183 236 L390 236 L396 280 L180 280 L180 376 L409 376 L416 420 L183 420 C196 555 245 611 360 611 C414 611 465 604 518 593 L524 641 C468 656 414 664 360 664 C211 664 135 599 118 420 L38 420 L32 376 L115 376 C114 360 114 345 114 328 C114 311 114 295 115 280 L37 280 L32 236 L118 236 C135 56 211 -8 360 -8 C414 -8 468 0 524 15 L518 63 C465 52 414 45 360 45 L360 45 Z " />
<glyph glyph-name="trademark" unicode="&#x2122;" horiz-adv-x="711" d="M269 656 L34 656 L34 614 L128 614 L128 328 L174 328 L174 614 L269 614 L269 656 Z M491 461 L489 461 L398 656 L337 656 L337 328 L382 328 L382 532 C382 566 381 602 381 602 L383 602 C383 602 395 571 410 539 L472 409 L508 409 L570 539 C585 571 597 602 597 602 L599 602 C599 602 598 566 598 532 L598 328 L643 328 L643 656 L582 656 L491 461 Z " />
<glyph glyph-name="uni2160" unicode="&#x2160;" horiz-adv-x="412" d="M46 0 L366 0 L366 54 L236 54 L236 602 L362 602 L362 656 L50 656 L50 602 L176 602 L176 54 L46 54 L46 0 Z " />
<glyph glyph-name="uni2161" unicode="&#x2161;" horiz-adv-x="732" d="M46 0 L686 0 L686 54 L556 54 L556 602 L682 602 L682 656 L50 656 L50 602 L176 602 L176 54 L46 54 L46 0 Z M366 54 L236 54 L236 602 L496 602 L496 54 L366 54 Z " />
<glyph glyph-name="uni2162" unicode="&#x2162;" horiz-adv-x="1052" d="M46 0 L1006 0 L1006 54 L876 54 L876 602 L1002 602 L1002 656 L50 656 L50 602 L176 602 L176 54 L46 54 L46 0 Z M236 54 L236 602 L496 602 L496 54 L236 54 Z M686 54 L556 54 L556 602 L816 602 L816 54 L686 54 Z " />
<glyph glyph-name="uni2163" unicode="&#x2163;" horiz-adv-x="932" d="M46 0 L366 0 L366 54 L236 54 L236 602 L412 602 L616 0 L686 0 L908 656 L843 656 L691 197 C669 131 653 65 653 65 L649 65 C649 65 633 131 611 197 L459 656 L50 656 L50 602 L176 602 L176 54 L46 54 L46 0 Z " />
<glyph glyph-name="uni2164" unicode="&#x2164;" horiz-adv-x="562" d="M316 0 L538 656 L473 656 L321 197 C299 131 283 65 283 65 L279 65 C279 65 263 131 241 197 L89 656 L24 656 L246 0 L316 0 Z " />
<glyph glyph-name="uni2165" unicode="&#x2165;" horiz-adv-x="932" d="M316 0 L519 602 L696 602 L696 54 L566 54 L566 0 L886 0 L886 54 L756 54 L756 602 L882 602 L882 656 L473 656 L321 197 C299 131 283 65 283 65 L279 65 C279 65 263 131 241 197 L89 656 L24 656 L246 0 L316 0 Z " />
<glyph glyph-name="uni2166" unicode="&#x2166;" horiz-adv-x="1252" d="M316 0 L519 602 L696 602 L696 54 L566 54 L566 0 L1206 0 L1206 54 L1076 54 L1076 602 L1202 602 L1202 656 L473 656 L321 197 C299 131 283 65 283 65 L279 65 C279 65 263 131 241 197 L89 656 L24 656 L246 0 L316 0 Z M1016 54 L756 54 L756 602 L1016 602 L1016 54 Z " />
<glyph glyph-name="uni2167" unicode="&#x2167;" horiz-adv-x="1572" d="M316 0 L519 602 L696 602 L696 54 L566 54 L566 0 L1526 0 L1526 54 L1396 54 L1396 602 L1522 602 L1522 656 L473 656 L321 197 C299 131 283 65 283 65 L279 65 C279 65 263 131 241 197 L89 656 L24 656 L246 0 L316 0 Z M1076 54 L1076 602 L1336 602 L1336 54 L1076 54 Z M1016 54 L756 54 L756 602 L1016 602 L1016 54 Z " />
<glyph glyph-name="uni2168" unicode="&#x2168;" horiz-adv-x="932" d="M46 0 L479 0 L653 280 L827 0 L898 0 L692 330 L890 656 L823 656 L653 376 L483 656 L50 656 L50 602 L176 602 L176 54 L46 54 L46 0 Z M614 330 L441 54 L236 54 L236 602 L449 602 L614 330 Z " />
<glyph glyph-name="uni2169" unicode="&#x2169;" horiz-adv-x="558" d="M524 0 L318 330 L516 656 L449 656 L279 376 L109 656 L42 656 L240 330 L34 0 L105 0 L279 280 L453 0 L524 0 Z " />
<glyph glyph-name="uni216A" unicode="&#x216a;" horiz-adv-x="932" d="M886 54 L756 54 L756 602 L882 602 L882 656 L449 656 L279 376 L109 656 L42 656 L240 330 L34 0 L105 0 L279 280 L453 0 L886 0 L886 54 Z M696 602 L696 54 L490 54 L318 330 L483 602 L696 602 Z " />
<glyph glyph-name="uni216B" unicode="&#x216b;" horiz-adv-x="1252" d="M453 0 L1206 0 L1206 54 L1076 54 L1076 602 L1202 602 L1202 656 L449 656 L279 376 L109 656 L42 656 L240 330 L34 0 L105 0 L279 280 L453 0 Z M696 602 L696 54 L490 54 L318 330 L483 602 L696 602 Z M1016 54 L756 54 L756 602 L1016 602 L1016 54 Z " />
<glyph glyph-name="uni216C" unicode="&#x216c;" horiz-adv-x="472" d="M84 656 L84 0 L454 0 L454 54 L144 54 L144 656 L84 656 Z " />
<glyph glyph-name="uni216D" unicode="&#x216d;" horiz-adv-x="531" d="M305 45 C167 45 126 125 126 328 C126 531 167 611 305 611 C359 611 410 604 463 593 L469 641 C413 656 359 664 305 664 C133 664 60 578 60 328 C60 78 133 -8 305 -8 C359 -8 413 0 469 15 L463 63 C410 52 359 45 305 45 L305 45 Z " />
<glyph glyph-name="uni216E" unicode="&#x216e;" horiz-adv-x="592" d="M84 656 L84 0 L256 0 C410 0 532 32 532 328 C532 624 411 656 257 656 L84 656 Z M144 54 L144 602 L257 602 C415 602 466 559 466 328 C466 97 414 54 256 54 L144 54 Z " />
<glyph glyph-name="uni216F" unicode="&#x216f;" horiz-adv-x="740" d="M371 237 L369 237 L167 656 L84 656 L84 0 L144 0 L144 430 C144 534 141 583 141 583 L145 583 C145 583 162 536 206 447 L341 175 L399 175 L534 447 C578 536 595 583 595 583 L599 583 C599 583 596 534 596 430 L596 0 L656 0 L656 656 L573 656 L371 237 Z " />
<glyph glyph-name="arrowleft" unicode="&#x2190;" horiz-adv-x="712" d="M684 304 L684 352 L111 352 L111 354 L379 622 L345 656 L28 339 L28 317 L345 0 L379 34 L111 302 L111 304 L684 304 Z " />
<glyph glyph-name="arrowup" unicode="&#x2191;" horiz-adv-x="712" d="M332 0 L380 0 L380 573 L382 573 L650 305 L684 339 L367 656 L345 656 L28 339 L62 305 L330 573 L332 573 L332 0 Z " />
<glyph glyph-name="arrowright" unicode="&#x2192;" horiz-adv-x="712" d="M28 352 L28 304 L601 304 L601 302 L333 34 L367 0 L684 317 L684 339 L367 656 L333 622 L601 354 L601 352 L28 352 Z " />
<glyph glyph-name="arrowdown" unicode="&#x2193;" horiz-adv-x="712" d="M380 656 L332 656 L332 83 L330 83 L62 351 L28 317 L345 0 L367 0 L684 317 L650 351 L382 83 L380 83 L380 656 Z " />
<glyph glyph-name="uni2196" unicode="&#x2196;" horiz-adv-x="712" d="M566 79 L600 113 L195 518 L196 520 L575 520 L575 568 L127 568 L111 552 L111 104 L159 104 L159 483 L161 484 L566 79 Z " />
<glyph glyph-name="uni2197" unicode="&#x2197;" horiz-adv-x="712" d="M111 113 L145 79 L550 484 L552 483 L552 104 L600 104 L600 552 L584 568 L136 568 L136 520 L515 520 L516 518 L111 113 Z " />
<glyph glyph-name="uni2198" unicode="&#x2198;" horiz-adv-x="712" d="M145 577 L111 543 L516 138 L515 136 L136 136 L136 88 L584 88 L600 104 L600 552 L552 552 L552 173 L550 172 L145 577 Z " />
<glyph glyph-name="uni2199" unicode="&#x2199;" horiz-adv-x="712" d="M600 543 L566 577 L161 172 L159 173 L159 552 L111 552 L111 104 L127 88 L575 88 L575 136 L196 136 L195 138 L600 543 Z " />
<glyph glyph-name="partialdiff" unicode="&#x2202;" horiz-adv-x="480" d="M434 246 C434 396 419 573 324 700 L282 692 C324 614 351 534 361 442 C323 478 266 501 216 501 C113 501 42 425 42 246 C42 36 129 -12 238 -12 C347 -12 434 36 434 246 L434 246 Z M365 396 C370 352 372 303 372 246 C372 79 328 35 238 35 C148 35 104 79 104 246 C104 384 142 448 223 448 C281 448 323 426 365 396 L365 396 Z " />
<glyph glyph-name="product" unicode="&#x220f;" horiz-adv-x="730" d="M553 0 L553 606 L668 606 L668 656 L62 656 L62 606 L177 606 L177 0 L235 0 L235 606 L495 606 L495 0 L553 0 Z " />
<glyph glyph-name="summation" unicode="&#x2211;" horiz-adv-x="527" d="M120 50 L120 52 L357 320 L357 348 L123 604 L123 606 L453 606 L453 656 L54 656 L54 601 L295 336 L295 332 L50 55 L50 0 L465 0 L465 50 L120 50 Z " />
<glyph glyph-name="minus" unicode="&#x2212;" horiz-adv-x="540" d="M72 300 L72 248 L468 248 L468 300 L72 300 Z " />
<glyph glyph-name="radical" unicode="&#x221a;" horiz-adv-x="693" d="M412 187 C380 109 357 45 357 45 L353 45 C353 45 330 109 298 187 L174 492 L27 492 L20 442 L136 442 L317 0 L393 0 L661 656 L603 656 L412 187 Z " />
<glyph glyph-name="infinity" unicode="&#x221e;" horiz-adv-x="796" d="M396 333 L357 376 C322 415 285 446 216 446 C120 446 74 402 74 296 C74 190 120 146 216 146 C285 146 322 178 357 217 L396 260 L398 260 L437 217 C472 178 510 146 579 146 C675 146 722 190 722 296 C722 402 675 446 579 446 C510 446 472 415 437 376 L398 333 L396 333 Z M579 406 C643 406 676 380 676 296 C676 212 643 186 579 186 C531 186 504 206 465 249 L423 295 L423 297 L465 343 C504 386 531 406 579 406 L579 406 Z M372 297 L372 295 L330 249 C291 206 264 186 216 186 C152 186 120 212 120 296 C120 380 152 406 216 406 C264 406 291 386 330 343 L372 297 Z " />
<glyph glyph-name="integral" unicode="&#x222b;" horiz-adv-x="364" d="M153 -103 C153 -144 131 -158 92 -158 C66 -158 27 -152 27 -152 L22 -190 C22 -190 63 -203 111 -203 C181 -203 211 -167 211 -104 L211 605 C211 646 233 660 272 660 C298 660 337 654 337 654 L342 692 C342 692 301 705 253 705 C183 705 153 669 153 606 L153 -103 Z " />
<glyph glyph-name="approxequal" unicode="&#x2248;" horiz-adv-x="540" d="M168 411 C110 411 62 380 62 380 L69 334 C69 334 120 360 168 360 C230 360 298 317 372 317 C430 317 478 348 478 348 L471 394 C471 394 420 368 372 368 C310 368 242 411 168 411 L168 411 Z M168 233 C110 233 62 202 62 202 L69 156 C69 156 120 182 168 182 C230 182 298 139 372 139 C430 139 478 170 478 170 L471 216 C471 216 420 190 372 190 C310 190 242 233 168 233 L168 233 Z " />
<glyph glyph-name="notequal" unicode="&#x2260;" horiz-adv-x="540" d="M72 395 L72 343 L286 343 L208 207 L72 207 L72 155 L178 155 L123 58 L169 58 L224 155 L468 155 L468 207 L254 207 L332 343 L468 343 L468 395 L361 395 L417 492 L371 492 L315 395 L72 395 Z " />
<glyph glyph-name="lessequal" unicode="&#x2264;" horiz-adv-x="540" d="M56 244 L56 197 L460 63 L460 111 L56 244 Z M460 173 L460 223 L122 328 L122 330 L460 435 L460 485 L56 351 L56 307 L460 173 Z " />
<glyph glyph-name="greaterequal" unicode="&#x2265;" horiz-adv-x="540" d="M80 111 L80 63 L484 197 L484 244 L80 111 Z M484 307 L484 351 L80 485 L80 435 L418 330 L418 328 L80 223 L80 173 L484 307 Z " />
<glyph glyph-name="squaremultiply" unicode="&#x22a0;" horiz-adv-x="824" d="M84 0 L740 0 L740 656 L84 656 L84 0 Z M144 602 L680 602 L680 54 L144 54 L144 602 Z M412 365 L257 520 L220 483 L375 328 L220 173 L257 136 L412 291 L567 136 L604 173 L449 328 L604 483 L567 520 L412 365 Z " />
<glyph glyph-name="blacksquare" unicode="&#x25a0;" horiz-adv-x="824" d="M84 0 L740 0 L740 656 L84 656 L84 0 Z " />
<glyph glyph-name="whitesquare" unicode="&#x25a1;" horiz-adv-x="824" d="M84 0 L740 0 L740 656 L84 656 L84 0 Z M144 602 L680 602 L680 54 L144 54 L144 602 Z " />
<glyph glyph-name="blacksmallsquare" unicode="&#x25aa;" horiz-adv-x="644" d="M76 0 L568 0 L568 492 L76 492 L76 0 Z " />
<glyph glyph-name="whitesmallsquare" unicode="&#x25ab;" horiz-adv-x="644" d="M76 0 L568 0 L568 492 L76 492 L76 0 Z M134 440 L512 440 L512 52 L134 52 L134 440 Z " />
<glyph glyph-name="lozenge" unicode="&#x25ca;" horiz-adv-x="664" d="M626 310 L626 346 L352 696 L312 696 L38 346 L38 310 L312 -40 L352 -40 L626 310 Z M331 636 L333 636 L569 329 L569 327 L333 20 L331 20 L95 327 L95 329 L331 636 Z " />
<glyph glyph-name="H18533" unicode="&#x25cf;" horiz-adv-x="804" d="M62 328 C62 140 214 -12 402 -12 C590 -12 742 140 742 328 C742 516 590 668 402 668 C214 668 62 516 62 328 L62 328 Z " />
<glyph glyph-name="ballotboxwithx" unicode="&#x2612;" horiz-adv-x="644" d="M323 283 L227 379 L190 342 L286 246 L190 150 L227 113 L323 209 L419 113 L456 150 L360 246 L456 342 L419 379 L323 283 Z M76 0 L568 0 L568 492 L76 492 L76 0 Z M134 440 L512 440 L512 52 L134 52 L134 440 Z " />
<glyph glyph-name="zero.LT" unicode="&#xe53f;" horiz-adv-x="580" d="M66 328 C66 81 126 -12 290 -12 C454 -12 514 81 514 328 C514 575 454 668 290 668 C126 668 66 575 66 328 L66 328 Z M290 39 C159 39 130 114 130 328 C130 542 159 617 290 617 C421 617 450 542 450 328 C450 114 421 39 290 39 L290 39 Z " />
<glyph glyph-name="five.OP" unicode="&#xe540;" horiz-adv-x="510" d="M142 463 L419 463 L425 515 L85 515 L85 146 L141 146 C160 192 193 211 261 211 C339 211 389 188 389 72 C389 -44 342 -67 249 -67 C189 -67 141 -60 86 -50 L80 -97 C152 -113 194 -119 259 -119 C394 -119 449 -56 449 72 C449 196 397 263 274 263 C197 263 158 237 144 212 L142 212 L142 463 Z " />
<glyph glyph-name="one.LT" unicode="&#xe541;" horiz-adv-x="580" d="M100 0 L488 0 L488 54 L323 54 L323 662 L81 633 L87 593 L265 593 L265 54 L100 54 L100 0 Z " />
<glyph glyph-name="two.LT" unicode="&#xe542;" horiz-adv-x="580" d="M155 54 C155 189 167 215 291 290 C461 393 477 427 477 510 C477 630 408 665 282 665 C231 665 166 658 104 641 L111 592 C176 606 230 613 282 613 C383 613 418 585 418 510 C418 445 408 426 261 337 C115 249 97 204 97 56 L97 0 L468 0 L468 54 L155 54 Z " />
<glyph glyph-name="three.LT" unicode="&#xe543;" horiz-adv-x="580" d="M470 488 C470 614 416 665 274 665 C223 665 145 656 95 641 L101 593 C155 605 224 613 274 613 C377 613 411 580 411 487 C411 394 377 361 274 361 L199 361 L199 307 L274 307 C393 307 421 269 421 175 C421 81 393 43 274 43 C220 43 158 49 97 62 L91 14 C148 -2 223 -9 274 -9 C425 -9 482 37 482 176 C482 277 453 316 379 335 L379 337 C442 357 470 399 470 488 L470 488 Z " />
<glyph glyph-name="four.LT" unicode="&#xe544;" horiz-adv-x="580" d="M369 387 L369 207 L112 207 L270 654 L213 662 L54 212 L54 155 L369 155 L369 0 L427 0 L427 155 L534 155 L534 207 L427 207 L427 387 L369 387 Z " />
<glyph glyph-name="five.LT" unicode="&#xe545;" horiz-adv-x="580" d="M155 602 L447 602 L454 656 L100 656 L100 279 L161 279 C179 322 215 347 281 347 C378 347 422 310 422 195 C422 80 378 43 281 43 C217 43 164 49 98 63 L92 15 C155 -2 207 -9 294 -9 C429 -9 483 63 483 195 C483 327 429 399 294 399 C222 399 177 374 157 341 L155 341 L155 602 Z " />
<glyph glyph-name="six.LT" unicode="&#xe546;" horiz-adv-x="580" d="M306 397 C240 397 192 380 142 345 C142 567 190 615 302 615 C351 615 414 606 460 595 L467 642 C420 657 355 668 302 668 C152 668 78 592 78 328 C78 64 149 -12 299 -12 C428 -12 499 39 499 193 C499 341 432 397 306 397 L306 397 Z M299 347 C400 347 438 305 438 193 C438 80 402 40 299 40 C185 40 142 98 142 297 C182 330 240 347 299 347 L299 347 Z " />
<glyph glyph-name="seven.LT" unicode="&#xe547;" horiz-adv-x="580" d="M68 519 L123 526 L123 604 L435 604 L214 0 L276 0 L493 599 L493 656 L68 656 L68 519 Z " />
<glyph glyph-name="eight.LT" unicode="&#xe548;" horiz-adv-x="580" d="M421 336 C468 379 495 417 495 486 C495 626 411 668 290 668 C169 668 86 626 86 486 C86 400 117 365 156 340 C95 296 68 249 68 178 C68 21 167 -12 290 -12 C413 -12 512 19 512 178 C512 276 470 317 421 336 L421 336 Z M290 618 C393 618 434 583 434 487 C434 417 415 388 368 351 L254 368 C196 376 146 401 146 487 C146 583 188 618 290 618 L290 618 Z M290 38 C181 38 130 73 130 177 C130 232 153 275 208 322 L317 305 C417 289 450 262 450 177 C450 73 399 38 290 38 L290 38 Z " />
<glyph glyph-name="nine.LT" unicode="&#xe549;" horiz-adv-x="580" d="M274 259 C340 259 388 276 438 311 C438 89 390 41 278 41 C229 41 166 50 120 61 L113 14 C160 -1 225 -12 278 -12 C428 -12 502 64 502 328 C502 592 431 668 281 668 C152 668 81 617 81 463 C81 315 148 259 274 259 L274 259 Z M281 309 C180 309 142 351 142 463 C142 576 178 616 281 616 C395 616 438 558 438 359 C398 326 340 309 281 309 L281 309 Z " />
<glyph glyph-name="zero.OP" unicode="&#xe54a;" horiz-adv-x="526" d="M263 528 C112 528 56 442 56 258 C56 74 112 -12 263 -12 C414 -12 470 74 470 258 C470 442 414 528 263 528 L263 528 Z M263 37 C159 37 119 87 119 258 C119 429 159 479 263 479 C367 479 407 429 407 258 C407 87 367 37 263 37 L263 37 Z " />
<glyph glyph-name="one.OP" unicode="&#xe54c;" horiz-adv-x="317" d="M214 0 L214 522 L27 492 L33 452 L156 452 L156 0 L214 0 Z " />
<glyph glyph-name="two.OP" unicode="&#xe54d;" horiz-adv-x="477" d="M124 52 C124 142 138 172 254 229 C394 298 409 327 409 402 C409 484 361 525 243 525 C185 525 124 516 72 503 L78 457 C137 468 199 474 243 474 C318 474 352 453 352 400 C352 345 333 327 226 275 C88 208 67 161 67 48 L67 0 L406 0 L406 52 L124 52 Z " />
<glyph glyph-name="three.OP" unicode="&#xe54e;" horiz-adv-x="460" d="M297 209 C357 227 384 270 384 354 C384 489 324 525 194 525 C154 525 98 518 46 503 L52 457 C110 469 154 474 194 474 C294 474 326 444 326 354 C326 264 294 234 194 234 L142 234 L142 182 L194 182 C294 182 331 159 331 57 C331 -45 294 -68 194 -68 C150 -68 111 -62 48 -50 L42 -97 C99 -112 154 -119 194 -119 C313 -119 392 -92 392 56 C392 164 355 195 297 207 L297 209 Z " />
<glyph glyph-name="four.OP" unicode="&#xe54f;" horiz-adv-x="531" d="M343 267 L343 87 L112 87 L112 89 L261 511 L205 521 L55 91 L55 35 L343 35 L343 -110 L401 -110 L401 35 L493 35 L493 87 L401 87 L401 267 L343 267 Z " />
<glyph glyph-name="six.OP" unicode="&#xe551;" horiz-adv-x="542" d="M282 585 C326 585 372 579 432 565 L438 611 C379 628 330 636 282 636 C125 636 67 549 67 313 C67 80 124 -10 279 -10 C398 -10 472 34 472 185 C472 333 403 380 288 380 C227 380 173 366 130 338 C130 535 176 585 282 585 L282 585 Z M279 40 C171 40 130 102 130 288 C172 314 215 330 279 330 C368 330 412 297 412 185 C412 73 368 40 279 40 L279 40 Z " />
<glyph glyph-name="seven.OP" unicode="&#xe552;" horiz-adv-x="491" d="M42 353 L98 361 L98 464 L374 464 L374 462 L165 -110 L224 -110 L436 462 L436 516 L42 516 L42 353 Z " />
<glyph glyph-name="eight.OP" unicode="&#xe553;" horiz-adv-x="562" d="M398 321 C448 361 469 402 469 468 C469 594 397 636 281 636 C165 636 93 594 93 468 C93 384 115 351 164 321 L164 319 C99 277 77 234 77 165 C77 24 161 -10 281 -10 C401 -10 485 23 485 165 C485 254 459 297 398 319 L398 321 Z M281 586 C369 586 411 562 411 469 C411 407 388 366 343 336 L239 350 C185 357 151 387 151 469 C151 562 193 586 281 586 L281 586 Z M281 40 C183 40 137 63 137 164 C137 219 154 257 219 301 L317 287 C400 274 425 247 425 164 C425 63 379 40 281 40 L281 40 Z " />
<glyph glyph-name="nine.OP" unicode="&#xe554;" horiz-adv-x="542" d="M260 -69 C216 -69 170 -63 110 -49 L104 -95 C163 -112 212 -120 260 -120 C417 -120 475 -33 475 203 C475 436 418 526 263 526 C144 526 70 482 70 331 C70 183 139 136 254 136 C315 136 369 150 412 178 C412 -19 366 -69 260 -69 L260 -69 Z M263 476 C371 476 412 414 412 228 C370 202 327 186 263 186 C174 186 130 219 130 331 C130 443 174 476 263 476 L263 476 Z " />
<glyph glyph-name="I.alt" unicode="&#xe788;" horiz-adv-x="412" d="M46 0 L366 0 L366 54 L236 54 L236 602 L362 602 L362 656 L50 656 L50 602 L176 602 L176 54 L46 54 L46 0 Z " />
<glyph glyph-name="breve.cap" unicode="&#xf6a2;" horiz-adv-x="418" d="M72 860 C75 774 127 745 209 745 C291 745 343 774 346 860 L305 866 C299 813 283 785 209 785 C135 785 119 813 113 866 L72 860 Z " />
<glyph glyph-name="ring.cap" unicode="&#xf6a4;" horiz-adv-x="328" d="M164 882 C209 882 216 867 216 818 C216 770 209 756 164 756 C119 756 112 770 112 818 C112 866 119 882 164 882 L164 882 Z M164 913 C97 913 72 887 72 818 C72 746 97 723 164 723 C231 723 256 749 256 818 C256 887 231 913 164 913 L164 913 Z " />
<glyph glyph-name="circumflex.cap" unicode="&#xf6a5;" horiz-adv-x="412" d="M340 757 L231 866 L181 866 L72 757 L108 736 L205 825 L207 825 L304 736 L340 757 Z " />
<glyph glyph-name="dotaccent.cap" unicode="&#xf6a6;" horiz-adv-x="212" d="M106 838 C72 838 71 837 71 803 C71 769 72 768 106 768 C140 768 141 769 141 803 C141 836 140 838 106 838 L106 838 Z " />
<glyph glyph-name="tilde.cap" unicode="&#xf6a7;" horiz-adv-x="432" d="M322 848 C319 827 310 811 301 805 C293 800 278 798 258 807 L185 841 C164 851 139 852 123 846 C100 837 80 820 72 763 L110 758 C113 779 122 795 131 801 C139 806 154 808 174 799 L247 765 C268 755 293 754 309 760 C332 769 352 786 360 843 L322 848 Z " />
<glyph glyph-name="acute.cap" unicode="&#xf6a8;" horiz-adv-x="249" d="M112 866 L72 727 L110 727 L177 866 L112 866 Z " />
<glyph glyph-name="caron.cap" unicode="&#xf6a9;" horiz-adv-x="412" d="M304 868 L207 779 L205 779 L108 868 L72 847 L181 738 L231 738 L340 847 L304 868 Z " />
<glyph glyph-name="dieresis.cap" unicode="&#xf6aa;" horiz-adv-x="374" d="M107 838 C73 838 72 837 72 803 C72 769 73 768 107 768 C141 768 142 769 142 803 C142 836 141 838 107 838 L107 838 Z M267 838 C233 838 232 837 232 803 C232 769 233 768 267 768 C301 768 302 769 302 803 C302 836 301 838 267 838 L267 838 Z " />
<glyph glyph-name="grave.cap" unicode="&#xf6ab;" horiz-adv-x="249" d="M72 866 L139 727 L177 727 L137 866 L72 866 Z " />
<glyph glyph-name="hungarumlaut.cap" unicode="&#xf6ac;" horiz-adv-x="381" d="M113 866 L72 727 L110 727 L176 866 L113 866 Z M246 866 L205 727 L243 727 L309 866 L246 866 Z " />
<glyph glyph-name="macron.cap" unicode="&#xf6ad;" horiz-adv-x="392" d="M72 828 L72 784 L320 784 L320 828 L72 828 Z " />
<glyph glyph-name="commaaccent" unicode="&#xf6ae;" horiz-adv-x="202" d="M72 -73 L72 -248 L104 -248 L130 -130 L130 -73 L72 -73 Z " />
<glyph glyph-name="fi" unicode="&#xfb01;" horiz-adv-x="553" d="M174 605 C174 646 196 660 235 660 C261 660 300 654 300 654 L305 692 C305 692 264 705 216 705 C146 705 116 669 116 606 L116 492 L36 492 L36 444 L116 444 L116 0 L174 0 L174 444 L282 444 L289 492 L174 492 L174 605 Z M468 492 L410 492 L410 0 L468 0 L468 492 Z M439 689 C406 689 405 688 405 655 C405 622 406 621 439 621 C472 621 473 622 473 655 C473 687 472 689 439 689 L439 689 Z " />
<glyph glyph-name="fl" unicode="&#xfb02;" horiz-adv-x="588" d="M174 605 C174 646 196 660 235 660 C261 660 300 654 300 654 L305 692 C305 692 264 705 216 705 C146 705 116 669 116 606 L116 492 L36 492 L36 444 L116 444 L116 0 L174 0 L174 444 L282 444 L289 492 L174 492 L174 605 Z M459 702 L401 694 L401 87 C401 13 433 -6 486 -6 C511 -6 528 -2 547 7 L542 44 C528 41 515 39 502 39 C485 39 474 43 467 53 C460 63 459 79 459 107 L459 702 Z " />
</font>
</defs>
</svg>
