<svg xmlns="http://www.w3.org/2000/svg">
<defs>
<font id="Tram Joanneum Bold">
<font-face  font-family="Tram Joanneum" units-per-em="1000" ascent="750" descent="-250" font-style="normal" font-weight="700" font-stretch="normal" cap-height="656" x-height="492" underline-position="-75" underline-thickness="50" />

<glyph glyph-name="NULL" d="" />
<glyph glyph-name="CR" unicode="&#xd;" horiz-adv-x="250" d="" />
<glyph glyph-name="space" unicode="&#x20;" horiz-adv-x="228" d="" />
<glyph glyph-name="exclam" unicode="&#x21;" horiz-adv-x="298" d="M221 656 L77 656 L77 389 L97 218 L201 218 L221 389 L221 656 Z M149 150 C74 150 72 148 72 73 C72 -2 74 -4 149 -4 C224 -4 226 -2 226 73 C226 148 224 150 149 150 L149 150 Z " />
<glyph glyph-name="quotedbl" unicode="&#x22;" horiz-adv-x="361" d="M34 696 L34 601 L57 445 L127 445 L150 601 L150 696 L34 696 Z M211 696 L211 601 L234 445 L304 445 L327 601 L327 696 L211 696 Z " />
<glyph glyph-name="numbersign" unicode="&#x23;" horiz-adv-x="629" d="M591 423 L601 521 L509 521 L522 656 L410 656 L397 521 L270 521 L283 656 L171 656 L158 521 L66 521 L56 423 L148 423 L129 233 L37 233 L28 135 L120 135 L106 0 L218 0 L232 135 L359 135 L345 0 L457 0 L471 135 L563 135 L572 233 L480 233 L499 423 L591 423 Z M241 233 L260 423 L387 423 L368 233 L241 233 Z " />
<glyph glyph-name="dollar" unicode="&#x24;" horiz-adv-x="539" d="M253 396 C200 404 171 421 171 476 C171 536 201 549 278 549 C331 549 400 541 455 532 L469 639 C417 651 368 659 324 663 L324 780 L216 764 L216 663 C99 652 40 602 40 467 C40 331 120 289 198 277 L283 264 C337 256 363 241 363 187 C363 127 345 108 249 108 C212 108 144 113 70 125 L56 17 C111 4 166 -4 216 -7 L216 -124 L324 -108 L324 -7 C444 2 497 49 497 192 C497 312 459 364 355 381 L253 396 Z " />
<glyph glyph-name="percent" unicode="&#x25;" horiz-adv-x="880" d="M192 575 C232 575 242 562 242 472 C242 382 232 369 192 369 C152 369 142 382 142 472 C142 562 152 575 192 575 L192 575 Z M192 662 C86 662 34 622 34 472 C34 323 86 282 192 282 C298 282 350 323 350 472 C350 622 298 662 192 662 L192 662 Z M688 288 C728 288 738 275 738 185 C738 95 728 82 688 82 C648 82 638 95 638 185 C638 275 648 288 688 288 L688 288 Z M688 375 C582 375 530 335 530 185 C530 36 582 -5 688 -5 C794 -5 846 36 846 185 C846 335 794 375 688 375 L688 375 Z M309 0 L684 656 L570 656 L194 0 L309 0 Z " />
<glyph glyph-name="ampersand" unicode="&#x26;" horiz-adv-x="671" d="M510 165 L528 295 L611 295 L611 405 L433 405 L414 267 L242 450 C204 490 197 505 197 522 C197 544 211 557 271 557 C317 557 392 550 441 543 L456 641 C398 655 314 665 271 665 C127 665 68 632 68 530 C68 476 82 445 151 373 C56 269 32 231 32 160 C32 33 116 -9 281 -9 C402 -9 443 8 467 42 L508 0 L665 0 L510 165 Z M281 99 C196 99 163 119 163 160 C163 204 179 228 232 289 L380 132 C369 104 344 99 281 99 L281 99 Z " />
<glyph glyph-name="quotesingle" unicode="&#x27;" horiz-adv-x="184" d="M34 696 L34 601 L57 445 L127 445 L150 601 L150 696 L34 696 Z " />
<glyph glyph-name="parenleft" unicode="&#x28;" horiz-adv-x="284" d="M160 757 C88 679 62 572 62 304 C62 36 97 -75 160 -149 L234 -63 C201 3 197 80 197 304 C197 528 201 605 234 671 L160 757 Z " />
<glyph glyph-name="parenright" unicode="&#x29;" horiz-adv-x="284" d="M124 -149 C196 -71 222 36 222 304 C222 572 187 683 124 757 L50 671 C83 605 87 528 87 304 C87 80 83 3 50 -63 L124 -149 Z " />
<glyph glyph-name="asterisk" unicode="&#x2a;" horiz-adv-x="538" d="M325 558 L301 696 L237 696 L213 558 L74 577 L54 517 L179 452 L116 325 L167 286 L269 385 L371 286 L422 325 L359 452 L484 517 L464 577 L325 558 Z " />
<glyph glyph-name="plus" unicode="&#x2b;" horiz-adv-x="540" d="M64 329 L64 219 L209 219 L209 74 L331 74 L331 219 L476 219 L476 329 L331 329 L331 474 L209 474 L209 329 L64 329 Z " />
<glyph glyph-name="comma" unicode="&#x2c;" horiz-adv-x="276" d="M138 150 C63 150 61 148 61 73 C61 1 63 -3 130 -4 C130 -50 109 -82 73 -116 L128 -149 C188 -101 215 -51 215 73 C215 148 213 150 138 150 L138 150 Z " />
<glyph glyph-name="hyphen" unicode="&#x2d;" horiz-adv-x="360" d="M46 330 L46 218 L314 218 L314 330 L46 330 Z " />
<glyph glyph-name="period" unicode="&#x2e;" horiz-adv-x="276" d="M138 150 C63 150 61 148 61 73 C61 -2 63 -4 138 -4 C213 -4 215 -2 215 73 C215 148 213 150 138 150 L138 150 Z " />
<glyph glyph-name="slash" unicode="&#x2f;" horiz-adv-x="371" d="M178 -136 L303 744 L193 744 L68 -136 L178 -136 Z " />
<glyph glyph-name="zero" unicode="0" horiz-adv-x="590" d="M295 668 C116 668 44 586 44 328 C44 71 116 -12 295 -12 C474 -12 546 71 546 328 C546 585 474 668 295 668 L295 668 Z M295 98 C207 98 184 134 184 328 C184 522 207 558 295 558 C383 558 406 522 406 328 C406 134 383 98 295 98 L295 98 Z " />
<glyph glyph-name="one" unicode="1" horiz-adv-x="459" d="M67 0 L415 0 L415 116 L307 116 L307 664 L48 630 L62 527 L175 527 L175 116 L67 116 L67 0 Z " />
<glyph glyph-name="two" unicode="2" horiz-adv-x="542" d="M184 116 C184 170 193 197 302 265 C465 367 488 402 488 505 C488 634 401 665 260 665 C203 665 134 656 61 639 L75 531 C154 544 213 551 260 551 C338 551 357 533 357 498 C357 459 354 444 229 368 C96 287 54 239 54 116 L54 0 L479 0 L479 116 L184 116 Z " />
<glyph glyph-name="three" unicode="3" horiz-adv-x="526" d="M374 339 C435 356 463 405 463 478 C463 628 395 665 240 665 C187 665 120 658 50 639 L64 531 C136 545 192 551 240 551 C311 551 333 530 333 472 C333 414 311 393 240 393 L157 393 L157 277 L240 277 C316 277 341 260 341 191 C341 122 316 105 240 105 C191 105 140 109 60 124 L46 16 C124 -2 183 -9 240 -9 C393 -9 475 21 475 185 C475 288 435 323 374 337 L374 339 Z " />
<glyph glyph-name="four" unicode="4" horiz-adv-x="594" d="M343 397 L343 239 L180 239 L180 241 L327 647 L195 665 L42 241 L42 123 L343 123 L343 0 L473 0 L473 123 L576 123 L576 239 L473 239 L473 397 L343 397 Z " />
<glyph glyph-name="five" unicode="5" horiz-adv-x="549" d="M195 540 L462 540 L474 656 L65 656 L65 266 L195 266 C205 299 226 315 276 315 C340 315 369 294 369 211 C369 128 341 107 264 107 C204 107 160 107 72 123 L58 15 C134 -8 224 -9 274 -9 C415 -9 503 43 503 210 C503 377 421 429 308 429 C266 429 222 418 197 385 L195 385 L195 540 Z " />
<glyph glyph-name="six" unicode="6" horiz-adv-x="570" d="M293 554 C352 554 412 544 474 531 L488 639 C425 656 350 668 293 668 C120 668 46 584 46 328 C46 70 120 -12 293 -12 C433 -12 521 35 521 206 C521 377 434 427 306 427 C254 427 214 413 184 395 C184 511 216 554 293 554 L293 554 Z M293 99 C207 99 184 142 184 289 C184 289 214 313 293 313 C359 313 385 291 385 206 C385 121 359 99 293 99 L293 99 Z " />
<glyph glyph-name="seven" unicode="7" horiz-adv-x="518" d="M20 458 L152 475 L152 542 L346 542 L346 540 L139 0 L278 0 L483 542 L483 656 L20 656 L20 458 Z " />
<glyph glyph-name="eight" unicode="8" horiz-adv-x="608" d="M470 342 C515 380 535 419 535 477 C535 621 452 668 304 668 C156 668 73 621 73 477 C73 391 96 360 138 334 L138 332 C83 299 55 253 55 187 C55 29 151 -12 304 -12 C457 -12 553 29 553 187 C553 269 531 310 470 340 L470 342 Z M304 558 C378 558 401 533 401 477 C401 435 395 407 363 382 L285 394 C236 402 207 421 207 477 C207 533 230 558 304 558 L304 558 Z M304 98 C219 98 194 120 194 186 C194 228 208 259 246 287 L322 274 C394 262 414 241 414 186 C414 120 389 98 304 98 L304 98 Z " />
<glyph glyph-name="nine" unicode="9" horiz-adv-x="570" d="M277 102 C218 102 158 112 96 125 L82 17 C145 0 220 -12 277 -12 C450 -12 524 72 524 328 C524 586 450 668 277 668 C137 668 49 621 49 450 C49 279 136 229 264 229 C316 229 356 243 386 261 C386 145 354 102 277 102 L277 102 Z M277 557 C363 557 386 514 386 367 C386 367 356 343 277 343 C211 343 185 365 185 450 C185 535 211 557 277 557 L277 557 Z " />
<glyph glyph-name="colon" unicode="&#x3a;" horiz-adv-x="276" d="M138 150 C63 150 61 148 61 73 C61 -2 63 -4 138 -4 C213 -4 215 -2 215 73 C215 148 213 150 138 150 L138 150 Z M138 436 C63 436 61 434 61 359 C61 284 63 282 138 282 C213 282 215 284 215 359 C215 434 213 436 138 436 L138 436 Z " />
<glyph glyph-name="semicolon" unicode="&#x3b;" horiz-adv-x="276" d="M138 436 C63 436 61 434 61 359 C61 284 63 282 138 282 C213 282 215 284 215 359 C215 434 213 436 138 436 L138 436 Z M138 150 C63 150 61 148 61 73 C61 1 63 -3 130 -4 C130 -50 109 -82 73 -116 L128 -149 C188 -101 215 -51 215 73 C215 148 213 150 138 150 L138 150 Z " />
<glyph glyph-name="less" unicode="&#x3c;" horiz-adv-x="540" d="M472 40 L472 166 L194 273 L194 275 L472 382 L472 508 L52 326 L52 222 L472 40 Z " />
<glyph glyph-name="equal" unicode="&#x3d;" horiz-adv-x="540" d="M64 428 L64 318 L476 318 L476 428 L64 428 Z M64 231 L64 121 L476 121 L476 231 L64 231 Z " />
<glyph glyph-name="greater" unicode="&#x3e;" horiz-adv-x="540" d="M68 508 L68 382 L346 275 L346 273 L68 166 L68 40 L488 222 L488 326 L68 508 Z " />
<glyph glyph-name="question" unicode="&#x3f;" horiz-adv-x="477" d="M229 665 C176 665 103 657 24 639 L38 531 C121 545 172 551 229 551 C294 551 311 534 311 504 C311 465 306 455 240 423 C136 373 117 338 129 258 L135 218 L245 218 L245 251 C245 293 263 305 326 336 C423 384 442 415 442 504 C442 630 381 665 229 665 L229 665 Z M193 150 C118 150 116 148 116 73 C116 -2 118 -4 193 -4 C268 -4 270 -2 270 73 C270 148 268 150 193 150 L193 150 Z " />
<glyph glyph-name="at" unicode="&#x40;" horiz-adv-x="736" d="M666 338 C666 460 587 501 380 501 C180 501 60 447 60 149 C60 -151 180 -203 380 -203 C471 -203 563 -192 655 -171 L642 -74 C536 -94 464 -99 380 -99 C238 -99 191 -49 191 149 C191 347 238 397 380 397 C518 397 538 376 538 331 L538 317 C537 317 387 296 387 296 C306 283 253 240 253 141 C253 50 311 -9 403 -9 C461 -9 507 9 549 42 L560 0 L666 0 L666 338 Z M538 126 C513 111 473 98 443 98 C409 98 380 109 380 148 C380 180 392 200 436 206 L538 220 L538 126 Z " />
<glyph glyph-name="A" unicode="A" horiz-adv-x="614" d="M599 0 L394 656 L220 656 L15 0 L156 0 L193 120 L420 120 L457 0 L599 0 Z M230 240 L270 384 C288 450 305 522 305 522 L309 522 C309 522 325 450 343 384 L383 240 L230 240 Z " />
<glyph glyph-name="B" unicode="B" horiz-adv-x="587" d="M448 335 C506 352 538 391 538 480 C538 630 444 656 342 656 L66 656 L66 0 L337 0 C456 0 552 26 552 183 C552 280 509 322 448 333 L448 335 Z M200 120 L200 272 L326 272 C385 272 410 264 410 196 C410 128 385 120 326 120 L200 120 Z M326 536 C374 536 399 525 399 463 C399 401 374 390 326 390 L200 390 L200 536 L326 536 Z " />
<glyph glyph-name="C" unicode="C" horiz-adv-x="545" d="M187 328 C187 529 241 553 334 553 C375 553 432 546 487 536 L501 643 C456 656 371 669 315 669 C142 669 42 603 42 328 C42 53 142 -9 315 -9 C371 -9 456 4 501 17 L487 124 C432 114 375 107 334 107 C241 107 187 127 187 328 L187 328 Z " />
<glyph glyph-name="D" unicode="D" horiz-adv-x="609" d="M66 656 L66 0 L282 0 C452 0 567 40 567 328 C567 616 452 656 282 656 L66 656 Z M200 120 L200 536 L271 536 C389 536 425 518 425 328 C425 138 389 120 271 120 L200 120 Z " />
<glyph glyph-name="E" unicode="E" horiz-adv-x="544" d="M500 656 L66 656 L66 0 L506 0 L506 120 L200 120 L200 269 L476 269 L476 389 L200 389 L200 536 L500 536 L500 656 Z " />
<glyph glyph-name="F" unicode="F" horiz-adv-x="526" d="M496 656 L66 656 L66 0 L200 0 L200 257 L472 257 L472 377 L200 377 L200 536 L496 536 L496 656 Z " />
<glyph glyph-name="G" unicode="G" horiz-adv-x="606" d="M314 373 L314 255 L421 255 L421 110 C392 105 364 104 332 104 C232 104 186 139 186 328 C186 517 232 553 332 553 C383 553 461 546 525 535 L539 643 C469 659 393 669 319 669 C139 669 42 591 42 328 C42 65 139 -9 319 -9 C388 -9 458 -1 552 31 L552 373 L314 373 Z " />
<glyph glyph-name="H" unicode="H" horiz-adv-x="630" d="M430 656 L430 389 L200 389 L200 656 L66 656 L66 0 L200 0 L200 269 L430 269 L430 0 L564 0 L564 656 L430 656 Z " />
<glyph glyph-name="I" unicode="I" horiz-adv-x="290" d="M212 656 L78 656 L78 0 L212 0 L212 656 Z " />
<glyph glyph-name="J" unicode="J" horiz-adv-x="407" d="M209 656 L209 191 C209 133 193 109 138 109 C113 109 76 114 29 124 L15 17 C67 1 110 -6 164 -6 C298 -6 343 60 343 179 L343 656 L209 656 Z " />
<glyph glyph-name="K" unicode="K" horiz-adv-x="594" d="M579 0 L365 329 L573 656 L420 656 L256 389 L200 389 L200 656 L66 656 L66 0 L200 0 L200 269 L256 269 L422 0 L579 0 Z " />
<glyph glyph-name="L" unicode="L" horiz-adv-x="500" d="M66 656 L66 0 L490 0 L490 120 L200 120 L200 656 L66 656 Z " />
<glyph glyph-name="M" unicode="M" horiz-adv-x="758" d="M380 305 L378 305 L226 656 L66 656 L66 0 L200 0 L200 265 C200 343 196 441 196 441 L200 441 C200 441 225 371 253 311 L328 150 L430 150 L505 311 C533 371 558 440 558 440 L562 440 C562 440 558 343 558 265 L558 0 L692 0 L692 656 L532 656 L380 305 Z " />
<glyph glyph-name="N" unicode="N" horiz-adv-x="640" d="M440 656 L440 359 C440 297 446 228 446 228 L442 228 L202 656 L66 656 L66 0 L200 0 L200 297 C200 359 194 429 194 429 L198 429 L438 0 L574 0 L574 656 L440 656 Z " />
<glyph glyph-name="O" unicode="O" horiz-adv-x="616" d="M42 328 C42 62 122 -13 308 -13 C494 -13 574 63 574 328 C574 594 494 669 308 669 C122 669 42 594 42 328 L42 328 Z M187 328 C187 526 216 557 308 557 C400 557 429 526 429 328 C429 131 400 99 308 99 C216 99 187 130 187 328 L187 328 Z " />
<glyph glyph-name="P" unicode="P" horiz-adv-x="560" d="M66 656 L66 0 L200 0 L200 214 L320 214 C449 214 538 267 538 435 C538 603 449 656 320 656 L66 656 Z M200 334 L200 536 L301 536 C375 536 400 517 400 435 C400 353 375 334 301 334 L200 334 Z " />
<glyph glyph-name="Q" unicode="Q" horiz-adv-x="616" d="M42 328 C42 96 102 9 241 -9 L241 -122 L375 -103 L375 -8 C513 10 574 97 574 328 C574 594 494 669 308 669 C122 669 42 594 42 328 L42 328 Z M187 328 C187 526 216 557 308 557 C400 557 429 526 429 328 C429 191 414 133 375 111 L375 221 L241 221 L241 111 C201 133 187 190 187 328 L187 328 Z " />
<glyph glyph-name="R" unicode="R" horiz-adv-x="589" d="M561 0 L455 205 C442 229 435 239 423 248 L423 250 C481 268 538 311 538 446 C538 619 443 656 319 656 L66 656 L66 0 L200 0 L200 236 L259 236 C291 236 301 226 319 189 L410 0 L561 0 Z M200 356 L200 536 L295 536 C369 536 402 525 402 446 C402 368 369 356 295 356 L200 356 Z " />
<glyph glyph-name="S" unicode="S" horiz-adv-x="539" d="M253 396 C200 404 171 425 171 480 C171 540 201 553 278 553 C331 553 400 545 455 536 L469 643 C395 661 327 669 270 669 C117 669 40 626 40 471 C40 335 120 289 198 277 L283 264 C337 256 363 241 363 187 C363 127 345 108 249 108 C212 108 144 113 70 125 L56 17 C132 -1 206 -9 270 -9 C428 -9 497 29 497 192 C497 312 448 364 344 381 L253 396 Z " />
<glyph glyph-name="T" unicode="T" horiz-adv-x="540" d="M528 656 L12 656 L12 536 L203 536 L203 0 L337 0 L337 536 L528 536 L528 656 Z " />
<glyph glyph-name="U" unicode="U" horiz-adv-x="630" d="M566 656 L432 656 L432 223 C432 137 381 111 315 111 C249 111 198 137 198 223 L198 656 L64 656 L64 238 C64 104 114 -9 315 -9 C516 -9 566 104 566 238 L566 656 Z " />
<glyph glyph-name="V" unicode="V" horiz-adv-x="598" d="M375 0 L583 656 L437 656 L346 338 C321 249 301 163 301 163 L297 163 C297 163 278 248 252 338 L161 656 L15 656 L223 0 L375 0 Z " />
<glyph glyph-name="W" unicode="W" horiz-adv-x="840" d="M819 656 L677 656 L620 365 C605 290 594 192 594 192 L590 192 C590 192 577 289 559 365 L493 646 L347 646 L283 365 C265 288 250 192 250 192 L246 192 C246 192 235 290 220 365 L163 656 L21 656 L168 0 L310 0 L396 350 C408 401 419 471 419 471 L421 471 C421 471 431 401 444 350 L530 0 L672 0 L819 656 Z " />
<glyph glyph-name="X" unicode="X" horiz-adv-x="604" d="M580 0 L391 329 L574 656 L421 656 L342 505 C323 468 303 425 303 425 L301 425 C301 425 281 468 262 505 L183 656 L30 656 L213 329 L24 0 L183 0 L261 147 C281 185 301 227 301 227 L303 227 C303 227 323 185 343 147 L421 0 L580 0 Z " />
<glyph glyph-name="Y" unicode="Y" horiz-adv-x="586" d="M420 656 L349 500 C321 439 295 376 295 376 L291 376 C291 376 265 439 237 500 L166 656 L12 656 L225 230 L225 0 L361 0 L361 230 L574 656 L420 656 Z " />
<glyph glyph-name="Z" unicode="Z" horiz-adv-x="560" d="M511 656 L43 656 L43 536 L349 536 L349 534 L39 119 L39 0 L515 0 L515 120 L203 120 L203 122 L511 536 L511 656 Z " />
<glyph glyph-name="bracketleft" unicode="&#x5b;" horiz-adv-x="344" d="M75 -136 L297 -136 L297 -22 L199 -22 L199 630 L297 630 L297 744 L75 744 L75 -136 Z " />
<glyph glyph-name="backslash" unicode="&#x5c;" horiz-adv-x="367" d="M301 -136 L176 744 L66 744 L191 -136 L301 -136 Z " />
<glyph glyph-name="bracketright" unicode="&#x5d;" horiz-adv-x="344" d="M269 744 L47 744 L47 630 L145 630 L145 -22 L47 -22 L47 -136 L269 -136 L269 744 Z " />
<glyph glyph-name="asciicircum" unicode="&#x5e;" horiz-adv-x="598" d="M514 364 L363 696 L235 696 L84 364 L212 364 L266 496 C286 546 297 579 297 579 L301 579 C301 579 312 546 332 496 L386 364 L514 364 Z " />
<glyph glyph-name="underscore" unicode="&#x5f;" horiz-adv-x="369" d="M12 -84 L12 -194 L357 -194 L357 -84 L12 -84 Z " />
<glyph glyph-name="grave" unicode="&#x60;" horiz-adv-x="311" d="M72 696 L151 557 L239 557 L208 696 L72 696 Z " />
<glyph glyph-name="a" unicode="a" horiz-adv-x="500" d="M444 346 C444 440 402 500 268 500 C205 500 131 488 61 466 L74 374 C136 390 194 400 235 400 C294 400 316 389 316 346 L316 317 C315 317 165 296 165 296 C84 283 31 240 31 141 C31 50 89 -9 181 -9 C239 -9 285 9 327 42 L338 0 L444 0 L444 346 Z M316 119 C291 104 251 91 221 91 C187 91 158 102 158 141 C158 173 170 203 214 209 L316 223 L316 119 Z " />
<glyph glyph-name="b" unicode="b" horiz-adv-x="531" d="M319 500 C271 500 220 482 186 458 L186 704 L58 684 L58 0 L164 0 L175 42 C214 11 271 -9 319 -9 C411 -9 495 57 495 246 C495 435 411 500 319 500 L319 500 Z M286 108 C231 108 186 130 186 130 L186 362 C186 362 231 384 286 384 C338 384 360 344 360 246 C360 148 338 108 286 108 L286 108 Z " />
<glyph glyph-name="c" unicode="c" horiz-adv-x="451" d="M278 95 C194 95 170 115 170 246 C170 377 194 397 278 397 C317 397 350 394 402 384 L415 479 C365 493 311 500 259 500 C133 500 34 469 34 246 C34 23 133 -9 259 -9 C311 -9 365 -1 415 13 L402 109 C350 99 317 95 278 95 L278 95 Z " />
<glyph glyph-name="d" unicode="d" horiz-adv-x="531" d="M212 500 C120 500 36 435 36 246 C36 57 120 -9 212 -9 C260 -9 317 11 356 42 L367 0 L473 0 L473 705 L345 686 L345 458 C311 482 260 500 212 500 L212 500 Z M245 108 C193 108 171 148 171 246 C171 344 193 384 245 384 C300 384 345 362 345 362 L345 130 C345 130 300 108 245 108 L245 108 Z " />
<glyph glyph-name="e" unicode="e" horiz-adv-x="492" d="M452 246 C452 434 397 500 247 500 C97 500 36 438 36 246 C36 30 114 -9 262 -9 C307 -9 368 -3 430 14 L417 106 C367 97 318 91 278 91 C211 91 172 111 172 193 L452 193 L452 246 Z M172 289 C172 376 187 400 247 400 C307 400 323 375 323 289 L172 289 Z " />
<glyph glyph-name="f" unicode="f" horiz-adv-x="362" d="M226 558 C226 590 237 604 270 604 C298 604 338 599 338 599 L350 689 C350 689 287 705 233 705 C136 705 98 670 98 574 L98 492 L26 492 L26 382 L98 382 L98 0 L226 0 L226 382 L318 382 L333 492 L226 492 L226 558 Z " />
<glyph glyph-name="g" unicode="g" horiz-adv-x="537" d="M187 167 C201 164 218 163 244 163 C373 163 450 192 450 332 C450 368 447 381 441 403 L519 403 L504 498 L368 477 C336 495 289 500 244 500 C115 500 38 472 38 332 C38 251 64 211 101 190 L83 146 C68 110 75 77 94 59 L74 45 C46 26 26 -9 26 -56 C26 -172 99 -203 261 -203 C423 -203 496 -170 496 -54 C496 55 428 89 350 96 L228 107 C185 111 181 121 184 143 L187 167 Z M313 -2 C354 -5 372 -14 372 -56 C372 -92 347 -109 261 -109 C175 -109 150 -92 150 -56 C150 -27 156 -4 169 15 C183 11 197 9 214 7 L313 -2 Z M244 259 C180 259 160 268 160 332 C160 396 180 405 244 405 C308 405 328 396 328 332 C328 268 308 259 244 259 L244 259 Z " />
<glyph glyph-name="h" unicode="h" horiz-adv-x="532" d="M325 500 C268 500 219 480 186 458 L186 705 L58 686 L58 0 L186 0 L186 362 C186 362 223 383 288 383 C329 383 348 367 348 318 L348 0 L476 0 L476 345 C476 444 427 500 325 500 L325 500 Z " />
<glyph glyph-name="i" unicode="i" horiz-adv-x="260" d="M194 492 L66 492 L66 0 L194 0 L194 492 Z M130 705 C66 705 62 701 62 637 C62 573 66 569 130 569 C194 569 198 573 198 637 C198 701 194 705 130 705 L130 705 Z " />
<glyph glyph-name="j" unicode="j" horiz-adv-x="257" d="M189 492 L61 492 L61 0 C61 -93 31 -186 31 -186 L140 -202 C140 -202 189 -121 189 0 L189 492 Z M125 705 C61 705 57 701 57 637 C57 573 61 569 125 569 C189 569 193 573 193 637 C193 701 189 705 125 705 L125 705 Z " />
<glyph glyph-name="k" unicode="k" horiz-adv-x="503" d="M493 0 L339 271 L480 492 L332 492 L232 326 L186 326 L186 705 L58 685 L58 0 L186 0 L186 216 L232 216 L349 0 L493 0 Z " />
<glyph glyph-name="l" unicode="l" horiz-adv-x="287" d="M186 705 L58 686 L58 124 C58 29 102 -6 173 -6 C209 -6 236 0 261 9 L249 99 C234 96 225 95 217 95 C190 95 186 110 186 136 L186 705 Z " />
<glyph glyph-name="m" unicode="m" horiz-adv-x="772" d="M574 500 C503 500 457 471 429 449 C410 476 376 500 309 500 C259 500 204 473 175 450 L164 492 L58 492 L58 0 L186 0 L186 362 C186 362 227 383 269 383 C311 383 323 369 323 312 L323 0 L451 0 L451 334 C451 357 450 365 450 365 C450 365 491 383 534 383 C576 383 588 369 588 312 L588 0 L716 0 L716 334 C716 454 671 500 574 500 L574 500 Z " />
<glyph glyph-name="n" unicode="n" horiz-adv-x="532" d="M325 500 C262 500 208 475 175 450 L164 492 L58 492 L58 0 L186 0 L186 362 C186 362 223 383 288 383 C329 383 348 367 348 318 L348 0 L476 0 L476 345 C476 444 427 500 325 500 L325 500 Z " />
<glyph glyph-name="o" unicode="o" horiz-adv-x="518" d="M259 500 C114 500 34 451 34 246 C34 41 114 -10 259 -10 C404 -10 484 41 484 246 C484 451 404 500 259 500 L259 500 Z M259 90 C190 90 170 116 170 246 C170 376 190 400 259 400 C328 400 348 376 348 246 C348 116 328 90 259 90 L259 90 Z " />
<glyph glyph-name="p" unicode="p" horiz-adv-x="531" d="M319 -9 C411 -9 495 57 495 246 C495 435 411 500 319 500 C271 500 214 481 175 450 L164 492 L58 492 L58 -202 L186 -183 L186 34 C220 10 271 -9 319 -9 L319 -9 Z M286 384 C338 384 360 344 360 246 C360 148 338 108 286 108 C231 108 186 130 186 130 L186 362 C186 362 231 384 286 384 L286 384 Z " />
<glyph glyph-name="q" unicode="q" horiz-adv-x="531" d="M212 -9 C260 -9 311 10 345 34 L345 -202 L473 -182 L473 492 L367 492 L356 450 C317 481 260 500 212 500 C120 500 36 435 36 246 C36 57 120 -9 212 -9 L212 -9 Z M245 384 C300 384 345 362 345 362 L345 130 C345 130 300 108 245 108 C193 108 171 148 171 246 C171 344 193 384 245 384 L245 384 Z " />
<glyph glyph-name="r" unicode="r" horiz-adv-x="345" d="M164 492 L58 492 L58 0 L186 0 L186 348 C219 364 260 373 317 373 L317 500 C247 500 200 470 176 446 L164 492 Z " />
<glyph glyph-name="s" unicode="s" horiz-adv-x="461" d="M217 307 C171 313 158 323 158 353 C158 389 174 398 242 398 C283 398 330 394 388 384 L401 479 C329 497 263 500 224 500 C88 500 38 460 38 349 C38 254 88 212 170 200 L245 189 C292 182 302 173 302 140 C302 108 294 95 216 95 C180 95 125 99 61 110 L48 14 C111 -1 173 -9 224 -9 C363 -9 423 19 423 147 C423 231 389 283 302 295 L217 307 Z " />
<glyph glyph-name="t" unicode="t" horiz-adv-x="389" d="M217 382 L353 382 L368 492 L217 492 L217 636 L89 617 L89 492 L17 492 L17 382 L89 382 L89 132 C89 41 133 -4 236 -4 C280 -4 318 1 359 15 L347 105 C326 101 298 98 278 98 C233 98 217 112 217 160 L217 382 Z " />
<glyph glyph-name="u" unicode="u" horiz-adv-x="532" d="M207 -9 C270 -9 324 17 357 42 L368 0 L474 0 L474 492 L346 492 L346 130 C346 130 309 109 244 109 C203 109 184 125 184 174 L184 492 L56 492 L56 147 C56 48 105 -9 207 -9 L207 -9 Z " />
<glyph glyph-name="v" unicode="v" horiz-adv-x="506" d="M357 492 L294 280 C275 214 255 140 255 140 L251 140 C251 140 231 214 212 280 L149 492 L14 492 L187 0 L319 0 L492 492 L357 492 Z " />
<glyph glyph-name="w" unicode="w" horiz-adv-x="712" d="M563 492 L520 299 C504 228 495 166 495 166 L491 166 C491 166 479 224 461 299 L416 492 L296 492 L251 299 C233 224 221 166 221 166 L217 166 C217 166 207 228 191 299 L148 492 L17 492 L150 0 L271 0 L329 215 C340 255 355 329 355 329 L357 329 C357 329 371 255 382 215 L440 0 L562 0 L695 492 L563 492 Z " />
<glyph glyph-name="x" unicode="x" horiz-adv-x="512" d="M486 492 L339 492 L283 390 C271 369 257 340 257 340 L255 340 C255 340 241 369 229 390 L171 492 L27 492 L177 253 L20 0 L166 0 L225 108 C239 134 255 167 255 167 L257 167 C257 167 273 134 287 108 L346 0 L492 0 L335 253 L486 492 Z " />
<glyph glyph-name="y" unicode="y" horiz-adv-x="506" d="M357 492 L294 280 C275 214 255 140 255 140 L251 140 C251 140 231 214 212 280 L149 492 L14 492 L187 0 L180 -25 C163 -87 144 -91 61 -103 L75 -203 C227 -191 257 -177 319 0 L492 492 L357 492 Z " />
<glyph glyph-name="z" unicode="z" horiz-adv-x="461" d="M183 108 L183 110 L424 382 L424 492 L36 492 L36 384 L275 384 L275 382 L33 110 L33 0 L426 0 L426 108 L183 108 Z " />
<glyph glyph-name="braceleft" unicode="&#x7b;" horiz-adv-x="360" d="M97 -30 C97 -105 141 -136 215 -136 L313 -136 L313 -22 L260 -22 C228 -22 221 -10 221 16 L221 178 C221 265 194 291 161 303 L161 305 C194 317 221 343 221 430 L221 592 C221 618 228 630 260 630 L313 630 L313 744 L215 744 C141 744 97 713 97 638 L97 454 C97 374 83 361 18 361 L18 247 C83 247 97 234 97 154 L97 -30 Z " />
<glyph glyph-name="bar" unicode="&#x7c;" horiz-adv-x="246" d="M69 -136 L177 -136 L177 744 L69 744 L69 -136 Z " />
<glyph glyph-name="braceright" unicode="&#x7d;" horiz-adv-x="360" d="M263 638 C263 713 219 744 145 744 L47 744 L47 630 L100 630 C132 630 139 618 139 592 L139 430 C139 343 166 317 199 305 L199 303 C166 291 139 265 139 178 L139 16 C139 -10 132 -22 100 -22 L47 -22 L47 -136 L145 -136 C219 -136 263 -105 263 -30 L263 154 C263 234 277 247 342 247 L342 361 C277 361 263 374 263 454 L263 638 Z " />
<glyph glyph-name="asciitilde" unicode="&#x7e;" horiz-adv-x="567" d="M376 357 C371 331 367 324 360 321 C354 318 343 320 327 326 L271 347 C222 365 175 368 142 351 C110 335 89 306 79 225 L190 209 C195 235 199 242 206 245 C212 248 223 246 239 240 L295 219 C344 201 391 198 424 215 C456 232 478 260 488 341 L376 357 Z " />
<glyph glyph-name="nbspace" unicode="&#xa0;" horiz-adv-x="228" d="" />
<glyph glyph-name="exclamdown" unicode="&#xa1;" horiz-adv-x="298" d="M77 -164 L221 -164 L221 103 L201 274 L97 274 L77 103 L77 -164 Z M149 342 C224 342 226 344 226 419 C226 494 224 496 149 496 C74 496 72 494 72 419 C72 344 74 342 149 342 L149 342 Z " />
<glyph glyph-name="cent" unicode="&#xa2;" horiz-adv-x="451" d="M278 95 C194 95 170 115 170 246 C170 377 194 397 278 397 C317 397 350 394 402 384 L415 479 C382 488 347 495 313 498 L313 616 L205 600 L205 498 C106 487 34 436 34 246 C34 56 106 4 205 -6 L205 -124 L313 -108 L313 -6 C347 -3 382 4 415 13 L402 109 C350 99 317 95 278 95 L278 95 Z " />
<glyph glyph-name="sterling" unicode="&#xa3;" horiz-adv-x="516" d="M442 274 L457 382 L254 382 L254 467 C254 527 272 549 340 549 C391 549 443 543 501 532 L515 639 C455 655 391 665 340 665 C193 665 120 625 120 477 L120 382 L29 382 L29 274 L120 274 L120 120 L29 120 L29 0 L530 0 L530 120 L254 120 L254 274 L442 274 Z " />
<glyph glyph-name="currency" unicode="&#xa4;" horiz-adv-x="722" d="M361 215 C286 215 267 235 267 317 C267 399 286 419 361 419 C436 419 455 399 455 317 C455 235 436 215 361 215 L361 215 Z M585 317 C585 361 579 396 568 424 L653 509 L554 608 L458 512 C430 518 398 521 361 521 C324 521 291 518 264 512 L168 608 L69 509 L154 424 C142 396 137 361 137 317 C137 273 142 238 154 210 L69 125 L168 26 L264 122 C291 115 324 113 361 113 C398 113 430 115 458 122 L554 26 L653 125 L568 210 C579 238 585 273 585 317 L585 317 Z " />
<glyph glyph-name="yen" unicode="&#xa5;" horiz-adv-x="586" d="M530 296 L394 296 L426 360 L520 360 L532 454 L473 454 L574 656 L420 656 L349 500 C321 439 295 376 295 376 L291 376 C291 376 265 439 237 500 L166 656 L12 656 L113 454 L69 454 L57 360 L160 360 L192 296 L69 296 L57 202 L225 202 L225 0 L361 0 L361 202 L518 202 L530 296 Z " />
<glyph glyph-name="brokenbar" unicode="&#xa6;" horiz-adv-x="246" d="M69 355 L177 355 L177 744 L69 744 L69 355 Z M69 -136 L177 -136 L177 253 L69 253 L69 -136 Z " />
<glyph glyph-name="section" unicode="&#xa7;" horiz-adv-x="498" d="M249 165 C173 165 160 182 160 249 C160 316 173 333 249 333 C325 333 338 316 338 249 C338 182 325 165 249 165 L249 165 Z M171 518 C171 550 181 561 249 561 C300 561 355 553 414 542 L427 640 C364 655 296 664 249 664 C95 664 52 624 52 523 C52 473 66 449 103 409 C57 384 34 335 34 249 C34 95 109 63 249 63 L283 63 C315 33 328 12 328 -18 C328 -53 313 -59 249 -59 C204 -59 146 -52 84 -40 L71 -138 C134 -155 216 -162 249 -162 C403 -162 447 -125 447 -22 C447 24 427 53 394 88 C440 114 464 162 464 249 C464 403 389 435 249 435 C237 435 225 435 214 434 C184 468 171 491 171 518 L171 518 Z " />
<glyph glyph-name="dieresis" unicode="&#xa8;" horiz-adv-x="480" d="M138 702 C76 702 72 698 72 636 C72 574 76 570 138 570 C200 570 204 574 204 636 C204 698 200 702 138 702 L138 702 Z M342 702 C280 702 276 698 276 636 C276 574 280 570 342 570 C404 570 408 574 408 636 C408 698 404 702 342 702 L342 702 Z " />
<glyph glyph-name="copyright" unicode="&#xa9;" horiz-adv-x="852" d="M426 668 C204 668 77 548 77 328 C77 108 204 -12 426 -12 C648 -12 775 108 775 328 C775 548 648 668 426 668 L426 668 Z M426 73 C262 73 171 152 171 328 C171 504 262 582 426 582 C590 582 681 504 681 328 C681 152 590 73 426 73 L426 73 Z M433 226 C391 226 368 242 368 328 C368 414 391 430 433 430 C468 430 499 426 545 418 L558 506 C512 519 463 524 429 524 C314 524 250 486 250 328 C250 170 314 132 429 132 C463 132 512 137 558 150 L545 238 C499 230 468 226 433 226 L433 226 Z " />
<glyph glyph-name="ordfeminine" unicode="&#xaa;" horiz-adv-x="495" d="M448 346 C448 440 406 501 272 501 C209 501 135 488 65 466 L78 371 C140 387 198 397 239 397 C298 397 320 386 320 343 L320 317 C319 317 169 296 169 296 C88 283 35 240 35 141 C35 50 93 -9 185 -9 C243 -9 289 9 331 42 L342 0 L448 0 L448 346 Z M320 126 C295 111 255 98 225 98 C191 98 162 109 162 148 C162 180 174 200 218 206 L320 220 L320 126 Z " />
<glyph glyph-name="guillemotleft" unicode="&#xab;" horiz-adv-x="527" d="M257 274 L353 79 L461 96 L392 274 L461 452 L353 469 L257 274 Z M52 274 L148 79 L256 96 L187 274 L256 452 L148 469 L52 274 Z " />
<glyph glyph-name="logicalnot" unicode="&#xac;" horiz-adv-x="540" d="M64 329 L64 219 L356 219 L356 74 L476 74 L476 329 L64 329 Z " />
<glyph glyph-name="registered" unicode="&#xae;" horiz-adv-x="852" d="M426 668 C204 668 77 548 77 328 C77 108 204 -12 426 -12 C648 -12 775 108 775 328 C775 548 648 668 426 668 L426 668 Z M426 73 C262 73 171 152 171 328 C171 504 262 582 426 582 C590 582 681 504 681 328 C681 152 590 73 426 73 L426 73 Z M595 136 L542 239 C532 257 527 267 520 272 L520 273 C556 285 585 311 585 390 C585 491 537 518 441 518 L292 518 L292 136 L391 136 L392 262 L411 262 C429 262 431 257 437 246 L489 136 L595 136 Z M392 350 L392 430 L441 430 C475 430 484 416 484 390 C484 364 475 350 441 350 L392 350 Z " />
<glyph glyph-name="macron" unicode="&#xaf;" horiz-adv-x="444" d="M72 684 L72 588 L372 588 L372 684 L72 684 Z " />
<glyph glyph-name="degree" unicode="&#xb0;" horiz-adv-x="432" d="M70 522 C70 431 125 376 216 376 C307 376 362 431 362 522 C362 613 307 668 216 668 C125 668 70 613 70 522 L70 522 Z M152 522 C152 562 173 591 216 591 C259 591 280 562 280 522 C280 482 259 453 216 453 C173 453 152 482 152 522 L152 522 Z " />
<glyph glyph-name="plusminus" unicode="&#xb1;" horiz-adv-x="540" d="M64 388 L64 278 L209 278 L209 203 L331 203 L331 278 L476 278 L476 388 L331 388 L331 474 L209 474 L209 388 L64 388 Z M64 172 L64 62 L476 62 L476 172 L64 172 Z " />
<glyph glyph-name="twosuperior" unicode="&#xb2;" horiz-adv-x="339" d="M138 380 C138 397 141 399 206 433 C294 479 303 497 303 565 C303 646 255 662 168 662 C130 662 83 656 41 646 L54 564 C98 572 135 576 168 576 C195 576 204 571 204 555 C204 539 201 533 137 501 C55 460 36 424 36 371 L36 288 L299 288 L299 380 L138 380 Z " />
<glyph glyph-name="threesuperior" unicode="&#xb3;" horiz-adv-x="342" d="M242 473 C275 486 295 501 295 557 C295 647 252 662 159 662 C128 662 74 655 38 646 L51 564 C84 570 128 576 159 576 C191 576 199 571 199 548 C199 525 191 518 159 518 L107 518 L107 428 L159 428 C193 428 202 423 202 398 C202 373 193 368 159 368 C126 368 91 371 49 378 L36 296 C77 287 124 282 159 282 C251 282 300 293 300 389 C300 445 280 462 242 472 L242 473 Z " />
<glyph glyph-name="acute" unicode="&#xb4;" horiz-adv-x="311" d="M103 696 L72 557 L160 557 L239 696 L103 696 Z " />
<glyph glyph-name="micro" unicode="&#xb5;" horiz-adv-x="534" d="M219 -9 C282 -9 318 9 359 42 L370 0 L476 0 L476 492 L348 492 L348 130 C348 130 311 109 246 109 C205 109 186 125 186 174 L186 492 L58 492 L58 -202 L186 -183 L186 -2 C195 -7 208 -9 219 -9 L219 -9 Z " />
<glyph glyph-name="paragraph" unicode="&#xb6;" horiz-adv-x="583" d="M507 656 L285 656 C135 656 54 610 54 438 C54 318 93 244 205 226 L205 -202 L333 -183 L333 220 L379 220 L379 -202 L507 -183 L507 656 Z M183 438 C183 522 213 544 285 544 L379 544 L379 332 L285 332 C213 332 183 354 183 438 L183 438 Z " />
<glyph glyph-name="periodcentered" unicode="&#xb7;" horiz-adv-x="278" d="M139 351 C64 351 62 349 62 274 C62 199 64 197 139 197 C214 197 216 199 216 274 C216 349 214 351 139 351 L139 351 Z " />
<glyph glyph-name="cedilla" unicode="&#xb8;" horiz-adv-x="274" d="M89 9 L72 -155 L157 -170 L202 9 L89 9 Z " />
<glyph glyph-name="onesuperior" unicode="&#xb9;" horiz-adv-x="301" d="M34 288 L281 288 L281 380 L208 380 L208 663 L22 637 L31 554 L106 554 L106 380 L34 380 L34 288 Z " />
<glyph glyph-name="ordmasculine" unicode="&#xba;" horiz-adv-x="369" d="M184 662 C87 662 29 632 29 492 C29 352 87 322 184 322 C281 322 340 352 340 492 C340 632 281 662 184 662 L184 662 Z M184 403 C146 403 135 418 135 492 C135 566 146 581 184 581 C222 581 234 566 234 492 C234 418 222 403 184 403 L184 403 Z " />
<glyph glyph-name="guillemotright" unicode="&#xbb;" horiz-adv-x="527" d="M270 274 L174 469 L66 452 L135 274 L66 96 L174 79 L270 274 Z M475 274 L379 469 L271 452 L340 274 L271 96 L379 79 L475 274 Z " />
<glyph glyph-name="onequarter" unicode="&#xbc;" horiz-adv-x="833" d="M631 204 L631 139 L574 139 L574 141 L666 360 L560 375 L464 137 L464 49 L631 49 L631 0 L731 0 L731 49 L788 49 L788 139 L731 139 L731 204 L631 204 Z M37 288 L284 288 L284 380 L211 380 L211 663 L25 637 L34 554 L109 554 L109 380 L37 380 L37 288 Z M282 0 L657 656 L543 656 L167 0 L282 0 Z " />
<glyph glyph-name="onehalf" unicode="&#xbd;" horiz-adv-x="831" d="M37 288 L284 288 L284 380 L211 380 L211 663 L25 637 L34 554 L109 554 L109 380 L37 380 L37 288 Z M282 0 L657 656 L543 656 L167 0 L282 0 Z M626 92 C626 109 629 111 694 145 C782 191 791 209 791 277 C791 358 743 374 656 374 C618 374 571 368 529 358 L542 276 C586 284 623 288 656 288 C683 288 692 283 692 267 C692 251 689 245 625 213 C543 172 524 136 524 83 L524 0 L787 0 L787 92 L626 92 Z " />
<glyph glyph-name="threequarters" unicode="&#xbe;" horiz-adv-x="831" d="M629 204 L629 139 L572 139 L572 141 L664 360 L558 375 L462 137 L462 49 L629 49 L629 0 L729 0 L729 49 L786 49 L786 139 L729 139 L729 204 L629 204 Z M245 473 C278 486 298 501 298 557 C298 647 255 662 162 662 C131 662 77 655 41 646 L54 564 C87 570 131 576 162 576 C194 576 202 571 202 548 C202 525 194 518 162 518 L110 518 L110 428 L162 428 C196 428 205 423 205 398 C205 373 196 368 162 368 C129 368 94 371 52 378 L39 296 C80 287 127 282 162 282 C254 282 303 293 303 389 C303 445 283 462 245 472 L245 473 Z M280 0 L655 656 L541 656 L165 0 L280 0 Z " />
<glyph glyph-name="questiondown" unicode="&#xbf;" horiz-adv-x="477" d="M248 -173 C301 -173 374 -165 453 -147 L439 -39 C356 -53 305 -59 248 -59 C183 -59 166 -42 166 -12 C166 27 171 37 237 69 C341 119 360 154 348 234 L342 274 L232 274 L232 241 C232 199 214 187 151 156 C54 108 35 77 35 -12 C35 -138 96 -173 248 -173 L248 -173 Z M284 342 C359 342 361 344 361 419 C361 494 359 496 284 496 C209 496 207 494 207 419 C207 344 209 342 284 342 L284 342 Z " />
<glyph glyph-name="Agrave" unicode="&#xc0;" horiz-adv-x="614" d="M599 0 L394 656 L220 656 L15 0 L156 0 L193 120 L420 120 L457 0 L599 0 Z M230 240 L270 384 C288 450 305 522 305 522 L309 522 C309 522 325 450 343 384 L383 240 L230 240 Z M180 866 L259 727 L347 727 L316 866 L180 866 Z " />
<glyph glyph-name="Aacute" unicode="&#xc1;" horiz-adv-x="614" d="M599 0 L394 656 L220 656 L15 0 L156 0 L193 120 L420 120 L457 0 L599 0 Z M230 240 L270 384 C288 450 305 522 305 522 L309 522 C309 522 325 450 343 384 L383 240 L230 240 Z M299 866 L268 727 L356 727 L435 866 L299 866 Z " />
<glyph glyph-name="Acircumflex" unicode="&#xc2;" horiz-adv-x="614" d="M599 0 L394 656 L220 656 L15 0 L156 0 L193 120 L420 120 L457 0 L599 0 Z M230 240 L270 384 C288 450 305 522 305 522 L309 522 C309 522 325 450 343 384 L383 240 L230 240 Z M468 768 L360 866 L254 866 L146 768 L228 725 L306 786 L308 786 L386 725 L468 768 Z " />
<glyph glyph-name="Atilde" unicode="&#xc3;" horiz-adv-x="614" d="M599 0 L394 656 L220 656 L15 0 L156 0 L193 120 L420 120 L457 0 L599 0 Z M230 240 L270 384 C288 450 305 522 305 522 L309 522 C309 522 325 450 343 384 L383 240 L230 240 Z M390 867 C387 843 380 838 375 836 C369 834 356 834 337 841 L293 858 C246 876 211 873 187 859 C164 845 144 818 136 754 L224 740 C227 764 234 769 239 771 C245 773 257 773 277 766 L321 749 C368 731 404 735 428 749 C451 762 470 788 478 853 L390 867 Z " />
<glyph glyph-name="Adieresis" unicode="&#xc4;" horiz-adv-x="614" d="M599 0 L394 656 L220 656 L15 0 L156 0 L193 120 L420 120 L457 0 L599 0 Z M230 240 L270 384 C288 450 305 522 305 522 L309 522 C309 522 325 450 343 384 L383 240 L230 240 Z M205 872 C143 872 139 868 139 806 C139 744 143 740 205 740 C267 740 271 744 271 806 C271 868 267 872 205 872 L205 872 Z M409 872 C347 872 343 868 343 806 C343 744 347 740 409 740 C471 740 475 744 475 806 C475 868 471 872 409 872 L409 872 Z " />
<glyph glyph-name="Aring" unicode="&#xc5;" horiz-adv-x="614" d="M599 0 L394 656 L220 656 L15 0 L156 0 L193 120 L420 120 L457 0 L599 0 Z M230 240 L270 384 C288 450 305 522 305 522 L309 522 C309 522 325 450 343 384 L383 240 L230 240 Z M307 866 C335 866 343 857 343 822 C343 787 336 776 307 776 C278 776 271 787 271 822 C271 856 278 866 307 866 L307 866 Z M307 928 C228 928 193 900 193 822 C193 744 228 714 307 714 C386 714 421 744 421 822 C421 900 386 928 307 928 L307 928 Z " />
<glyph glyph-name="AE" unicode="&#xc6;" horiz-adv-x="956" d="M912 656 L436 656 L2 0 L168 0 L244 120 L478 120 L478 0 L918 0 L918 120 L612 120 L612 269 L888 269 L888 389 L612 389 L612 536 L912 536 L912 656 Z M321 240 L409 384 C448 448 474 502 474 502 L478 502 L478 240 L321 240 Z " />
<glyph glyph-name="Ccedilla" unicode="&#xc7;" horiz-adv-x="545" d="M187 328 C187 529 241 549 334 549 C375 549 432 542 487 532 L501 639 C456 652 371 665 315 665 C142 665 42 603 42 328 C42 99 111 18 234 -3 L218 -155 L303 -170 L343 -8 C397 -5 463 6 501 17 L487 124 C432 114 375 107 334 107 C241 107 187 127 187 328 L187 328 Z " />
<glyph glyph-name="Egrave" unicode="&#xc8;" horiz-adv-x="544" d="M500 656 L66 656 L66 0 L506 0 L506 120 L200 120 L200 269 L476 269 L476 389 L200 389 L200 536 L500 536 L500 656 Z M160 866 L239 727 L327 727 L296 866 L160 866 Z " />
<glyph glyph-name="Eacute" unicode="&#xc9;" horiz-adv-x="544" d="M500 656 L66 656 L66 0 L506 0 L506 120 L200 120 L200 269 L476 269 L476 389 L200 389 L200 536 L500 536 L500 656 Z M269 866 L238 727 L326 727 L405 866 L269 866 Z " />
<glyph glyph-name="Ecircumflex" unicode="&#xca;" horiz-adv-x="544" d="M500 656 L66 656 L66 0 L506 0 L506 120 L200 120 L200 269 L476 269 L476 389 L200 389 L200 536 L500 536 L500 656 Z M444 768 L336 866 L230 866 L122 768 L204 725 L282 786 L284 786 L362 725 L444 768 Z " />
<glyph glyph-name="Edieresis" unicode="&#xcb;" horiz-adv-x="544" d="M500 656 L66 656 L66 0 L506 0 L506 120 L200 120 L200 269 L476 269 L476 389 L200 389 L200 536 L500 536 L500 656 Z M181 872 C119 872 115 868 115 806 C115 744 119 740 181 740 C243 740 247 744 247 806 C247 868 243 872 181 872 L181 872 Z M385 872 C323 872 319 868 319 806 C319 744 323 740 385 740 C447 740 451 744 451 806 C451 868 447 872 385 872 L385 872 Z " />
<glyph glyph-name="Igrave" unicode="&#xcc;" horiz-adv-x="278" d="M206 656 L72 656 L72 0 L206 0 L206 656 Z M14 866 L93 727 L181 727 L150 866 L14 866 Z " />
<glyph glyph-name="Iacute" unicode="&#xcd;" horiz-adv-x="278" d="M206 656 L72 656 L72 0 L206 0 L206 656 Z M129 866 L98 727 L186 727 L265 866 L129 866 Z " />
<glyph glyph-name="Icircumflex" unicode="&#xce;" horiz-adv-x="278" d="M206 656 L72 656 L72 0 L206 0 L206 656 Z M300 768 L192 866 L86 866 L-22 768 L60 725 L138 786 L140 786 L218 725 L300 768 Z " />
<glyph glyph-name="Idieresis" unicode="&#xcf;" horiz-adv-x="278" d="M206 656 L72 656 L72 0 L206 0 L206 656 Z M37 873 C-25 873 -29 869 -29 807 C-29 745 -25 741 37 741 C99 741 103 745 103 807 C103 869 99 873 37 873 L37 873 Z M241 873 C179 873 175 869 175 807 C175 745 179 741 241 741 C303 741 307 745 307 807 C307 869 303 873 241 873 L241 873 Z " />
<glyph glyph-name="Eth" unicode="&#xd0;" horiz-adv-x="609" d="M66 656 L66 375 L-16 375 L-16 281 L66 281 L66 0 L282 0 C452 0 567 40 567 328 C567 616 452 656 282 656 L66 656 Z M200 120 L200 281 L307 281 L307 375 L200 375 L200 536 L271 536 C389 536 425 518 425 328 C425 138 389 120 271 120 L200 120 Z " />
<glyph glyph-name="Ntilde" unicode="&#xd1;" horiz-adv-x="640" d="M440 656 L440 359 C440 297 446 228 446 228 L442 228 L202 656 L66 656 L66 0 L200 0 L200 297 C200 359 194 429 194 429 L198 429 L438 0 L574 0 L574 656 L440 656 Z M403 867 C400 843 393 838 388 836 C382 834 369 834 350 841 L306 858 C259 876 224 873 200 859 C177 845 157 818 149 754 L237 740 C240 764 247 769 252 771 C258 773 270 773 290 766 L334 749 C381 731 417 735 441 749 C464 762 483 788 491 853 L403 867 Z " />
<glyph glyph-name="Ograve" unicode="&#xd2;" horiz-adv-x="616" d="M42 328 C42 62 122 -13 308 -13 C494 -13 574 63 574 328 C574 594 494 669 308 669 C122 669 42 594 42 328 L42 328 Z M187 328 C187 526 216 557 308 557 C400 557 429 526 429 328 C429 131 400 99 308 99 C216 99 187 130 187 328 L187 328 Z M181 866 L260 727 L348 727 L317 866 L181 866 Z " />
<glyph glyph-name="Oacute" unicode="&#xd3;" horiz-adv-x="616" d="M42 328 C42 62 122 -13 308 -13 C494 -13 574 63 574 328 C574 594 494 669 308 669 C122 669 42 594 42 328 L42 328 Z M187 328 C187 526 216 557 308 557 C400 557 429 526 429 328 C429 131 400 99 308 99 C216 99 187 130 187 328 L187 328 Z M300 866 L269 727 L357 727 L436 866 L300 866 Z " />
<glyph glyph-name="Ocircumflex" unicode="&#xd4;" horiz-adv-x="616" d="M42 328 C42 62 122 -13 308 -13 C494 -13 574 63 574 328 C574 594 494 669 308 669 C122 669 42 594 42 328 L42 328 Z M187 328 C187 526 216 557 308 557 C400 557 429 526 429 328 C429 131 400 99 308 99 C216 99 187 130 187 328 L187 328 Z M469 762 L361 860 L255 860 L147 762 L229 719 L307 780 L309 780 L387 719 L469 762 Z " />
<glyph glyph-name="Otilde" unicode="&#xd5;" horiz-adv-x="616" d="M42 328 C42 62 122 -13 308 -13 C494 -13 574 63 574 328 C574 594 494 669 308 669 C122 669 42 594 42 328 L42 328 Z M187 328 C187 526 216 557 308 557 C400 557 429 526 429 328 C429 131 400 99 308 99 C216 99 187 130 187 328 L187 328 Z M391 867 C388 843 381 838 376 836 C370 834 357 834 338 841 L294 858 C247 876 212 873 188 859 C165 845 145 818 137 754 L225 740 C228 764 235 769 240 771 C246 773 258 773 278 766 L322 749 C369 731 405 735 429 749 C452 762 471 788 479 853 L391 867 Z " />
<glyph glyph-name="Odieresis" unicode="&#xd6;" horiz-adv-x="616" d="M42 328 C42 62 122 -13 308 -13 C494 -13 574 63 574 328 C574 594 494 669 308 669 C122 669 42 594 42 328 L42 328 Z M187 328 C187 526 216 557 308 557 C400 557 429 526 429 328 C429 131 400 99 308 99 C216 99 187 130 187 328 L187 328 Z M206 872 C144 872 140 868 140 806 C140 744 144 740 206 740 C268 740 272 744 272 806 C272 868 268 872 206 872 L206 872 Z M410 872 C348 872 344 868 344 806 C344 744 348 740 410 740 C472 740 476 744 476 806 C476 868 472 872 410 872 L410 872 Z " />
<glyph glyph-name="multiply" unicode="&#xd7;" horiz-adv-x="540" d="M270 354 L140 484 L60 404 L190 274 L60 144 L140 64 L270 194 L400 64 L480 144 L350 274 L480 404 L400 484 L270 354 Z " />
<glyph glyph-name="Oslash" unicode="&#xd8;" horiz-adv-x="616" d="M42 328 C42 196 62 111 104 59 L33 -66 L133 -66 L175 7 C211 -7 255 -13 308 -13 C494 -13 574 63 574 328 C574 460 554 545 512 597 L583 722 L483 722 L441 648 C405 663 360 669 308 669 C122 669 42 594 42 328 L42 328 Z M187 328 C187 526 216 557 308 557 C338 557 362 553 380 542 L192 213 C189 243 187 281 187 328 L187 328 Z M429 328 C429 131 400 99 308 99 C277 99 254 102 236 114 L423 442 C427 412 429 375 429 328 L429 328 Z " />
<glyph glyph-name="Ugrave" unicode="&#xd9;" horiz-adv-x="632" d="M567 656 L433 656 L433 223 C433 137 382 111 316 111 C250 111 199 137 199 223 L199 656 L65 656 L65 238 C65 104 115 -9 316 -9 C517 -9 567 104 567 238 L567 656 Z M189 866 L268 727 L356 727 L325 866 L189 866 Z " />
<glyph glyph-name="Uacute" unicode="&#xda;" horiz-adv-x="632" d="M567 656 L433 656 L433 223 C433 137 382 111 316 111 C250 111 199 137 199 223 L199 656 L65 656 L65 238 C65 104 115 -9 316 -9 C517 -9 567 104 567 238 L567 656 Z M308 866 L277 727 L365 727 L444 866 L308 866 Z " />
<glyph glyph-name="Ucircumflex" unicode="&#xdb;" horiz-adv-x="632" d="M567 656 L433 656 L433 223 C433 137 382 111 316 111 C250 111 199 137 199 223 L199 656 L65 656 L65 238 C65 104 115 -9 316 -9 C517 -9 567 104 567 238 L567 656 Z M477 768 L369 866 L263 866 L155 768 L237 725 L315 786 L317 786 L395 725 L477 768 Z " />
<glyph glyph-name="Udieresis" unicode="&#xdc;" horiz-adv-x="632" d="M567 656 L433 656 L433 223 C433 137 382 111 316 111 C250 111 199 137 199 223 L199 656 L65 656 L65 238 C65 104 115 -9 316 -9 C517 -9 567 104 567 238 L567 656 Z M214 872 C152 872 148 868 148 806 C148 744 152 740 214 740 C276 740 280 744 280 806 C280 868 276 872 214 872 L214 872 Z M418 872 C356 872 352 868 352 806 C352 744 356 740 418 740 C480 740 484 744 484 806 C484 868 480 872 418 872 L418 872 Z " />
<glyph glyph-name="Yacute" unicode="&#xdd;" horiz-adv-x="586" d="M420 656 L349 500 C321 439 295 376 295 376 L291 376 C291 376 265 439 237 500 L166 656 L12 656 L225 230 L225 0 L361 0 L361 230 L574 656 L420 656 Z M283 866 L252 727 L340 727 L419 866 L283 866 Z " />
<glyph glyph-name="Thorn" unicode="&#xde;" horiz-adv-x="560" d="M66 656 L66 0 L200 0 L200 112 L320 112 C449 112 538 165 538 333 C538 501 449 554 320 554 L200 554 L200 656 L66 656 Z M200 232 L200 434 L301 434 C375 434 400 415 400 333 C400 251 375 232 301 232 L200 232 Z " />
<glyph glyph-name="germandbls" unicode="&#xdf;" horiz-adv-x="549" d="M383 184 C383 107 361 92 311 92 C278 92 271 92 233 99 L221 9 C256 -2 296 -9 333 -9 C458 -9 513 40 513 184 C513 329 456 376 369 380 L369 389 C369 405 373 413 410 451 C449 491 458 518 458 557 C458 649 395 705 260 705 C131 705 58 653 58 545 L58 0 L186 0 L186 531 C186 582 209 604 260 604 C307 604 332 589 332 564 C332 537 328 525 296 491 C248 440 246 400 254 340 L263 276 L311 276 C358 276 383 261 383 184 L383 184 Z " />
<glyph glyph-name="agrave" unicode="&#xe0;" horiz-adv-x="500" d="M444 346 C444 440 402 501 268 501 C205 501 131 488 61 466 L74 371 C136 387 194 397 235 397 C294 397 316 386 316 343 L316 317 C315 317 165 296 165 296 C84 283 31 240 31 141 C31 50 89 -9 181 -9 C239 -9 285 9 327 42 L338 0 L444 0 L444 346 Z M316 126 C291 111 251 98 221 98 C187 98 158 109 158 148 C158 180 170 200 214 206 L316 220 L316 126 Z M127 696 L206 557 L294 557 L263 696 L127 696 Z " />
<glyph glyph-name="aacute" unicode="&#xe1;" horiz-adv-x="500" d="M444 346 C444 440 402 501 268 501 C205 501 131 488 61 466 L74 371 C136 387 194 397 235 397 C294 397 316 386 316 343 L316 317 C315 317 165 296 165 296 C84 283 31 240 31 141 C31 50 89 -9 181 -9 C239 -9 285 9 327 42 L338 0 L444 0 L444 346 Z M316 126 C291 111 251 98 221 98 C187 98 158 109 158 148 C158 180 170 200 214 206 L316 220 L316 126 Z M240 696 L209 557 L297 557 L376 696 L240 696 Z " />
<glyph glyph-name="acircumflex" unicode="&#xe2;" horiz-adv-x="500" d="M444 346 C444 440 402 501 268 501 C205 501 131 488 61 466 L74 371 C136 387 194 397 235 397 C294 397 316 386 316 343 L316 317 C315 317 165 296 165 296 C84 283 31 240 31 141 C31 50 89 -9 181 -9 C239 -9 285 9 327 42 L338 0 L444 0 L444 346 Z M413 598 L305 696 L199 696 L91 598 L173 555 L251 616 L253 616 L331 555 L413 598 Z M316 126 C291 111 251 98 221 98 C187 98 158 109 158 148 C158 180 170 200 214 206 L316 220 L316 126 Z " />
<glyph glyph-name="atilde" unicode="&#xe3;" horiz-adv-x="500" d="M444 346 C444 440 402 501 268 501 C205 501 131 488 61 466 L74 371 C136 387 194 397 235 397 C294 397 316 386 316 343 L316 317 C315 317 165 296 165 296 C84 283 31 240 31 141 C31 50 89 -9 181 -9 C239 -9 285 9 327 42 L338 0 L444 0 L444 346 Z M334 697 C331 673 324 668 319 666 C313 664 300 664 281 671 L237 688 C190 706 155 703 131 689 C108 675 88 648 80 584 L168 570 C171 594 178 599 183 601 C189 603 201 603 221 596 L265 579 C312 561 348 565 372 579 C395 592 414 618 422 683 L334 697 Z M316 126 C291 111 251 98 221 98 C187 98 158 109 158 148 C158 180 170 200 214 206 L316 220 L316 126 Z " />
<glyph glyph-name="adieresis" unicode="&#xe4;" horiz-adv-x="500" d="M444 346 C444 440 402 501 268 501 C205 501 131 488 61 466 L74 371 C136 387 194 397 235 397 C294 397 316 386 316 343 L316 317 C315 317 165 296 165 296 C84 283 31 240 31 141 C31 50 89 -9 181 -9 C239 -9 285 9 327 42 L338 0 L444 0 L444 346 Z M354 702 C292 702 288 698 288 636 C288 574 292 570 354 570 C416 570 420 574 420 636 C420 698 416 702 354 702 L354 702 Z M150 702 C88 702 84 698 84 636 C84 574 88 570 150 570 C212 570 216 574 216 636 C216 698 212 702 150 702 L150 702 Z M316 126 C291 111 251 98 221 98 C187 98 158 109 158 148 C158 180 170 200 214 206 L316 220 L316 126 Z " />
<glyph glyph-name="aring" unicode="&#xe5;" horiz-adv-x="500" d="M444 346 C444 440 402 501 268 501 C205 501 131 488 61 466 L74 371 C136 387 194 397 235 397 C294 397 316 386 316 343 L316 317 C315 317 165 296 165 296 C84 283 31 240 31 141 C31 50 89 -9 181 -9 C239 -9 285 9 327 42 L338 0 L444 0 L444 346 Z M251 758 C172 758 137 730 137 652 C137 574 172 544 251 544 C330 544 365 574 365 652 C365 730 330 758 251 758 L251 758 Z M316 126 C291 111 251 98 221 98 C187 98 158 109 158 148 C158 180 170 200 214 206 L316 220 L316 126 Z M251 696 C279 696 287 687 287 652 C287 617 280 606 251 606 C222 606 215 617 215 652 C215 686 222 696 251 696 L251 696 Z " />
<glyph glyph-name="ae" unicode="&#xe6;" horiz-adv-x="765" d="M725 246 C725 434 670 501 520 501 C467 501 429 485 399 461 C364 492 323 501 268 501 C205 501 131 488 61 466 L74 371 C136 387 194 397 235 397 C294 397 316 386 316 343 L316 317 C315 317 165 296 165 296 C84 283 31 240 31 141 C31 50 89 -9 181 -9 C271 -9 306 6 368 42 C404 2 458 -9 535 -9 C580 -9 641 -3 703 14 L690 109 C640 100 591 94 551 94 C484 94 445 111 445 193 L725 193 L725 246 Z M221 98 C187 98 158 109 158 148 C158 180 170 200 214 206 L316 220 L316 216 C317 183 321 155 326 130 C300 112 266 98 221 98 L221 98 Z M444 372 C460 389 491 399 520 399 C580 399 596 375 596 289 L444 289 L444 372 Z " />
<glyph glyph-name="ccedilla" unicode="&#xe7;" horiz-adv-x="451" d="M278 95 C194 95 170 115 170 246 C170 377 194 397 278 397 C317 397 350 394 402 384 L415 479 C365 493 311 501 259 501 C133 501 34 469 34 246 C34 64 99 10 191 -4 L176 -155 L261 -170 L302 -7 C340 -4 378 3 415 13 L402 109 C350 99 317 95 278 95 L278 95 Z " />
<glyph glyph-name="egrave" unicode="&#xe8;" horiz-adv-x="492" d="M452 246 C452 434 397 501 247 501 C97 501 36 438 36 246 C36 30 114 -9 262 -9 C307 -9 368 -3 430 14 L417 109 C367 100 318 94 278 94 C211 94 172 111 172 193 L452 193 L452 246 Z M171 289 C171 376 187 399 247 399 C307 399 323 375 323 289 L171 289 Z M121 696 L200 557 L288 557 L257 696 L121 696 Z " />
<glyph glyph-name="eacute" unicode="&#xe9;" horiz-adv-x="492" d="M452 246 C452 434 397 501 247 501 C97 501 36 438 36 246 C36 30 114 -9 262 -9 C307 -9 368 -3 430 14 L417 109 C367 100 318 94 278 94 C211 94 172 111 172 193 L452 193 L452 246 Z M171 289 C171 376 187 399 247 399 C307 399 323 375 323 289 L171 289 Z M236 696 L205 557 L293 557 L372 696 L236 696 Z " />
<glyph glyph-name="ecircumflex" unicode="&#xea;" horiz-adv-x="492" d="M452 246 C452 434 397 501 247 501 C97 501 36 438 36 246 C36 30 114 -9 262 -9 C307 -9 368 -3 430 14 L417 109 C367 100 318 94 278 94 C211 94 172 111 172 193 L452 193 L452 246 Z M171 289 C171 376 187 399 247 399 C307 399 323 375 323 289 L171 289 Z M407 598 L299 696 L193 696 L85 598 L167 555 L245 616 L247 616 L325 555 L407 598 Z " />
<glyph glyph-name="edieresis" unicode="&#xeb;" horiz-adv-x="492" d="M452 246 C452 434 397 501 247 501 C97 501 36 438 36 246 C36 30 114 -9 262 -9 C307 -9 368 -3 430 14 L417 109 C367 100 318 94 278 94 C211 94 172 111 172 193 L452 193 L452 246 Z M171 289 C171 376 187 399 247 399 C307 399 323 375 323 289 L171 289 Z M144 702 C82 702 78 698 78 636 C78 574 82 570 144 570 C206 570 210 574 210 636 C210 698 206 702 144 702 L144 702 Z M348 702 C286 702 282 698 282 636 C282 574 286 570 348 570 C410 570 414 574 414 636 C414 698 410 702 348 702 L348 702 Z " />
<glyph glyph-name="igrave" unicode="&#xec;" horiz-adv-x="260" d="M194 492 L66 492 L66 0 L194 0 L194 492 Z M5 696 L84 557 L172 557 L141 696 L5 696 Z " />
<glyph glyph-name="iacute" unicode="&#xed;" horiz-adv-x="260" d="M194 492 L66 492 L66 0 L194 0 L194 492 Z M120 696 L89 557 L177 557 L256 696 L120 696 Z " />
<glyph glyph-name="icircumflex" unicode="&#xee;" horiz-adv-x="260" d="M194 492 L66 492 L66 0 L194 0 L194 492 Z M291 598 L183 696 L77 696 L-31 598 L51 555 L129 616 L131 616 L209 555 L291 598 Z " />
<glyph glyph-name="idieresis" unicode="&#xef;" horiz-adv-x="260" d="M194 492 L66 492 L66 0 L194 0 L194 492 Z M28 702 C-34 702 -38 698 -38 636 C-38 574 -34 570 28 570 C90 570 94 574 94 636 C94 698 90 702 28 702 L28 702 Z M232 702 C170 702 166 698 166 636 C166 574 170 570 232 570 C294 570 298 574 298 636 C298 698 294 702 232 702 L232 702 Z " />
<glyph glyph-name="eth" unicode="&#xf0;" horiz-adv-x="512" d="M211 536 L310 550 C318 523 324 497 328 474 C301 490 267 501 223 501 C124 501 34 435 34 240 C34 51 106 -12 256 -12 C406 -12 478 51 478 240 C478 368 465 478 435 568 L523 581 L510 660 L402 644 C391 665 379 684 366 702 L261 686 C270 668 278 648 286 627 L198 615 L211 536 Z M256 90 C193 90 169 120 169 240 C169 338 189 384 245 384 C285 384 312 378 337 369 C342 320 343 281 343 240 C343 120 319 90 256 90 L256 90 Z " />
<glyph glyph-name="ntilde" unicode="&#xf1;" horiz-adv-x="532" d="M325 501 C262 501 208 475 175 450 L164 492 L58 492 L58 0 L186 0 L186 362 C186 362 223 383 288 383 C329 383 348 367 348 318 L348 0 L476 0 L476 345 C476 444 427 501 325 501 L325 501 Z M350 697 C347 673 340 668 335 666 C329 664 316 664 297 671 L253 688 C206 706 171 703 147 689 C124 675 104 648 96 584 L184 570 C187 594 194 599 199 601 C205 603 217 603 237 596 L281 579 C328 561 364 565 388 579 C411 592 430 618 438 683 L350 697 Z " />
<glyph glyph-name="ograve" unicode="&#xf2;" horiz-adv-x="518" d="M259 504 C114 504 34 451 34 246 C34 41 114 -12 259 -12 C404 -12 484 41 484 246 C484 451 404 504 259 504 L259 504 Z M259 90 C190 90 170 116 170 246 C170 376 190 402 259 402 C328 402 348 376 348 246 C348 116 328 90 259 90 L259 90 Z M134 696 L213 557 L301 557 L270 696 L134 696 Z " />
<glyph glyph-name="oacute" unicode="&#xf3;" horiz-adv-x="518" d="M259 504 C114 504 34 451 34 246 C34 41 114 -12 259 -12 C404 -12 484 41 484 246 C484 451 404 504 259 504 L259 504 Z M259 90 C190 90 170 116 170 246 C170 376 190 402 259 402 C328 402 348 376 348 246 C348 116 328 90 259 90 L259 90 Z M249 696 L218 557 L306 557 L385 696 L249 696 Z " />
<glyph glyph-name="ocircumflex" unicode="&#xf4;" horiz-adv-x="518" d="M259 504 C114 504 34 451 34 246 C34 41 114 -12 259 -12 C404 -12 484 41 484 246 C484 451 404 504 259 504 L259 504 Z M259 90 C190 90 170 116 170 246 C170 376 190 402 259 402 C328 402 348 376 348 246 C348 116 328 90 259 90 L259 90 Z M420 598 L312 696 L206 696 L98 598 L180 555 L258 616 L260 616 L338 555 L420 598 Z " />
<glyph glyph-name="otilde" unicode="&#xf5;" horiz-adv-x="518" d="M259 504 C114 504 34 451 34 246 C34 41 114 -12 259 -12 C404 -12 484 41 484 246 C484 451 404 504 259 504 L259 504 Z M259 90 C190 90 170 116 170 246 C170 376 190 402 259 402 C328 402 348 376 348 246 C348 116 328 90 259 90 L259 90 Z M342 697 C339 673 332 668 327 666 C321 664 308 664 289 671 L245 688 C198 706 163 703 139 689 C116 675 96 648 88 584 L176 570 C179 594 186 599 191 601 C197 603 209 603 229 596 L273 579 C320 561 356 565 380 579 C403 592 422 618 430 683 L342 697 Z " />
<glyph glyph-name="odieresis" unicode="&#xf6;" horiz-adv-x="518" d="M259 504 C114 504 34 451 34 246 C34 41 114 -12 259 -12 C404 -12 484 41 484 246 C484 451 404 504 259 504 L259 504 Z M259 90 C190 90 170 116 170 246 C170 376 190 402 259 402 C328 402 348 376 348 246 C348 116 328 90 259 90 L259 90 Z M157 702 C95 702 91 698 91 636 C91 574 95 570 157 570 C219 570 223 574 223 636 C223 698 219 702 157 702 L157 702 Z M361 702 C299 702 295 698 295 636 C295 574 299 570 361 570 C423 570 427 574 427 636 C427 698 423 702 361 702 L361 702 Z " />
<glyph glyph-name="divide" unicode="&#xf7;" horiz-adv-x="540" d="M64 329 L64 219 L476 219 L476 329 L64 329 Z M270 506 C206 506 202 502 202 438 C202 374 206 370 270 370 C334 370 338 374 338 438 C338 502 334 506 270 506 L270 506 Z M270 180 C206 180 202 176 202 112 C202 48 206 44 270 44 C334 44 338 48 338 112 C338 176 334 180 270 180 L270 180 Z " />
<glyph glyph-name="oslash" unicode="&#xf8;" horiz-adv-x="518" d="M259 504 C114 504 34 451 34 246 C34 141 55 76 94 38 L35 -66 L127 -66 L164 -1 C191 -9 223 -12 259 -12 C404 -12 484 41 484 246 C484 350 463 415 423 454 L483 558 L391 558 L354 493 C326 501 294 504 259 504 L259 504 Z M170 246 C170 376 190 402 259 402 C275 402 288 400 299 397 L173 175 C171 194 170 218 170 246 L170 246 Z M259 90 C243 90 230 91 219 95 L345 316 C347 297 348 274 348 246 C348 116 328 90 259 90 L259 90 Z " />
<glyph glyph-name="ugrave" unicode="&#xf9;" horiz-adv-x="532" d="M207 -9 C270 -9 324 17 357 42 L368 0 L474 0 L474 492 L346 492 L346 130 C346 130 309 109 244 109 C203 109 184 125 184 174 L184 492 L56 492 L56 147 C56 48 105 -9 207 -9 L207 -9 Z M142 696 L221 557 L309 557 L278 696 L142 696 Z " />
<glyph glyph-name="uacute" unicode="&#xfa;" horiz-adv-x="532" d="M207 -9 C270 -9 324 17 357 42 L368 0 L474 0 L474 492 L346 492 L346 130 C346 130 309 109 244 109 C203 109 184 125 184 174 L184 492 L56 492 L56 147 C56 48 105 -9 207 -9 L207 -9 Z M253 696 L222 557 L310 557 L389 696 L253 696 Z " />
<glyph glyph-name="ucircumflex" unicode="&#xfb;" horiz-adv-x="532" d="M207 -9 C270 -9 324 17 357 42 L368 0 L474 0 L474 492 L346 492 L346 130 C346 130 309 109 244 109 C203 109 184 125 184 174 L184 492 L56 492 L56 147 C56 48 105 -9 207 -9 L207 -9 Z M426 598 L318 696 L212 696 L104 598 L186 555 L264 616 L266 616 L344 555 L426 598 Z " />
<glyph glyph-name="udieresis" unicode="&#xfc;" horiz-adv-x="532" d="M207 -9 C270 -9 324 17 357 42 L368 0 L474 0 L474 492 L346 492 L346 130 C346 130 309 109 244 109 C203 109 184 125 184 174 L184 492 L56 492 L56 147 C56 48 105 -9 207 -9 L207 -9 Z M163 702 C101 702 97 698 97 636 C97 574 101 570 163 570 C225 570 229 574 229 636 C229 698 225 702 163 702 L163 702 Z M367 702 C305 702 301 698 301 636 C301 574 305 570 367 570 C429 570 433 574 433 636 C433 698 429 702 367 702 L367 702 Z " />
<glyph glyph-name="yacute" unicode="&#xfd;" horiz-adv-x="506" d="M357 492 L294 280 C275 214 255 140 255 140 L251 140 C251 140 231 214 212 280 L149 492 L14 492 L187 0 L180 -25 C163 -87 144 -91 61 -103 L75 -203 C227 -191 257 -177 319 0 L492 492 L357 492 Z M243 696 L212 557 L300 557 L379 696 L243 696 Z " />
<glyph glyph-name="thorn" unicode="&#xfe;" horiz-adv-x="531" d="M319 501 C271 501 220 482 186 458 L186 704 L58 684 L58 -202 L186 -183 L186 34 C220 10 271 -9 319 -9 C411 -9 495 57 495 246 C495 435 411 501 319 501 L319 501 Z M286 108 C231 108 186 130 186 130 L186 362 C186 362 231 384 286 384 C338 384 360 344 360 246 C360 148 338 108 286 108 L286 108 Z " />
<glyph glyph-name="ydieresis" unicode="&#xff;" horiz-adv-x="506" d="M357 492 L294 280 C275 214 255 140 255 140 L251 140 C251 140 231 214 212 280 L149 492 L14 492 L187 0 L180 -25 C163 -87 144 -91 61 -103 L75 -203 C227 -191 257 -177 319 0 L492 492 L357 492 Z M151 702 C89 702 85 698 85 636 C85 574 89 570 151 570 C213 570 217 574 217 636 C217 698 213 702 151 702 L151 702 Z M355 702 C293 702 289 698 289 636 C289 574 293 570 355 570 C417 570 421 574 421 636 C421 698 417 702 355 702 L355 702 Z " />
<glyph glyph-name="Amacron" unicode="&#x100;" horiz-adv-x="614" d="M599 0 L394 656 L220 656 L15 0 L156 0 L193 120 L420 120 L457 0 L599 0 Z M230 240 L270 384 C288 450 305 522 305 522 L309 522 C309 522 325 450 343 384 L383 240 L230 240 Z M157 854 L157 758 L457 758 L457 854 L157 854 Z " />
<glyph glyph-name="amacron" unicode="&#x101;" horiz-adv-x="500" d="M444 346 C444 440 402 501 268 501 C205 501 131 488 61 466 L74 371 C136 387 194 397 235 397 C294 397 316 386 316 343 L316 317 C315 317 165 296 165 296 C84 283 31 240 31 141 C31 50 89 -9 181 -9 C239 -9 285 9 327 42 L338 0 L444 0 L444 346 Z M101 684 L101 588 L401 588 L401 684 L101 684 Z M316 126 C291 111 251 98 221 98 C187 98 158 109 158 148 C158 180 170 200 214 206 L316 220 L316 126 Z " />
<glyph glyph-name="Abreve" unicode="&#x102;" horiz-adv-x="614" d="M599 0 L394 656 L220 656 L15 0 L156 0 L193 120 L420 120 L457 0 L599 0 Z M230 240 L270 384 C288 450 305 522 305 522 L309 522 C309 522 325 450 343 384 L383 240 L230 240 Z M143 857 C147 812 162 787 178 771 C197 753 240 737 307 737 C374 737 417 753 436 771 C452 787 467 812 471 857 L379 870 C377 850 368 841 362 837 C354 831 343 828 307 828 C271 828 260 831 252 837 C246 841 237 850 235 870 L143 857 Z " />
<glyph glyph-name="abreve" unicode="&#x103;" horiz-adv-x="500" d="M444 346 C444 440 402 501 268 501 C205 501 131 488 61 466 L74 371 C136 387 194 397 235 397 C294 397 316 386 316 343 L316 317 C315 317 165 296 165 296 C84 283 31 240 31 141 C31 50 89 -9 181 -9 C239 -9 285 9 327 42 L338 0 L444 0 L444 346 Z M87 687 C91 642 106 617 122 601 C141 583 184 567 251 567 C318 567 361 583 380 601 C396 617 411 642 415 687 L323 700 C321 680 312 671 306 667 C298 661 287 658 251 658 C215 658 204 661 196 667 C190 671 181 680 179 700 L87 687 Z M316 126 C291 111 251 98 221 98 C187 98 158 109 158 148 C158 180 170 200 214 206 L316 220 L316 126 Z " />
<glyph glyph-name="Aogonek" unicode="&#x104;" horiz-adv-x="614" d="M599 0 L394 656 L220 656 L15 0 L156 0 L193 120 L420 120 L457 0 L487 0 L441 -37 C408 -63 396 -85 396 -122 C396 -182 437 -202 502 -202 C522 -202 556 -200 594 -193 L585 -113 C559 -117 539 -119 525 -119 C502 -119 498 -115 498 -105 C498 -96 501 -89 529 -64 L599 0 Z M230 240 L270 384 C288 450 305 522 305 522 L309 522 C309 522 325 450 343 384 L383 240 L230 240 Z " />
<glyph glyph-name="aogonek" unicode="&#x105;" horiz-adv-x="500" d="M444 346 C444 440 402 501 268 501 C205 501 131 488 61 466 L74 371 C136 387 194 397 235 397 C294 397 316 386 316 343 L316 317 C315 317 165 296 165 296 C84 283 31 240 31 141 C31 50 89 -9 181 -9 C239 -9 285 9 327 42 L337 4 L286 -37 C253 -63 241 -85 241 -122 C241 -182 282 -202 347 -202 C367 -202 401 -200 439 -193 L430 -113 C404 -117 384 -119 370 -119 C347 -119 343 -115 343 -105 C343 -96 346 -89 374 -64 L444 0 L444 346 Z M316 126 C291 111 251 98 221 98 C187 98 158 109 158 148 C158 180 170 200 214 206 L316 220 L316 126 Z " />
<glyph glyph-name="Cacute" unicode="&#x106;" horiz-adv-x="545" d="M187 328 C187 529 241 549 334 549 C375 549 432 542 487 532 L501 639 C456 652 371 665 315 665 C142 665 42 603 42 328 C42 53 142 -9 315 -9 C371 -9 456 4 501 17 L487 124 C432 114 375 107 334 107 C241 107 187 127 187 328 L187 328 Z M287 866 L256 727 L344 727 L423 866 L287 866 Z " />
<glyph glyph-name="cacute" unicode="&#x107;" horiz-adv-x="451" d="M278 95 C194 95 170 115 170 246 C170 377 194 397 278 397 C317 397 350 394 402 384 L415 479 C365 493 311 501 259 501 C133 501 34 469 34 246 C34 23 133 -9 259 -9 C311 -9 365 -1 415 13 L402 109 C350 99 317 95 278 95 L278 95 Z M240 696 L209 557 L297 557 L376 696 L240 696 Z " />
<glyph glyph-name="Ccircumflex" unicode="&#x108;" horiz-adv-x="545" d="M187 328 C187 529 241 549 334 549 C375 549 432 542 487 532 L501 639 C456 652 371 665 315 665 C142 665 42 603 42 328 C42 53 142 -9 315 -9 C371 -9 456 4 501 17 L487 124 C432 114 375 107 334 107 C241 107 187 127 187 328 L187 328 Z M460 768 L352 866 L246 866 L138 768 L220 725 L298 786 L300 786 L378 725 L460 768 Z " />
<glyph glyph-name="ccircumflex" unicode="&#x109;" horiz-adv-x="451" d="M278 95 C194 95 170 115 170 246 C170 377 194 397 278 397 C317 397 350 394 402 384 L415 479 C365 493 311 501 259 501 C133 501 34 469 34 246 C34 23 133 -9 259 -9 C311 -9 365 -1 415 13 L402 109 C350 99 317 95 278 95 L278 95 Z M413 598 L305 696 L199 696 L91 598 L173 555 L251 616 L253 616 L331 555 L413 598 Z " />
<glyph glyph-name="Cdotaccent" unicode="&#x10a;" horiz-adv-x="545" d="M187 328 C187 529 241 549 334 549 C375 549 432 542 487 532 L501 639 C456 652 371 665 315 665 C142 665 42 603 42 328 C42 53 142 -9 315 -9 C371 -9 456 4 501 17 L487 124 C432 114 375 107 334 107 C241 107 187 127 187 328 L187 328 Z M295 872 C231 872 227 868 227 804 C227 740 231 736 295 736 C359 736 363 740 363 804 C363 868 359 872 295 872 L295 872 Z " />
<glyph glyph-name="cdotaccent" unicode="&#x10b;" horiz-adv-x="451" d="M278 95 C194 95 170 115 170 246 C170 377 194 397 278 397 C317 397 350 394 402 384 L415 479 C365 493 311 501 259 501 C133 501 34 469 34 246 C34 23 133 -9 259 -9 C311 -9 365 -1 415 13 L402 109 C350 99 317 95 278 95 L278 95 Z M252 702 C188 702 184 698 184 634 C184 570 188 566 252 566 C316 566 320 570 320 634 C320 698 316 702 252 702 L252 702 Z " />
<glyph glyph-name="Ccaron" unicode="&#x10c;" horiz-adv-x="545" d="M187 328 C187 529 241 549 334 549 C375 549 432 542 487 532 L501 639 C456 652 371 665 315 665 C142 665 42 603 42 328 C42 53 142 -9 315 -9 C371 -9 456 4 501 17 L487 124 C432 114 375 107 334 107 C241 107 187 127 187 328 L187 328 Z M138 828 L246 730 L352 730 L460 828 L378 871 L300 810 L298 810 L220 871 L138 828 Z " />
<glyph glyph-name="ccaron" unicode="&#x10d;" horiz-adv-x="451" d="M278 95 C194 95 170 115 170 246 C170 377 194 397 278 397 C317 397 350 394 402 384 L415 479 C365 493 311 501 259 501 C133 501 34 469 34 246 C34 23 133 -9 259 -9 C311 -9 365 -1 415 13 L402 109 C350 99 317 95 278 95 L278 95 Z M91 658 L199 560 L305 560 L413 658 L331 701 L253 640 L251 640 L173 701 L91 658 Z " />
<glyph glyph-name="Dcaron" unicode="&#x10e;" horiz-adv-x="609" d="M66 656 L66 0 L282 0 C452 0 567 40 567 328 C567 616 452 656 282 656 L66 656 Z M200 120 L200 536 L271 536 C389 536 425 518 425 328 C425 138 389 120 271 120 L200 120 Z M146 822 L254 724 L360 724 L468 822 L386 865 L308 804 L306 804 L228 865 L146 822 Z " />
<glyph glyph-name="dcaron" unicode="&#x10f;" horiz-adv-x="661" d="M212 501 C120 501 36 435 36 246 C36 57 120 -9 212 -9 C260 -9 317 11 356 42 L367 0 L473 0 L473 704 L345 685 L345 458 C311 482 260 501 212 501 L212 501 Z M245 108 C193 108 171 148 171 246 C171 344 193 384 245 384 C300 384 345 362 345 362 L345 130 C345 130 300 108 245 108 L245 108 Z M541 696 L541 505 L630 505 L669 630 L669 696 L541 696 Z " />
<glyph glyph-name="Dcroat" unicode="&#x110;" horiz-adv-x="609" d="M66 656 L66 375 L-16 375 L-16 281 L66 281 L66 0 L282 0 C452 0 567 40 567 328 C567 616 452 656 282 656 L66 656 Z M200 120 L200 281 L307 281 L307 375 L200 375 L200 536 L271 536 C389 536 425 518 425 328 C425 138 389 120 271 120 L200 120 Z " />
<glyph glyph-name="dcroat" unicode="&#x111;" horiz-adv-x="531" d="M212 501 C120 501 36 435 36 246 C36 57 120 -9 212 -9 C260 -9 317 11 356 42 L367 0 L473 0 L473 542 L553 542 L553 624 L473 624 L473 704 L345 685 L345 624 L237 624 L237 542 L345 542 L345 458 C311 482 260 501 212 501 L212 501 Z M245 108 C193 108 171 148 171 246 C171 344 193 384 245 384 C300 384 345 362 345 362 L345 130 C345 130 300 108 245 108 L245 108 Z " />
<glyph glyph-name="Emacron" unicode="&#x112;" horiz-adv-x="544" d="M500 656 L66 656 L66 0 L506 0 L506 120 L200 120 L200 269 L476 269 L476 389 L200 389 L200 536 L500 536 L500 656 Z M133 854 L133 758 L433 758 L433 854 L133 854 Z " />
<glyph glyph-name="emacron" unicode="&#x113;" horiz-adv-x="492" d="M452 246 C452 434 397 501 247 501 C97 501 36 438 36 246 C36 30 114 -9 262 -9 C307 -9 368 -3 430 14 L417 109 C367 100 318 94 278 94 C211 94 172 111 172 193 L452 193 L452 246 Z M171 289 C171 376 187 399 247 399 C307 399 323 375 323 289 L171 289 Z M96 684 L96 588 L396 588 L396 684 L96 684 Z " />
<glyph glyph-name="Ebreve" unicode="&#x114;" horiz-adv-x="544" d="M500 656 L66 656 L66 0 L506 0 L506 120 L200 120 L200 269 L476 269 L476 389 L200 389 L200 536 L500 536 L500 656 Z M119 857 C123 812 138 787 154 771 C173 753 216 737 283 737 C350 737 393 753 412 771 C428 787 443 812 447 857 L355 870 C353 850 344 841 338 837 C330 831 319 828 283 828 C247 828 236 831 228 837 C222 841 213 850 211 870 L119 857 Z " />
<glyph glyph-name="ebreve" unicode="&#x115;" horiz-adv-x="492" d="M452 246 C452 434 397 501 247 501 C97 501 36 438 36 246 C36 30 114 -9 262 -9 C307 -9 368 -3 430 14 L417 109 C367 100 318 94 278 94 C211 94 172 111 172 193 L452 193 L452 246 Z M171 289 C171 376 187 399 247 399 C307 399 323 375 323 289 L171 289 Z M82 687 C86 642 101 617 117 601 C136 583 179 567 246 567 C313 567 356 583 375 601 C391 617 406 642 410 687 L318 700 C316 680 307 671 301 667 C293 661 282 658 246 658 C210 658 199 661 191 667 C185 671 176 680 174 700 L82 687 Z " />
<glyph glyph-name="Edotaccent" unicode="&#x116;" horiz-adv-x="544" d="M500 656 L66 656 L66 0 L506 0 L506 120 L200 120 L200 269 L476 269 L476 389 L200 389 L200 536 L500 536 L500 656 Z M283 872 C219 872 215 868 215 804 C215 740 219 736 283 736 C347 736 351 740 351 804 C351 868 347 872 283 872 L283 872 Z " />
<glyph glyph-name="edotaccent" unicode="&#x117;" horiz-adv-x="492" d="M452 246 C452 434 397 501 247 501 C97 501 36 438 36 246 C36 30 114 -9 262 -9 C307 -9 368 -3 430 14 L417 109 C367 100 318 94 278 94 C211 94 172 111 172 193 L452 193 L452 246 Z M171 289 C171 376 187 399 247 399 C307 399 323 375 323 289 L171 289 Z M246 702 C182 702 178 698 178 634 C178 570 182 566 246 566 C310 566 314 570 314 634 C314 698 310 702 246 702 L246 702 Z " />
<glyph glyph-name="Eogonek" unicode="&#x118;" horiz-adv-x="544" d="M500 656 L66 656 L66 0 L394 0 L348 -37 C315 -63 303 -85 303 -122 C303 -182 344 -202 409 -202 C429 -202 463 -200 501 -193 L492 -113 C466 -117 446 -119 432 -119 C409 -119 405 -115 405 -105 C405 -96 408 -89 436 -64 L506 0 L506 120 L200 120 L200 269 L476 269 L476 389 L200 389 L200 536 L500 536 L500 656 Z " />
<glyph glyph-name="eogonek" unicode="&#x119;" horiz-adv-x="492" d="M452 246 C452 434 397 501 247 501 C97 501 36 438 36 246 C36 30 114 -9 262 -9 C271 -9 281 -9 291 -8 L256 -37 C223 -63 211 -85 211 -122 C211 -182 252 -202 317 -202 C337 -202 371 -200 409 -193 L400 -113 C374 -117 354 -119 340 -119 C317 -119 313 -115 313 -105 C313 -96 316 -89 344 -64 L430 14 L417 109 C367 100 318 94 278 94 C211 94 172 111 172 193 L452 193 L452 246 Z M171 289 C171 376 187 399 247 399 C307 399 323 375 323 289 L171 289 Z " />
<glyph glyph-name="Ecaron" unicode="&#x11a;" horiz-adv-x="544" d="M500 656 L66 656 L66 0 L506 0 L506 120 L200 120 L200 269 L476 269 L476 389 L200 389 L200 536 L500 536 L500 656 Z M122 828 L230 730 L336 730 L444 828 L362 871 L284 810 L282 810 L204 871 L122 828 Z " />
<glyph glyph-name="ecaron" unicode="&#x11b;" horiz-adv-x="492" d="M452 246 C452 434 397 501 247 501 C97 501 36 438 36 246 C36 30 114 -9 262 -9 C307 -9 368 -3 430 14 L417 109 C367 100 318 94 278 94 C211 94 172 111 172 193 L452 193 L452 246 Z M171 289 C171 376 187 399 247 399 C307 399 323 375 323 289 L171 289 Z M85 658 L193 560 L299 560 L407 658 L325 701 L247 640 L245 640 L167 701 L85 658 Z " />
<glyph glyph-name="Gcircumflex" unicode="&#x11c;" horiz-adv-x="606" d="M314 373 L314 255 L421 255 L421 110 C392 105 364 104 332 104 C232 104 186 139 186 328 C186 517 232 549 332 549 C383 549 461 542 525 531 L539 639 C469 655 393 665 319 665 C139 665 42 591 42 328 C42 65 139 -9 319 -9 C388 -9 458 -1 552 31 L552 373 L314 373 Z M484 768 L376 866 L270 866 L162 768 L244 725 L322 786 L324 786 L402 725 L484 768 Z " />
<glyph glyph-name="gcircumflex" unicode="&#x11d;" horiz-adv-x="537" d="M187 167 C201 164 218 163 244 163 C373 163 450 192 450 332 C450 368 447 381 441 403 L519 403 L504 498 L368 477 C336 495 289 501 244 501 C115 501 38 472 38 332 C38 251 64 211 101 190 L83 146 C68 110 75 77 94 59 L74 45 C46 26 26 -9 26 -56 C26 -172 99 -203 261 -203 C423 -203 496 -170 496 -54 C496 55 428 89 350 96 L228 107 C185 111 181 121 184 143 L187 167 Z M313 -2 C354 -5 372 -14 372 -56 C372 -92 347 -109 261 -109 C175 -109 150 -92 150 -56 C150 -27 156 -4 169 15 C183 11 197 9 214 7 L313 -2 Z M244 259 C180 259 160 268 160 332 C160 396 180 405 244 405 C308 405 328 396 328 332 C328 268 308 259 244 259 L244 259 Z M405 598 L297 696 L191 696 L83 598 L165 555 L243 616 L245 616 L323 555 L405 598 Z " />
<glyph glyph-name="Gbreve" unicode="&#x11e;" horiz-adv-x="606" d="M314 373 L314 255 L421 255 L421 110 C392 105 364 104 332 104 C232 104 186 139 186 328 C186 517 232 549 332 549 C383 549 461 542 525 531 L539 639 C469 655 393 665 319 665 C139 665 42 591 42 328 C42 65 139 -9 319 -9 C388 -9 458 -1 552 31 L552 373 L314 373 Z M159 857 C163 812 178 787 194 771 C213 753 256 737 323 737 C390 737 433 753 452 771 C468 787 483 812 487 857 L395 870 C393 850 384 841 378 837 C370 831 359 828 323 828 C287 828 276 831 268 837 C262 841 253 850 251 870 L159 857 Z " />
<glyph glyph-name="gbreve" unicode="&#x11f;" horiz-adv-x="537" d="M187 167 C201 164 218 163 244 163 C373 163 450 192 450 332 C450 368 447 381 441 403 L519 403 L504 498 L368 477 C336 495 289 501 244 501 C115 501 38 472 38 332 C38 251 64 211 101 190 L83 146 C68 110 75 77 94 59 L74 45 C46 26 26 -9 26 -56 C26 -172 99 -203 261 -203 C423 -203 496 -170 496 -54 C496 55 428 89 350 96 L228 107 C185 111 181 121 184 143 L187 167 Z M313 -2 C354 -5 372 -14 372 -56 C372 -92 347 -109 261 -109 C175 -109 150 -92 150 -56 C150 -27 156 -4 169 15 C183 11 197 9 214 7 L313 -2 Z M244 259 C180 259 160 268 160 332 C160 396 180 405 244 405 C308 405 328 396 328 332 C328 268 308 259 244 259 L244 259 Z M80 687 C84 642 99 617 115 601 C134 583 177 567 244 567 C311 567 354 583 373 601 C389 617 404 642 408 687 L316 700 C314 680 305 671 299 667 C291 661 280 658 244 658 C208 658 197 661 189 667 C183 671 174 680 172 700 L80 687 Z " />
<glyph glyph-name="Gdotaccent" unicode="&#x120;" horiz-adv-x="606" d="M314 373 L314 255 L421 255 L421 110 C392 105 364 104 332 104 C232 104 186 139 186 328 C186 517 232 549 332 549 C383 549 461 542 525 531 L539 639 C469 655 393 665 319 665 C139 665 42 591 42 328 C42 65 139 -9 319 -9 C388 -9 458 -1 552 31 L552 373 L314 373 Z M323 872 C259 872 255 868 255 804 C255 740 259 736 323 736 C387 736 391 740 391 804 C391 868 387 872 323 872 L323 872 Z " />
<glyph glyph-name="gdotaccent" unicode="&#x121;" horiz-adv-x="537" d="M187 167 C201 164 218 163 244 163 C373 163 450 192 450 332 C450 368 447 381 441 403 L519 403 L504 498 L368 477 C336 495 289 501 244 501 C115 501 38 472 38 332 C38 251 64 211 101 190 L83 146 C68 110 75 77 94 59 L74 45 C46 26 26 -9 26 -56 C26 -172 99 -203 261 -203 C423 -203 496 -170 496 -54 C496 55 428 89 350 96 L228 107 C185 111 181 121 184 143 L187 167 Z M313 -2 C354 -5 372 -14 372 -56 C372 -92 347 -109 261 -109 C175 -109 150 -92 150 -56 C150 -27 156 -4 169 15 C183 11 197 9 214 7 L313 -2 Z M244 259 C180 259 160 268 160 332 C160 396 180 405 244 405 C308 405 328 396 328 332 C328 268 308 259 244 259 L244 259 Z M242 702 C178 702 174 698 174 634 C174 570 178 566 242 566 C306 566 310 570 310 634 C310 698 306 702 242 702 L242 702 Z " />
<glyph glyph-name="Gcommaaccent" unicode="&#x122;" horiz-adv-x="606" d="M314 373 L314 255 L421 255 L421 110 C392 105 364 104 332 104 C232 104 186 139 186 328 C186 517 232 549 332 549 C383 549 461 542 525 531 L539 639 C469 655 393 665 319 665 C139 665 42 591 42 328 C42 65 139 -9 319 -9 C388 -9 458 -1 552 31 L552 373 L314 373 Z M259 -74 L259 -265 L348 -265 L387 -140 L387 -74 L259 -74 Z " />
<glyph glyph-name="gcommaaccent" unicode="&#x123;" horiz-adv-x="537" d="M187 167 C201 164 218 163 244 163 C373 163 450 192 450 332 C450 368 447 381 441 403 L519 403 L504 498 L368 477 C336 495 289 501 244 501 C115 501 38 472 38 332 C38 251 64 211 101 190 L83 146 C68 110 75 77 94 59 L74 45 C46 26 26 -9 26 -56 C26 -172 99 -203 261 -203 C423 -203 496 -170 496 -54 C496 55 428 89 350 96 L228 107 C185 111 181 121 184 143 L187 167 Z M313 -2 C354 -5 372 -14 372 -56 C372 -92 347 -109 261 -109 C175 -109 150 -92 150 -56 C150 -27 156 -4 169 15 C183 11 197 9 214 7 L313 -2 Z M244 259 C180 259 160 268 160 332 C160 396 180 405 244 405 C308 405 328 396 328 332 C328 268 308 259 244 259 L244 259 Z M306 574 L306 765 L217 765 L178 640 L178 574 L306 574 Z " />
<glyph glyph-name="Hcircumflex" unicode="&#x124;" horiz-adv-x="630" d="M430 656 L430 389 L200 389 L200 656 L66 656 L66 0 L200 0 L200 269 L430 269 L430 0 L564 0 L564 656 L430 656 Z M476 768 L368 866 L262 866 L154 768 L236 725 L314 786 L316 786 L394 725 L476 768 Z " />
<glyph glyph-name="hcircumflex" unicode="&#x125;" horiz-adv-x="532" d="M325 501 C268 501 219 480 186 458 L186 704 L58 685 L58 0 L186 0 L186 362 C186 362 223 383 288 383 C329 383 348 367 348 318 L348 0 L476 0 L476 345 C476 444 427 501 325 501 L325 501 Z M283 808 L175 906 L69 906 L-39 808 L43 765 L121 826 L123 826 L201 765 L283 808 Z " />
<glyph glyph-name="Hbar" unicode="&#x126;" horiz-adv-x="630" d="M430 656 L430 557 L200 557 L200 656 L66 656 L66 557 L-10 557 L-10 471 L66 471 L66 0 L200 0 L200 269 L430 269 L430 0 L564 0 L564 471 L640 471 L640 557 L564 557 L564 656 L430 656 Z M200 389 L200 471 L430 471 L430 389 L200 389 Z " />
<glyph glyph-name="hbar" unicode="&#x127;" horiz-adv-x="532" d="M325 501 C268 501 219 480 186 458 L186 542 L294 542 L294 624 L186 624 L186 704 L58 685 L58 624 L-22 624 L-22 542 L58 542 L58 0 L186 0 L186 362 C186 362 223 383 288 383 C329 383 348 367 348 318 L348 0 L476 0 L476 345 C476 444 427 501 325 501 L325 501 Z " />
<glyph glyph-name="Itilde" unicode="&#x128;" horiz-adv-x="278" d="M206 656 L72 656 L72 0 L206 0 L206 656 Z M222 867 C219 843 212 838 207 836 C201 834 188 834 169 841 L125 858 C78 876 43 873 19 859 C-4 845 -24 818 -32 754 L56 740 C59 764 66 769 71 771 C77 773 89 773 109 766 L153 749 C200 731 236 735 260 749 C283 762 302 788 310 853 L222 867 Z " />
<glyph glyph-name="itilde" unicode="&#x129;" horiz-adv-x="260" d="M194 492 L66 492 L66 0 L194 0 L194 492 Z M213 697 C210 673 203 668 198 666 C192 664 179 664 160 671 L116 688 C69 706 34 703 10 689 C-13 675 -33 648 -41 584 L47 570 C50 594 57 599 62 601 C68 603 80 603 100 596 L144 579 C191 561 227 565 251 579 C274 592 293 618 301 683 L213 697 Z " />
<glyph glyph-name="Imacron" unicode="&#x12a;" horiz-adv-x="278" d="M206 656 L72 656 L72 0 L206 0 L206 656 Z M-11 854 L-11 758 L289 758 L289 854 L-11 854 Z " />
<glyph glyph-name="imacron" unicode="&#x12b;" horiz-adv-x="260" d="M194 492 L66 492 L66 0 L194 0 L194 492 Z M-20 684 L-20 588 L280 588 L280 684 L-20 684 Z " />
<glyph glyph-name="Iogonek" unicode="&#x12e;" horiz-adv-x="278" d="M206 656 L72 656 L72 0 L94 0 L48 -37 C15 -63 3 -85 3 -122 C3 -182 44 -202 109 -202 C129 -202 163 -200 201 -193 L192 -113 C166 -117 146 -119 132 -119 C109 -119 105 -115 105 -105 C105 -96 108 -89 136 -64 L206 0 L206 656 Z " />
<glyph glyph-name="iogonek" unicode="&#x12f;" horiz-adv-x="260" d="M194 492 L66 492 L66 0 L82 0 L36 -37 C3 -63 -9 -85 -9 -122 C-9 -182 32 -202 97 -202 C117 -202 151 -200 189 -193 L180 -113 C154 -117 134 -119 120 -119 C97 -119 93 -115 93 -105 C93 -96 96 -89 124 -64 L194 0 L194 492 Z M130 702 C66 702 62 698 62 634 C62 570 66 566 130 566 C194 566 198 570 198 634 C198 698 194 702 130 702 L130 702 Z " />
<glyph glyph-name="Idotaccent" unicode="&#x130;" horiz-adv-x="278" d="M206 656 L72 656 L72 0 L206 0 L206 656 Z M139 866 C75 866 71 862 71 798 C71 734 75 730 139 730 C203 730 207 734 207 798 C207 862 203 866 139 866 L139 866 Z " />
<glyph glyph-name="dotlessi" unicode="&#x131;" horiz-adv-x="260" d="M194 492 L66 492 L66 0 L194 0 L194 492 Z " />
<glyph glyph-name="IJ" unicode="&#x132;" horiz-adv-x="688" d="M206 656 L72 656 L72 0 L206 0 L206 656 Z M489 656 L489 191 C489 133 473 109 418 109 C393 109 356 114 309 124 L295 17 C347 1 390 -6 444 -6 C578 -6 623 60 623 179 L623 656 L489 656 Z " />
<glyph glyph-name="ij" unicode="&#x133;" horiz-adv-x="517" d="M194 492 L66 492 L66 0 L194 0 L194 492 Z M130 702 C66 702 62 698 62 634 C62 570 66 566 130 566 C194 566 198 570 198 634 C198 698 194 702 130 702 L130 702 Z M449 492 L321 492 L321 0 C321 -93 291 -186 291 -186 L400 -202 C400 -202 449 -121 449 0 L449 492 Z M385 702 C321 702 317 698 317 634 C317 570 321 566 385 566 C449 566 453 570 453 634 C453 698 449 702 385 702 L385 702 Z " />
<glyph glyph-name="Jcircumflex" unicode="&#x134;" horiz-adv-x="407" d="M209 656 L209 191 C209 133 193 109 138 109 C113 109 76 114 29 124 L15 17 C67 1 110 -6 164 -6 C298 -6 343 60 343 179 L343 656 L209 656 Z M437 768 L329 866 L223 866 L115 768 L197 725 L275 786 L277 786 L355 725 L437 768 Z " />
<glyph glyph-name="jcircumflex" unicode="&#x135;" horiz-adv-x="260" d="M194 492 L66 492 L66 0 C66 -93 36 -186 36 -186 L145 -202 C145 -202 194 -121 194 0 L194 492 Z M291 598 L183 696 L77 696 L-31 598 L51 555 L129 616 L131 616 L209 555 L291 598 Z " />
<glyph glyph-name="Kcommaaccent" unicode="&#x136;" horiz-adv-x="594" d="M579 0 L365 329 L573 656 L420 656 L256 389 L200 389 L200 656 L66 656 L66 0 L200 0 L200 269 L256 269 L422 0 L579 0 Z M245 -74 L245 -265 L334 -265 L373 -140 L373 -74 L245 -74 Z " />
<glyph glyph-name="kcommaaccent" unicode="&#x137;" horiz-adv-x="503" d="M493 0 L339 271 L480 492 L332 492 L232 326 L186 326 L186 704 L58 684 L58 0 L186 0 L186 216 L232 216 L349 0 L493 0 Z M203 -74 L203 -265 L292 -265 L331 -140 L331 -74 L203 -74 Z " />
<glyph glyph-name="Lacute" unicode="&#x139;" horiz-adv-x="500" d="M66 656 L66 0 L490 0 L490 120 L200 120 L200 656 L66 656 Z M121 866 L90 727 L178 727 L257 866 L121 866 Z " />
<glyph glyph-name="lacute" unicode="&#x13a;" horiz-adv-x="287" d="M186 704 L58 685 L58 124 C58 29 102 -6 173 -6 C209 -6 236 0 261 9 L249 99 C234 96 225 95 217 95 C190 95 186 110 186 136 L186 704 Z M110 906 L79 767 L167 767 L246 906 L110 906 Z " />
<glyph glyph-name="Lcommaaccent" unicode="&#x13b;" horiz-adv-x="500" d="M66 656 L66 0 L490 0 L490 120 L200 120 L200 656 L66 656 Z M219 -74 L219 -265 L308 -265 L347 -140 L347 -74 L219 -74 Z " />
<glyph glyph-name="lcommaaccent" unicode="&#x13c;" horiz-adv-x="287" d="M186 704 L58 685 L58 124 C58 29 102 -6 173 -6 C209 -6 236 0 261 9 L249 99 C234 96 225 95 217 95 C190 95 186 110 186 136 L186 704 Z M90 -74 L90 -265 L179 -265 L218 -140 L218 -74 L90 -74 Z " />
<glyph glyph-name="Lcaron" unicode="&#x13d;" horiz-adv-x="500" d="M66 656 L66 0 L490 0 L490 120 L200 120 L200 656 L66 656 Z M286 656 L286 465 L375 465 L414 590 L414 656 L286 656 Z " />
<glyph glyph-name="lcaron" unicode="&#x13e;" horiz-adv-x="374" d="M186 704 L58 685 L58 124 C58 29 102 -6 173 -6 C209 -6 236 0 261 9 L249 99 C234 96 225 95 217 95 C190 95 186 110 186 136 L186 704 Z M254 696 L254 505 L343 505 L382 630 L382 696 L254 696 Z " />
<glyph glyph-name="Ldot" unicode="&#x13f;" horiz-adv-x="500" d="M66 656 L66 0 L490 0 L490 120 L200 120 L200 656 L66 656 Z M348 404 C284 404 280 400 280 336 C280 272 284 268 348 268 C412 268 416 272 416 336 C416 400 412 404 348 404 L348 404 Z " />
<glyph glyph-name="ldot" unicode="&#x140;" horiz-adv-x="424" d="M186 704 L58 685 L58 124 C58 29 102 -6 173 -6 C209 -6 236 0 261 9 L249 99 C234 96 225 95 217 95 C190 95 186 110 186 136 L186 704 Z M334 406 C270 406 266 402 266 338 C266 274 270 270 334 270 C398 270 402 274 402 338 C402 402 398 406 334 406 L334 406 Z " />
<glyph glyph-name="Lslash" unicode="&#x141;" horiz-adv-x="500" d="M66 656 L66 372 L-18 360 L-18 268 L66 280 L66 0 L490 0 L490 120 L200 120 L200 299 L335 318 L335 410 L200 391 L200 656 L66 656 Z " />
<glyph glyph-name="lslash" unicode="&#x142;" horiz-adv-x="289" d="M188 704 L60 685 L60 397 L-2 389 L-2 297 L60 305 L60 124 C60 29 104 -6 175 -6 C211 -6 238 0 263 9 L251 99 C236 96 227 95 219 95 C192 95 188 110 188 136 L188 323 L269 335 L269 427 L188 415 L188 704 Z " />
<glyph glyph-name="Nacute" unicode="&#x143;" horiz-adv-x="640" d="M440 656 L440 359 C440 297 446 228 446 228 L442 228 L202 656 L66 656 L66 0 L200 0 L200 297 C200 359 194 429 194 429 L198 429 L438 0 L574 0 L574 656 L440 656 Z M308 866 L277 727 L365 727 L444 866 L308 866 Z " />
<glyph glyph-name="nacute" unicode="&#x144;" horiz-adv-x="532" d="M325 501 C262 501 208 475 175 450 L164 492 L58 492 L58 0 L186 0 L186 362 C186 362 223 383 288 383 C329 383 348 367 348 318 L348 0 L476 0 L476 345 C476 444 427 501 325 501 L325 501 Z M255 696 L224 557 L312 557 L391 696 L255 696 Z " />
<glyph glyph-name="Ncommaaccent" unicode="&#x145;" horiz-adv-x="640" d="M440 656 L440 359 C440 297 446 228 446 228 L442 228 L202 656 L66 656 L66 0 L200 0 L200 297 C200 359 194 429 194 429 L198 429 L438 0 L574 0 L574 656 L440 656 Z M256 -74 L256 -265 L345 -265 L384 -140 L384 -74 L256 -74 Z " />
<glyph glyph-name="ncommaaccent" unicode="&#x146;" horiz-adv-x="532" d="M325 501 C262 501 208 475 175 450 L164 492 L58 492 L58 0 L186 0 L186 362 C186 362 223 383 288 383 C329 383 348 367 348 318 L348 0 L476 0 L476 345 C476 444 427 501 325 501 L325 501 Z M203 -74 L203 -265 L292 -265 L331 -140 L331 -74 L203 -74 Z " />
<glyph glyph-name="Ncaron" unicode="&#x147;" horiz-adv-x="640" d="M440 656 L440 359 C440 297 446 228 446 228 L442 228 L202 656 L66 656 L66 0 L200 0 L200 297 C200 359 194 429 194 429 L198 429 L438 0 L574 0 L574 656 L440 656 Z M159 828 L267 730 L373 730 L481 828 L399 871 L321 810 L319 810 L241 871 L159 828 Z " />
<glyph glyph-name="ncaron" unicode="&#x148;" horiz-adv-x="532" d="M325 501 C262 501 208 475 175 450 L164 492 L58 492 L58 0 L186 0 L186 362 C186 362 223 383 288 383 C329 383 348 367 348 318 L348 0 L476 0 L476 345 C476 444 427 501 325 501 L325 501 Z M106 658 L214 560 L320 560 L428 658 L346 701 L268 640 L266 640 L188 701 L106 658 Z " />
<glyph glyph-name="Omacron" unicode="&#x14c;" horiz-adv-x="616" d="M42 328 C42 62 122 -13 308 -13 C494 -13 574 63 574 328 C574 594 494 669 308 669 C122 669 42 594 42 328 L42 328 Z M187 328 C187 526 216 557 308 557 C400 557 429 526 429 328 C429 131 400 99 308 99 C216 99 187 130 187 328 L187 328 Z M158 854 L158 758 L458 758 L458 854 L158 854 Z " />
<glyph glyph-name="omacron" unicode="&#x14d;" horiz-adv-x="518" d="M259 504 C114 504 34 451 34 246 C34 41 114 -12 259 -12 C404 -12 484 41 484 246 C484 451 404 504 259 504 L259 504 Z M259 90 C190 90 170 116 170 246 C170 376 190 402 259 402 C328 402 348 376 348 246 C348 116 328 90 259 90 L259 90 Z M109 684 L109 588 L409 588 L409 684 L109 684 Z " />
<glyph glyph-name="Obreve" unicode="&#x14e;" horiz-adv-x="616" d="M42 328 C42 62 122 -13 308 -13 C494 -13 574 63 574 328 C574 594 494 669 308 669 C122 669 42 594 42 328 L42 328 Z M187 328 C187 526 216 557 308 557 C400 557 429 526 429 328 C429 131 400 99 308 99 C216 99 187 130 187 328 L187 328 Z M144 857 C148 812 163 787 179 771 C198 753 241 737 308 737 C375 737 418 753 437 771 C453 787 468 812 472 857 L380 870 C378 850 369 841 363 837 C355 831 344 828 308 828 C272 828 261 831 253 837 C247 841 238 850 236 870 L144 857 Z " />
<glyph glyph-name="obreve" unicode="&#x14f;" horiz-adv-x="518" d="M259 504 C114 504 34 451 34 246 C34 41 114 -12 259 -12 C404 -12 484 41 484 246 C484 451 404 504 259 504 L259 504 Z M259 90 C190 90 170 116 170 246 C170 376 190 402 259 402 C328 402 348 376 348 246 C348 116 328 90 259 90 L259 90 Z M95 687 C99 642 114 617 130 601 C149 583 192 567 259 567 C326 567 369 583 388 601 C404 617 419 642 423 687 L331 700 C329 680 320 671 314 667 C306 661 295 658 259 658 C223 658 212 661 204 667 C198 671 189 680 187 700 L95 687 Z " />
<glyph glyph-name="Ohungarumlaut" unicode="&#x150;" horiz-adv-x="616" d="M42 328 C42 62 122 -13 308 -13 C494 -13 574 63 574 328 C574 594 494 669 308 669 C122 669 42 594 42 328 L42 328 Z M187 328 C187 526 216 557 308 557 C400 557 429 526 429 328 C429 131 400 99 308 99 C216 99 187 130 187 328 L187 328 Z M215 866 L181 727 L269 727 L342 866 L215 866 Z M372 866 L338 727 L426 727 L499 866 L372 866 Z " />
<glyph glyph-name="ohungarumlaut" unicode="&#x151;" horiz-adv-x="518" d="M259 504 C114 504 34 451 34 246 C34 41 114 -12 259 -12 C404 -12 484 41 484 246 C484 451 404 504 259 504 L259 504 Z M259 90 C190 90 170 116 170 246 C170 376 190 402 259 402 C328 402 348 376 348 246 C348 116 328 90 259 90 L259 90 Z M166 696 L132 557 L220 557 L293 696 L166 696 Z M323 696 L289 557 L377 557 L450 696 L323 696 Z " />
<glyph glyph-name="OE" unicode="&#x152;" horiz-adv-x="882" d="M833 656 L327 656 C157 656 42 616 42 328 C42 40 157 0 327 0 L839 0 L839 120 L538 120 L538 269 L809 269 L809 389 L538 389 L538 536 L833 536 L833 656 Z M338 120 C220 120 184 138 184 328 C184 518 220 536 338 536 L404 536 L404 120 L338 120 Z " />
<glyph glyph-name="oe" unicode="&#x153;" horiz-adv-x="804" d="M259 504 C114 504 34 451 34 246 C34 41 114 -12 259 -12 C324 -12 381 4 416 44 C450 7 505 -9 574 -9 C619 -9 680 -3 742 14 L729 109 C679 100 630 94 590 94 C523 94 484 111 484 193 L764 193 L764 246 C764 434 709 501 559 501 C495 501 450 485 416 448 C381 488 324 504 259 504 L259 504 Z M259 90 C190 90 170 116 170 246 C170 376 190 402 259 402 C328 402 348 376 348 246 C348 116 328 90 259 90 L259 90 Z M483 289 C483 376 499 399 559 399 C619 399 635 375 635 289 L483 289 Z " />
<glyph glyph-name="Racute" unicode="&#x154;" horiz-adv-x="589" d="M561 0 L455 205 C442 229 435 239 423 248 L423 250 C481 268 538 311 538 446 C538 619 443 656 319 656 L66 656 L66 0 L200 0 L200 236 L259 236 C291 236 301 226 319 189 L410 0 L561 0 Z M200 356 L200 536 L295 536 C369 536 402 525 402 446 C402 368 369 356 295 356 L200 356 Z M290 860 L259 721 L347 721 L426 860 L290 860 Z " />
<glyph glyph-name="racute" unicode="&#x155;" horiz-adv-x="345" d="M164 492 L58 492 L58 0 L186 0 L186 348 C219 364 260 373 317 373 L317 501 C247 501 200 470 176 446 L164 492 Z M175 696 L144 557 L232 557 L311 696 L175 696 Z " />
<glyph glyph-name="Rcommaaccent" unicode="&#x156;" horiz-adv-x="589" d="M561 0 L455 205 C442 229 435 239 423 248 L423 250 C481 268 538 311 538 446 C538 619 443 656 319 656 L66 656 L66 0 L200 0 L200 236 L259 236 C291 236 301 226 319 189 L410 0 L561 0 Z M200 356 L200 536 L295 536 C369 536 402 525 402 446 C402 368 369 356 295 356 L200 356 Z M238 -74 L238 -265 L327 -265 L366 -140 L366 -74 L238 -74 Z " />
<glyph glyph-name="rcommaaccent" unicode="&#x157;" horiz-adv-x="345" d="M164 492 L58 492 L58 0 L186 0 L186 348 C219 364 260 373 317 373 L317 501 C247 501 200 470 176 446 L164 492 Z M58 -74 L58 -265 L147 -265 L186 -140 L186 -74 L58 -74 Z " />
<glyph glyph-name="Rcaron" unicode="&#x158;" horiz-adv-x="589" d="M561 0 L455 205 C442 229 435 239 423 248 L423 250 C481 268 538 311 538 446 C538 619 443 656 319 656 L66 656 L66 0 L200 0 L200 236 L259 236 C291 236 301 226 319 189 L410 0 L561 0 Z M200 356 L200 536 L295 536 C369 536 402 525 402 446 C402 368 369 356 295 356 L200 356 Z M141 828 L249 730 L355 730 L463 828 L381 871 L303 810 L301 810 L223 871 L141 828 Z " />
<glyph glyph-name="rcaron" unicode="&#x159;" horiz-adv-x="345" d="M164 492 L58 492 L58 0 L186 0 L186 348 C219 364 260 373 317 373 L317 501 C247 501 200 470 176 446 L164 492 Z M26 658 L134 560 L240 560 L348 658 L266 701 L188 640 L186 640 L108 701 L26 658 Z " />
<glyph glyph-name="Sacute" unicode="&#x15a;" horiz-adv-x="539" d="M253 396 C200 404 171 421 171 476 C171 536 201 549 278 549 C331 549 400 541 455 532 L469 639 C395 657 327 665 270 665 C117 665 40 622 40 467 C40 331 120 289 198 277 L283 264 C337 256 363 241 363 187 C363 127 345 108 249 108 C212 108 144 113 70 125 L56 17 C132 -1 206 -9 270 -9 C428 -9 497 29 497 192 C497 312 448 364 344 381 L253 396 Z M259 866 L228 727 L316 727 L395 866 L259 866 Z " />
<glyph glyph-name="sacute" unicode="&#x15b;" horiz-adv-x="461" d="M217 307 C171 313 158 323 158 353 C158 389 174 398 242 398 C283 398 330 394 388 384 L401 479 C329 497 263 501 224 501 C88 501 38 460 38 349 C38 254 88 212 170 200 L245 189 C292 182 302 173 302 140 C302 108 294 95 216 95 C180 95 125 99 61 110 L48 14 C111 -1 173 -9 224 -9 C363 -9 423 19 423 147 C423 231 389 283 302 295 L217 307 Z M210 696 L179 557 L267 557 L346 696 L210 696 Z " />
<glyph glyph-name="Scircumflex" unicode="&#x15c;" horiz-adv-x="539" d="M253 396 C200 404 171 421 171 476 C171 536 201 549 278 549 C331 549 400 541 455 532 L469 639 C395 657 327 665 270 665 C117 665 40 622 40 467 C40 331 120 289 198 277 L283 264 C337 256 363 241 363 187 C363 127 345 108 249 108 C212 108 144 113 70 125 L56 17 C132 -1 206 -9 270 -9 C428 -9 497 29 497 192 C497 312 448 364 344 381 L253 396 Z M432 768 L324 866 L218 866 L110 768 L192 725 L270 786 L272 786 L350 725 L432 768 Z " />
<glyph glyph-name="scircumflex" unicode="&#x15d;" horiz-adv-x="461" d="M217 307 C171 313 158 323 158 353 C158 389 174 398 242 398 C283 398 330 394 388 384 L401 479 C329 497 263 501 224 501 C88 501 38 460 38 349 C38 254 88 212 170 200 L245 189 C292 182 302 173 302 140 C302 108 294 95 216 95 C180 95 125 99 61 110 L48 14 C111 -1 173 -9 224 -9 C363 -9 423 19 423 147 C423 231 389 283 302 295 L217 307 Z M385 598 L277 696 L171 696 L63 598 L145 555 L223 616 L225 616 L303 555 L385 598 Z " />
<glyph glyph-name="Scedilla" unicode="&#x15e;" horiz-adv-x="539" d="M253 396 C200 404 171 421 171 476 C171 536 201 549 278 549 C331 549 400 541 455 532 L469 639 C395 657 327 665 270 665 C117 665 40 622 40 467 C40 331 120 289 198 277 L283 264 C337 256 363 241 363 187 C363 127 345 108 249 108 C212 108 144 113 70 125 L56 17 C113 3 170 -4 221 -7 L206 -155 L291 -170 L332 -6 C446 4 497 52 497 192 C497 312 448 364 344 381 L253 396 Z " />
<glyph glyph-name="scedilla" unicode="&#x15f;" horiz-adv-x="461" d="M217 307 C171 313 158 323 158 353 C158 389 174 398 242 398 C283 398 330 394 388 384 L401 479 C329 497 263 501 224 501 C88 501 38 460 38 349 C38 254 88 212 170 200 L245 189 C292 182 302 173 302 140 C302 108 294 95 216 95 C180 95 125 99 61 110 L48 14 C94 3 139 -4 180 -7 L165 -155 L250 -170 L291 -6 C383 4 423 42 423 147 C423 231 389 283 302 295 L217 307 Z " />
<glyph glyph-name="Scaron" unicode="&#x160;" horiz-adv-x="539" d="M253 396 C200 404 171 421 171 476 C171 536 201 549 278 549 C331 549 400 541 455 532 L469 639 C395 657 327 665 270 665 C117 665 40 622 40 467 C40 331 120 289 198 277 L283 264 C337 256 363 241 363 187 C363 127 345 108 249 108 C212 108 144 113 70 125 L56 17 C132 -1 206 -9 270 -9 C428 -9 497 29 497 192 C497 312 448 364 344 381 L253 396 Z M110 828 L218 730 L324 730 L432 828 L350 871 L272 810 L270 810 L192 871 L110 828 Z " />
<glyph glyph-name="scaron" unicode="&#x161;" horiz-adv-x="461" d="M217 307 C171 313 158 323 158 353 C158 389 174 398 242 398 C283 398 330 394 388 384 L401 479 C329 497 263 501 224 501 C88 501 38 460 38 349 C38 254 88 212 170 200 L245 189 C292 182 302 173 302 140 C302 108 294 95 216 95 C180 95 125 99 61 110 L48 14 C111 -1 173 -9 224 -9 C363 -9 423 19 423 147 C423 231 389 283 302 295 L217 307 Z M65 658 L173 560 L279 560 L387 658 L305 701 L227 640 L225 640 L147 701 L65 658 Z " />
<glyph glyph-name="Tcaron" unicode="&#x164;" horiz-adv-x="540" d="M528 656 L12 656 L12 536 L203 536 L203 0 L337 0 L337 536 L528 536 L528 656 Z M109 828 L217 730 L323 730 L431 828 L349 871 L271 810 L269 810 L191 871 L109 828 Z " />
<glyph glyph-name="tcaron" unicode="&#x165;" horiz-adv-x="450" d="M232 382 L368 382 L383 492 L232 492 L232 636 L104 617 L104 492 L32 492 L32 382 L104 382 L104 132 C104 41 148 -4 251 -4 C295 -4 333 1 374 15 L362 105 C341 101 313 98 293 98 C248 98 232 112 232 160 L232 382 Z M297 696 L297 505 L386 505 L425 630 L425 696 L297 696 Z " />
<glyph glyph-name="Tbar" unicode="&#x166;" horiz-adv-x="540" d="M528 656 L12 656 L12 536 L203 536 L203 412 L61 412 L61 326 L203 326 L203 0 L337 0 L337 326 L479 326 L479 412 L337 412 L337 536 L528 536 L528 656 Z " />
<glyph glyph-name="tbar" unicode="&#x167;" horiz-adv-x="408" d="M232 382 L368 382 L383 492 L232 492 L232 636 L104 617 L104 492 L32 492 L32 382 L104 382 L104 321 L32 321 L32 239 L104 239 L104 132 C104 41 148 -4 251 -4 C295 -4 333 1 374 15 L362 105 C341 101 313 98 293 98 C248 98 232 112 232 160 L232 239 L357 239 L357 321 L232 321 L232 382 Z " />
<glyph glyph-name="Utilde" unicode="&#x168;" horiz-adv-x="632" d="M567 656 L433 656 L433 223 C433 137 382 111 316 111 C250 111 199 137 199 223 L199 656 L65 656 L65 238 C65 104 115 -9 316 -9 C517 -9 567 104 567 238 L567 656 Z M399 867 C396 843 389 838 384 836 C378 834 365 834 346 841 L302 858 C255 876 220 873 196 859 C173 845 153 818 145 754 L233 740 C236 764 243 769 248 771 C254 773 266 773 286 766 L330 749 C377 731 413 735 437 749 C460 762 479 788 487 853 L399 867 Z " />
<glyph glyph-name="utilde" unicode="&#x169;" horiz-adv-x="532" d="M207 -9 C270 -9 324 17 357 42 L368 0 L474 0 L474 492 L346 492 L346 130 C346 130 309 109 244 109 C203 109 184 125 184 174 L184 492 L56 492 L56 147 C56 48 105 -9 207 -9 L207 -9 Z M350 697 C347 673 340 668 335 666 C329 664 316 664 297 671 L253 688 C206 706 171 703 147 689 C124 675 104 648 96 584 L184 570 C187 594 194 599 199 601 C205 603 217 603 237 596 L281 579 C328 561 364 565 388 579 C411 592 430 618 438 683 L350 697 Z " />
<glyph glyph-name="Umacron" unicode="&#x16a;" horiz-adv-x="632" d="M567 656 L433 656 L433 223 C433 137 382 111 316 111 C250 111 199 137 199 223 L199 656 L65 656 L65 238 C65 104 115 -9 316 -9 C517 -9 567 104 567 238 L567 656 Z M166 854 L166 758 L466 758 L466 854 L166 854 Z " />
<glyph glyph-name="umacron" unicode="&#x16b;" horiz-adv-x="532" d="M207 -9 C270 -9 324 17 357 42 L368 0 L474 0 L474 492 L346 492 L346 130 C346 130 309 109 244 109 C203 109 184 125 184 174 L184 492 L56 492 L56 147 C56 48 105 -9 207 -9 L207 -9 Z M117 684 L117 588 L417 588 L417 684 L117 684 Z " />
<glyph glyph-name="Ubreve" unicode="&#x16c;" horiz-adv-x="632" d="M567 656 L433 656 L433 223 C433 137 382 111 316 111 C250 111 199 137 199 223 L199 656 L65 656 L65 238 C65 104 115 -9 316 -9 C517 -9 567 104 567 238 L567 656 Z M152 857 C156 812 171 787 187 771 C206 753 249 737 316 737 C383 737 426 753 445 771 C461 787 476 812 480 857 L388 870 C386 850 377 841 371 837 C363 831 352 828 316 828 C280 828 269 831 261 837 C255 841 246 850 244 870 L152 857 Z " />
<glyph glyph-name="ubreve" unicode="&#x16d;" horiz-adv-x="532" d="M207 -9 C270 -9 324 17 357 42 L368 0 L474 0 L474 492 L346 492 L346 130 C346 130 309 109 244 109 C203 109 184 125 184 174 L184 492 L56 492 L56 147 C56 48 105 -9 207 -9 L207 -9 Z M103 687 C107 642 122 617 138 601 C157 583 200 567 267 567 C334 567 377 583 396 601 C412 617 427 642 431 687 L339 700 C337 680 328 671 322 667 C314 661 303 658 267 658 C231 658 220 661 212 667 C206 671 197 680 195 700 L103 687 Z " />
<glyph glyph-name="Uring" unicode="&#x16e;" horiz-adv-x="632" d="M567 656 L433 656 L433 223 C433 137 382 111 316 111 C250 111 199 137 199 223 L199 656 L65 656 L65 238 C65 104 115 -9 316 -9 C517 -9 567 104 567 238 L567 656 Z M316 866 C344 866 352 857 352 822 C352 787 345 776 316 776 C287 776 280 787 280 822 C280 856 287 866 316 866 L316 866 Z M316 928 C237 928 202 900 202 822 C202 744 237 714 316 714 C395 714 430 744 430 822 C430 900 395 928 316 928 L316 928 Z " />
<glyph glyph-name="uring" unicode="&#x16f;" horiz-adv-x="532" d="M207 -9 C270 -9 324 17 357 42 L368 0 L474 0 L474 492 L346 492 L346 130 C346 130 309 109 244 109 C203 109 184 125 184 174 L184 492 L56 492 L56 147 C56 48 105 -9 207 -9 L207 -9 Z M265 696 C293 696 301 687 301 652 C301 617 294 606 265 606 C236 606 229 617 229 652 C229 686 236 696 265 696 L265 696 Z M265 758 C186 758 151 730 151 652 C151 574 186 544 265 544 C344 544 379 574 379 652 C379 730 344 758 265 758 L265 758 Z " />
<glyph glyph-name="Uhungarumlaut" unicode="&#x170;" horiz-adv-x="632" d="M567 656 L433 656 L433 223 C433 137 382 111 316 111 C250 111 199 137 199 223 L199 656 L65 656 L65 238 C65 104 115 -9 316 -9 C517 -9 567 104 567 238 L567 656 Z M223 866 L189 727 L277 727 L350 866 L223 866 Z M380 866 L346 727 L434 727 L507 866 L380 866 Z " />
<glyph glyph-name="uhungarumlaut" unicode="&#x171;" horiz-adv-x="532" d="M207 -9 C270 -9 324 17 357 42 L368 0 L474 0 L474 492 L346 492 L346 130 C346 130 309 109 244 109 C203 109 184 125 184 174 L184 492 L56 492 L56 147 C56 48 105 -9 207 -9 L207 -9 Z M172 696 L138 557 L226 557 L299 696 L172 696 Z M329 696 L295 557 L383 557 L456 696 L329 696 Z " />
<glyph glyph-name="Uogonek" unicode="&#x172;" horiz-adv-x="632" d="M567 656 L433 656 L433 223 C433 137 382 111 316 111 C250 111 199 137 199 223 L199 656 L65 656 L65 238 C65 104 115 -9 316 -9 L328 -9 L293 -37 C260 -63 248 -85 248 -122 C248 -182 289 -202 354 -202 C374 -202 408 -200 446 -193 L437 -113 C411 -117 391 -119 377 -119 C354 -119 350 -115 350 -105 C350 -96 354 -90 381 -64 L497 44 C550 90 567 160 567 238 L567 656 Z " />
<glyph glyph-name="uogonek" unicode="&#x173;" horiz-adv-x="532" d="M207 -9 C270 -9 324 17 357 42 L367 4 L316 -37 C283 -63 271 -85 271 -122 C271 -182 312 -202 377 -202 C397 -202 431 -200 469 -193 L460 -113 C434 -117 414 -119 400 -119 C377 -119 373 -115 373 -105 C373 -96 376 -89 404 -64 L474 0 L474 492 L346 492 L346 130 C346 130 309 109 244 109 C203 109 184 125 184 174 L184 492 L56 492 L56 147 C56 48 105 -9 207 -9 L207 -9 Z " />
<glyph glyph-name="Wcircumflex" unicode="&#x174;" horiz-adv-x="840" d="M819 656 L677 656 L620 365 C605 290 594 192 594 192 L590 192 C590 192 577 289 559 365 L493 646 L347 646 L283 365 C265 288 250 192 250 192 L246 192 C246 192 235 290 220 365 L163 656 L21 656 L168 0 L310 0 L396 350 C408 401 419 471 419 471 L421 471 C421 471 431 401 444 350 L530 0 L672 0 L819 656 Z M581 768 L473 866 L367 866 L259 768 L341 725 L419 786 L421 786 L499 725 L581 768 Z " />
<glyph glyph-name="wcircumflex" unicode="&#x175;" horiz-adv-x="712" d="M563 492 L520 299 C504 228 495 166 495 166 L491 166 C491 166 479 224 461 299 L416 492 L296 492 L251 299 C233 224 221 166 221 166 L217 166 C217 166 207 228 191 299 L148 492 L17 492 L150 0 L271 0 L329 215 C340 255 355 329 355 329 L357 329 C357 329 371 255 382 215 L440 0 L562 0 L695 492 L563 492 Z M517 598 L409 696 L303 696 L195 598 L277 555 L355 616 L357 616 L435 555 L517 598 Z " />
<glyph glyph-name="Ycircumflex" unicode="&#x176;" horiz-adv-x="586" d="M420 656 L349 500 C321 439 295 376 295 376 L291 376 C291 376 265 439 237 500 L166 656 L12 656 L225 230 L225 0 L361 0 L361 230 L574 656 L420 656 Z M454 768 L346 866 L240 866 L132 768 L214 725 L292 786 L294 786 L372 725 L454 768 Z " />
<glyph glyph-name="ycircumflex" unicode="&#x177;" horiz-adv-x="506" d="M357 492 L294 280 C275 214 255 140 255 140 L251 140 C251 140 231 214 212 280 L149 492 L14 492 L187 0 L180 -25 C163 -87 144 -91 61 -103 L75 -203 C227 -191 257 -177 319 0 L492 492 L357 492 Z M414 598 L306 696 L200 696 L92 598 L174 555 L252 616 L254 616 L332 555 L414 598 Z " />
<glyph glyph-name="Ydieresis" unicode="&#x178;" horiz-adv-x="586" d="M420 656 L349 500 C321 439 295 376 295 376 L291 376 C291 376 265 439 237 500 L166 656 L12 656 L225 230 L225 0 L361 0 L361 230 L574 656 L420 656 Z M191 866 C129 866 125 862 125 800 C125 738 129 734 191 734 C253 734 257 738 257 800 C257 862 253 866 191 866 L191 866 Z M395 866 C333 866 329 862 329 800 C329 738 333 734 395 734 C457 734 461 738 461 800 C461 862 457 866 395 866 L395 866 Z " />
<glyph glyph-name="Zacute" unicode="&#x179;" horiz-adv-x="560" d="M511 656 L43 656 L43 536 L349 536 L349 534 L39 119 L39 0 L515 0 L515 120 L203 120 L203 122 L511 536 L511 656 Z M268 866 L237 727 L325 727 L404 866 L268 866 Z " />
<glyph glyph-name="zacute" unicode="&#x17a;" horiz-adv-x="461" d="M183 108 L183 110 L424 382 L424 492 L36 492 L36 384 L275 384 L275 382 L33 110 L33 0 L426 0 L426 108 L183 108 Z M218 696 L187 557 L275 557 L354 696 L218 696 Z " />
<glyph glyph-name="Zdotaccent" unicode="&#x17b;" horiz-adv-x="560" d="M511 656 L43 656 L43 536 L349 536 L349 534 L39 119 L39 0 L515 0 L515 120 L203 120 L203 122 L511 536 L511 656 Z M280 872 C216 872 212 868 212 804 C212 740 216 736 280 736 C344 736 348 740 348 804 C348 868 344 872 280 872 L280 872 Z " />
<glyph glyph-name="zdotaccent" unicode="&#x17c;" horiz-adv-x="461" d="M183 108 L183 110 L424 382 L424 492 L36 492 L36 384 L275 384 L275 382 L33 110 L33 0 L426 0 L426 108 L183 108 Z M230 702 C166 702 162 698 162 634 C162 570 166 566 230 566 C294 566 298 570 298 634 C298 698 294 702 230 702 L230 702 Z " />
<glyph glyph-name="Zcaron" unicode="&#x17d;" horiz-adv-x="560" d="M511 656 L43 656 L43 536 L349 536 L349 534 L39 119 L39 0 L515 0 L515 120 L203 120 L203 122 L511 536 L511 656 Z M119 828 L227 730 L333 730 L441 828 L359 871 L281 810 L279 810 L201 871 L119 828 Z " />
<glyph glyph-name="zcaron" unicode="&#x17e;" horiz-adv-x="461" d="M183 108 L183 110 L424 382 L424 492 L36 492 L36 384 L275 384 L275 382 L33 110 L33 0 L426 0 L426 108 L183 108 Z M68 658 L176 560 L282 560 L390 658 L308 701 L230 640 L228 640 L150 701 L68 658 Z " />
<glyph glyph-name="florin" unicode="&#x192;" horiz-adv-x="466" d="M125 -56 C119 -94 106 -102 77 -102 C59 -102 37 -100 13 -97 L1 -187 C48 -199 79 -203 114 -203 C201 -203 237 -169 250 -81 L316 382 L415 382 L430 492 L331 492 L341 558 C347 596 360 604 389 604 C407 604 429 602 453 599 L465 689 C418 701 387 705 352 705 C265 705 229 671 216 583 L203 492 L125 492 L125 382 L187 382 L125 -56 Z " />
<glyph glyph-name="Scommaaccent" unicode="&#x218;" horiz-adv-x="539" d="M253 396 C200 404 171 421 171 476 C171 536 201 549 278 549 C331 549 400 541 455 532 L469 639 C395 657 327 665 270 665 C117 665 40 622 40 467 C40 331 120 289 198 277 L283 264 C337 256 363 241 363 187 C363 127 345 108 249 108 C212 108 144 113 70 125 L56 17 C132 -1 206 -9 270 -9 C428 -9 497 29 497 192 C497 312 448 364 344 381 L253 396 Z M207 -74 L207 -265 L296 -265 L335 -140 L335 -74 L207 -74 Z " />
<glyph glyph-name="scommaaccent" unicode="&#x219;" horiz-adv-x="461" d="M217 307 C171 313 158 323 158 353 C158 389 174 398 242 398 C283 398 330 394 388 384 L401 479 C329 497 263 501 224 501 C88 501 38 460 38 349 C38 254 88 212 170 200 L245 189 C292 182 302 173 302 140 C302 108 294 95 216 95 C180 95 125 99 61 110 L48 14 C111 -1 173 -9 224 -9 C363 -9 423 19 423 147 C423 231 389 283 302 295 L217 307 Z M166 -74 L166 -265 L255 -265 L294 -140 L294 -74 L166 -74 Z " />
<glyph glyph-name="Tcommaaccent" unicode="&#x21a;" horiz-adv-x="540" d="M528 656 L12 656 L12 536 L203 536 L203 0 L337 0 L337 536 L528 536 L528 656 Z M206 -74 L206 -265 L295 -265 L334 -140 L334 -74 L206 -74 Z " />
<glyph glyph-name="tcommaaccent" unicode="&#x21b;" horiz-adv-x="408" d="M232 382 L368 382 L383 492 L232 492 L232 636 L104 617 L104 492 L32 492 L32 382 L104 382 L104 132 C104 41 148 -4 251 -4 C295 -4 333 1 374 15 L362 105 C341 101 313 98 293 98 C248 98 232 112 232 160 L232 382 Z M168 -74 L168 -265 L257 -265 L296 -140 L296 -74 L168 -74 Z " />
<glyph glyph-name="dotlessj" unicode="&#x237;" horiz-adv-x="260" d="M194 492 L66 492 L66 0 C66 -93 36 -186 36 -186 L145 -202 C145 -202 194 -121 194 0 L194 492 Z " />
<glyph glyph-name="circumflex" unicode="&#x2c6;" horiz-adv-x="466" d="M394 598 L286 696 L180 696 L72 598 L154 555 L232 616 L234 616 L312 555 L394 598 Z " />
<glyph glyph-name="caron" unicode="&#x2c7;" horiz-adv-x="466" d="M72 658 L180 560 L286 560 L394 658 L312 701 L234 640 L232 640 L154 701 L72 658 Z " />
<glyph glyph-name="breve" unicode="&#x2d8;" horiz-adv-x="472" d="M72 687 C76 642 91 617 107 601 C126 583 169 567 236 567 C303 567 346 583 365 601 C381 617 396 642 400 687 L308 700 C306 680 297 671 291 667 C283 661 272 658 236 658 C200 658 189 661 181 667 C175 671 166 680 164 700 L72 687 Z " />
<glyph glyph-name="dotaccent" unicode="&#x2d9;" horiz-adv-x="280" d="M140 702 C76 702 72 698 72 634 C72 570 76 566 140 566 C204 566 208 570 208 634 C208 698 204 702 140 702 L140 702 Z " />
<glyph glyph-name="ring" unicode="&#x2da;" horiz-adv-x="372" d="M186 696 C214 696 222 687 222 652 C222 617 215 606 186 606 C157 606 150 617 150 652 C150 686 157 696 186 696 L186 696 Z M186 758 C107 758 72 730 72 652 C72 574 107 544 186 544 C265 544 300 574 300 652 C300 730 265 758 186 758 L186 758 Z " />
<glyph glyph-name="ogonek" unicode="&#x2db;" horiz-adv-x="347" d="M173 8 L117 -37 C84 -63 72 -85 72 -122 C72 -182 113 -202 178 -202 C198 -202 232 -200 270 -193 L261 -113 C235 -117 215 -119 201 -119 C178 -119 174 -115 174 -105 C174 -96 177 -89 205 -64 L275 0 L264 8 L173 8 Z " />
<glyph glyph-name="tilde" unicode="&#x2dc;" horiz-adv-x="486" d="M326 697 C323 673 316 668 311 666 C305 664 292 664 273 671 L229 688 C182 706 147 703 123 689 C100 675 80 648 72 584 L160 570 C163 594 170 599 175 601 C181 603 193 603 213 596 L257 579 C304 561 340 565 364 579 C387 592 406 618 414 683 L326 697 Z " />
<glyph glyph-name="hungarumlaut" unicode="&#x2dd;" horiz-adv-x="462" d="M106 696 L72 557 L160 557 L233 696 L106 696 Z M263 696 L229 557 L317 557 L390 696 L263 696 Z " />
<glyph glyph-name="Delta" unicode="&#x394;" horiz-adv-x="716" d="M686 0 L686 100 L436 656 L280 656 L30 100 L30 0 L686 0 Z M308 430 C340 502 356 552 356 552 L360 552 C360 552 377 501 408 430 L490 243 C530 153 553 112 553 112 L553 110 L164 110 L164 112 C164 112 186 153 226 243 L308 430 Z " />
<glyph glyph-name="Omega" unicode="&#x3a9;" horiz-adv-x="696" d="M621 0 L621 110 L537 110 L537 112 C626 212 651 274 651 380 C651 576 553 668 348 668 C143 668 45 576 45 380 C45 274 70 212 159 112 L159 110 L75 110 L75 0 L303 0 L303 102 C206 217 175 268 175 380 C175 488 204 557 348 557 C492 557 521 488 521 380 C521 271 488 214 393 102 L393 0 L621 0 Z " />
<glyph glyph-name="pi" unicode="&#x3c0;" horiz-adv-x="640" d="M12 492 L12 382 L114 382 L114 0 L242 0 L242 382 L385 382 L385 119 C385 30 425 -4 502 -4 C539 -4 573 0 603 11 L591 101 C570 98 557 97 549 97 C519 97 513 112 513 138 L513 382 L607 382 L622 492 L12 492 Z " />
<glyph glyph-name="endash" unicode="&#x2013;" horiz-adv-x="445" d="M50 329 L50 219 L395 219 L395 329 L50 329 Z " />
<glyph glyph-name="emdash" unicode="&#x2014;" horiz-adv-x="890" d="M50 329 L50 219 L840 219 L840 329 L50 329 Z " />
<glyph glyph-name="quoteleft" unicode="&#x2018;" horiz-adv-x="294" d="M147 416 C222 416 224 418 224 493 C224 565 222 569 155 570 C155 616 176 648 212 682 L157 715 C97 667 70 617 70 493 C70 418 72 416 147 416 L147 416 Z " />
<glyph glyph-name="quoteright" unicode="&#x2019;" horiz-adv-x="294" d="M147 702 C72 702 70 700 70 625 C70 553 72 549 139 548 C139 502 118 470 82 436 L137 403 C197 451 224 501 224 625 C224 700 222 702 147 702 L147 702 Z " />
<glyph glyph-name="quotesinglbase" unicode="&#x201a;" horiz-adv-x="294" d="M147 150 C72 150 70 148 70 73 C70 1 72 -3 139 -4 C139 -50 118 -82 82 -116 L137 -149 C197 -101 224 -51 224 73 C224 148 222 150 147 150 L147 150 Z " />
<glyph glyph-name="quotedblleft" unicode="&#x201c;" horiz-adv-x="512" d="M364 416 C439 416 441 418 441 493 C441 565 439 569 372 570 C372 616 393 648 429 682 L374 715 C314 667 287 617 287 493 C287 418 289 416 364 416 L364 416 Z M146 416 C221 416 223 418 223 493 C223 565 221 569 154 570 C154 616 175 648 211 682 L156 715 C96 667 69 617 69 493 C69 418 71 416 146 416 L146 416 Z " />
<glyph glyph-name="quotedblright" unicode="&#x201d;" horiz-adv-x="512" d="M147 702 C72 702 70 700 70 625 C70 553 72 549 139 548 C139 502 118 470 82 436 L137 403 C197 451 224 501 224 625 C224 700 222 702 147 702 L147 702 Z M365 702 C290 702 288 700 288 625 C288 553 290 549 357 548 C357 502 336 470 300 436 L355 403 C415 451 442 501 442 625 C442 700 440 702 365 702 L365 702 Z " />
<glyph glyph-name="quotedblbase" unicode="&#x201e;" horiz-adv-x="512" d="M147 150 C72 150 70 148 70 73 C70 1 72 -3 139 -4 C139 -50 118 -82 82 -116 L137 -149 C197 -101 224 -51 224 73 C224 148 222 150 147 150 L147 150 Z M365 150 C290 150 288 148 288 73 C288 1 290 -3 357 -4 C357 -50 336 -82 300 -116 L355 -149 C415 -101 442 -51 442 73 C442 148 440 150 365 150 L365 150 Z " />
<glyph glyph-name="dagger" unicode="&#x2020;" horiz-adv-x="542" d="M207 290 L230 -96 L312 -96 L335 290 L323 388 L393 376 L468 376 L468 494 L393 494 L323 482 L335 580 L335 656 L207 656 L207 580 L219 482 L149 494 L74 494 L74 376 L149 376 L219 388 L207 290 Z " />
<glyph glyph-name="daggerdbl" unicode="&#x2021;" horiz-adv-x="542" d="M207 280 L219 172 L149 184 L74 184 L74 66 L149 66 L219 78 L207 -20 L207 -96 L335 -96 L335 -20 L323 78 L393 66 L468 66 L468 184 L393 184 L323 172 L335 280 L323 388 L393 376 L468 376 L468 494 L393 494 L323 482 L335 580 L335 656 L207 656 L207 580 L219 482 L149 494 L74 494 L74 376 L149 376 L219 388 L207 280 Z " />
<glyph glyph-name="bullet" unicode="&#x2022;" horiz-adv-x="422" d="M211 421 C98 421 92 415 92 302 C92 189 98 183 211 183 C324 183 330 189 330 302 C330 415 324 421 211 421 L211 421 Z " />
<glyph glyph-name="ellipsis" unicode="&#x2026;" horiz-adv-x="832" d="M138 150 C63 150 61 148 61 73 C61 -2 63 -4 138 -4 C213 -4 215 -2 215 73 C215 148 213 150 138 150 L138 150 Z M416 150 C341 150 339 148 339 73 C339 -2 341 -4 416 -4 C491 -4 493 -2 493 73 C493 148 491 150 416 150 L416 150 Z M694 150 C619 150 617 148 617 73 C617 -2 619 -4 694 -4 C769 -4 771 -2 771 73 C771 148 769 150 694 150 L694 150 Z " />
<glyph glyph-name="perthousand" unicode="&#x2030;" horiz-adv-x="1248" d="M193 575 C233 575 243 562 243 472 C243 382 233 369 193 369 C153 369 143 382 143 472 C143 562 153 575 193 575 L193 575 Z M193 662 C87 662 35 622 35 472 C35 323 87 282 193 282 C299 282 351 323 351 472 C351 622 299 662 193 662 L193 662 Z M689 288 C729 288 739 275 739 185 C739 95 729 82 689 82 C649 82 639 95 639 185 C639 275 649 288 689 288 L689 288 Z M689 375 C583 375 531 335 531 185 C531 36 583 -5 689 -5 C795 -5 847 36 847 185 C847 335 795 375 689 375 L689 375 Z M1055 288 C1095 288 1105 275 1105 185 C1105 95 1095 82 1055 82 C1015 82 1005 95 1005 185 C1005 275 1015 288 1055 288 L1055 288 Z M1055 375 C949 375 897 335 897 185 C897 36 949 -5 1055 -5 C1161 -5 1213 36 1213 185 C1213 335 1161 375 1055 375 L1055 375 Z M310 0 L685 656 L571 656 L195 0 L310 0 Z " />
<glyph glyph-name="guilsinglleft" unicode="&#x2039;" horiz-adv-x="322" d="M52 274 L148 79 L256 96 L187 274 L256 452 L148 469 L52 274 Z " />
<glyph glyph-name="guilsinglright" unicode="&#x203a;" horiz-adv-x="322" d="M270 274 L174 469 L66 452 L135 274 L66 96 L174 79 L270 274 Z " />
<glyph glyph-name="fraction" unicode="&#x2044;" horiz-adv-x="514" d="M127 0 L502 656 L388 656 L12 0 L127 0 Z " />
<glyph glyph-name="Euro" unicode="&#x20ac;" horiz-adv-x="615" d="M442 296 L248 296 L248 360 L449 360 L461 454 L259 454 C280 538 327 549 395 549 C436 549 493 542 548 532 L562 639 C517 652 432 665 376 665 C233 665 140 623 112 454 L39 454 L27 360 L103 360 L103 296 L39 296 L27 202 L112 202 C140 33 233 -9 376 -9 C432 -9 517 4 562 17 L548 124 C493 114 436 107 395 107 C327 107 280 118 259 202 L430 202 L442 296 Z " />
<glyph glyph-name="trademark" unicode="&#x2122;" horiz-adv-x="734" d="M295 656 L18 656 L18 564 L107 564 L107 328 L205 328 L205 564 L295 564 L295 656 Z M508 514 L507 514 L454 656 L333 656 L333 328 L429 328 L429 452 C429 479 427 525 427 525 L429 525 C429 525 436 499 445 475 L470 409 L545 409 L570 475 C579 499 586 525 586 525 L588 525 C588 525 586 479 586 452 L586 328 L682 328 L682 656 L562 656 L508 514 Z " />
<glyph glyph-name="uni2160" unicode="&#x2160;" horiz-adv-x="420" d="M32 0 L388 0 L388 120 L277 120 L277 536 L384 536 L384 656 L36 656 L36 536 L143 536 L143 120 L32 120 L32 0 Z " />
<glyph glyph-name="uni2161" unicode="&#x2161;" horiz-adv-x="740" d="M32 0 L708 0 L708 120 L597 120 L597 536 L704 536 L704 656 L36 656 L36 536 L143 536 L143 120 L32 120 L32 0 Z M277 536 L463 536 L463 120 L277 120 L277 536 Z " />
<glyph glyph-name="uni2162" unicode="&#x2162;" horiz-adv-x="1060" d="M32 0 L1028 0 L1028 120 L917 120 L917 536 L1024 536 L1024 656 L36 656 L36 536 L143 536 L143 120 L32 120 L32 0 Z M277 120 L277 536 L463 536 L463 120 L277 120 Z M597 120 L597 536 L783 536 L783 120 L597 120 Z " />
<glyph glyph-name="uni2163" unicode="&#x2163;" horiz-adv-x="978" d="M755 0 L963 656 L817 656 L726 338 C701 249 681 163 681 163 L677 163 C677 163 658 248 632 338 L541 656 L36 656 L36 536 L143 536 L143 120 L32 120 L32 0 L388 0 L388 120 L277 120 L277 536 L433 536 L603 0 L755 0 Z " />
<glyph glyph-name="uni2164" unicode="&#x2164;" horiz-adv-x="598" d="M375 0 L583 656 L437 656 L346 338 C321 249 301 163 301 163 L297 163 C297 163 278 248 252 338 L161 656 L15 656 L223 0 L375 0 Z " />
<glyph glyph-name="uni2165" unicode="&#x2165;" horiz-adv-x="978" d="M375 0 L545 536 L701 536 L701 120 L590 120 L590 0 L946 0 L946 120 L835 120 L835 536 L942 536 L942 656 L437 656 L346 338 C321 249 301 163 301 163 L297 163 C297 163 278 248 252 338 L161 656 L15 656 L223 0 L375 0 Z " />
<glyph glyph-name="uni2166" unicode="&#x2166;" horiz-adv-x="1298" d="M375 0 L545 536 L701 536 L701 120 L590 120 L590 0 L1266 0 L1266 120 L1155 120 L1155 536 L1262 536 L1262 656 L437 656 L346 338 C321 249 301 163 301 163 L297 163 C297 163 278 248 252 338 L161 656 L15 656 L223 0 L375 0 Z M835 536 L1021 536 L1021 120 L835 120 L835 536 Z " />
<glyph glyph-name="uni2167" unicode="&#x2167;" horiz-adv-x="1618" d="M375 0 L545 536 L701 536 L701 120 L590 120 L590 0 L1586 0 L1586 120 L1475 120 L1475 536 L1582 536 L1582 656 L437 656 L346 338 C321 249 301 163 301 163 L297 163 C297 163 278 248 252 338 L161 656 L15 656 L223 0 L375 0 Z M1021 120 L835 120 L835 536 L1021 536 L1021 120 Z M1155 120 L1155 536 L1341 536 L1341 120 L1155 120 Z " />
<glyph glyph-name="uni2168" unicode="&#x2168;" horiz-adv-x="978" d="M32 536 L143 536 L143 120 L36 120 L36 0 L557 0 L635 147 C655 185 675 227 675 227 L677 227 C677 227 697 185 717 147 L795 0 L954 0 L765 329 L948 656 L795 656 L716 505 C697 468 677 425 677 425 L675 425 C675 425 655 468 636 505 L557 656 L32 656 L32 536 Z M587 329 L467 120 L277 120 L277 536 L471 536 L587 329 Z " />
<glyph glyph-name="uni2169" unicode="&#x2169;" horiz-adv-x="604" d="M580 0 L391 329 L574 656 L421 656 L342 505 C323 468 303 425 303 425 L301 425 C301 425 281 468 262 505 L183 656 L30 656 L213 329 L24 0 L183 0 L261 147 C281 185 301 227 301 227 L303 227 C303 227 323 185 343 147 L421 0 L580 0 Z " />
<glyph glyph-name="uni216A" unicode="&#x216a;" horiz-adv-x="978" d="M946 120 L835 120 L835 536 L942 536 L942 656 L421 656 L342 505 C323 468 303 425 303 425 L301 425 C301 425 281 468 262 505 L183 656 L30 656 L213 329 L24 0 L183 0 L261 147 C281 185 301 227 301 227 L303 227 C303 227 323 185 343 147 L421 0 L946 0 L946 120 Z M701 536 L701 120 L511 120 L391 329 L507 536 L701 536 Z " />
<glyph glyph-name="uni216B" unicode="&#x216b;" horiz-adv-x="1298" d="M342 505 C323 468 303 425 303 425 L301 425 C301 425 281 468 262 505 L183 656 L30 656 L213 329 L24 0 L183 0 L261 147 C281 185 301 227 301 227 L303 227 C303 227 323 185 343 147 L421 0 L1266 0 L1266 120 L1155 120 L1155 536 L1262 536 L1262 656 L421 656 L342 505 Z M701 536 L701 120 L511 120 L391 329 L507 536 L701 536 Z M1021 120 L835 120 L835 536 L1021 536 L1021 120 Z " />
<glyph glyph-name="uni216C" unicode="&#x216c;" horiz-adv-x="500" d="M66 656 L66 0 L490 0 L490 120 L200 120 L200 656 L66 656 Z " />
<glyph glyph-name="uni216D" unicode="&#x216d;" horiz-adv-x="545" d="M187 328 C187 529 241 549 334 549 C375 549 432 542 487 532 L501 639 C456 652 371 665 315 665 C142 665 42 603 42 328 C42 53 142 -9 315 -9 C371 -9 456 4 501 17 L487 124 C432 114 375 107 334 107 C241 107 187 127 187 328 L187 328 Z " />
<glyph glyph-name="uni216E" unicode="&#x216e;" horiz-adv-x="609" d="M66 656 L66 0 L282 0 C452 0 567 40 567 328 C567 616 452 656 282 656 L66 656 Z M200 120 L200 536 L271 536 C389 536 425 518 425 328 C425 138 389 120 271 120 L200 120 Z " />
<glyph glyph-name="uni216F" unicode="&#x216f;" horiz-adv-x="758" d="M380 305 L378 305 L226 656 L66 656 L66 0 L200 0 L200 265 C200 343 196 441 196 441 L200 441 C200 441 225 371 253 311 L328 150 L430 150 L505 311 C533 371 558 440 558 440 L562 440 C562 440 558 343 558 265 L558 0 L692 0 L692 656 L532 656 L380 305 Z " />
<glyph glyph-name="partialdiff" unicode="&#x2202;" horiz-adv-x="515" d="M224 501 C125 501 35 435 35 240 C35 51 107 -12 257 -12 C407 -12 479 51 479 240 C480 441 447 597 367 702 L262 686 C293 624 318 538 329 474 C302 490 268 501 224 501 L224 501 Z M257 90 C194 90 170 120 170 240 C170 338 190 384 246 384 C286 384 313 378 338 369 C343 320 344 281 344 240 C344 120 320 90 257 90 L257 90 Z " />
<glyph glyph-name="product" unicode="&#x220f;" horiz-adv-x="742" d="M590 0 L590 546 L701 546 L701 656 L41 656 L41 546 L152 546 L152 0 L280 0 L280 546 L462 546 L462 0 L590 0 Z " />
<glyph glyph-name="summation" unicode="&#x2211;" horiz-adv-x="545" d="M195 112 L195 114 L371 295 L371 373 L200 542 L200 544 L489 544 L489 656 L38 656 L38 544 L246 336 L246 332 L34 112 L34 0 L501 0 L501 112 L195 112 Z " />
<glyph glyph-name="minus" unicode="&#x2212;" horiz-adv-x="540" d="M64 329 L64 219 L476 219 L476 329 L64 329 Z " />
<glyph glyph-name="radical" unicode="&#x221a;" horiz-adv-x="720" d="M427 270 C395 190 376 131 376 131 L372 131 C372 131 353 190 321 270 L233 492 L19 492 L4 382 L152 382 L309 0 L439 0 L708 656 L581 656 L427 270 Z " />
<glyph glyph-name="infinity" unicode="&#x221e;" horiz-adv-x="788" d="M392 362 L364 391 C325 432 281 446 212 446 C91 446 43 402 43 296 C43 190 91 146 212 146 C281 146 325 160 364 201 L392 230 L394 230 L422 201 C461 160 506 146 575 146 C696 146 745 190 745 296 C745 402 696 446 575 446 C506 446 461 432 422 391 L394 362 L392 362 Z M575 358 C617 358 640 348 640 296 C640 244 617 234 575 234 C525 234 504 243 478 269 L452 295 L452 297 L478 323 C504 349 525 358 575 358 L575 358 Z M335 297 L335 295 L309 269 C283 243 262 234 212 234 C170 234 148 244 148 296 C148 348 170 358 212 358 C262 358 283 349 309 323 L335 297 Z " />
<glyph glyph-name="integral" unicode="&#x222b;" horiz-adv-x="372" d="M104 -56 C104 -88 93 -102 60 -102 C28 -102 -8 -97 -8 -97 L-20 -187 C-20 -187 43 -203 97 -203 C194 -203 232 -168 232 -72 L232 558 C232 590 243 604 276 604 C308 604 344 599 344 599 L356 689 C356 689 293 705 239 705 C142 705 104 670 104 574 L104 -56 Z " />
<glyph glyph-name="approxequal" unicode="&#x2248;" horiz-adv-x="540" d="M168 439 C121 439 86 428 50 405 L66 301 C106 320 133 329 168 329 C230 329 298 289 372 289 C419 289 454 300 490 323 L474 427 C434 408 407 399 372 399 C310 399 242 439 168 439 L168 439 Z M168 261 C121 261 86 250 50 227 L66 123 C106 142 133 151 168 151 C230 151 298 111 372 111 C419 111 454 122 490 145 L474 249 C434 230 407 221 372 221 C310 221 242 261 168 261 L168 261 Z " />
<glyph glyph-name="notequal" unicode="&#x2260;" horiz-adv-x="540" d="M64 428 L64 318 L250 318 L201 231 L64 231 L64 121 L138 121 L102 58 L190 58 L226 121 L476 121 L476 231 L289 231 L338 318 L476 318 L476 428 L401 428 L438 492 L350 492 L313 428 L64 428 Z " />
<glyph glyph-name="lessequal" unicode="&#x2264;" horiz-adv-x="540" d="M472 138 L472 254 L205 320 L205 322 L472 388 L472 504 L52 376 L52 266 L472 138 Z M472 45 L472 107 L52 235 L52 173 L472 45 Z " />
<glyph glyph-name="greaterequal" unicode="&#x2265;" horiz-adv-x="540" d="M488 266 L488 376 L68 504 L68 388 L335 322 L335 320 L68 254 L68 138 L488 266 Z M488 173 L488 235 L68 107 L68 45 L488 173 Z " />
<glyph glyph-name="lozenge" unicode="&#x25ca;" horiz-adv-x="714" d="M676 293 L676 363 L404 696 L310 696 L38 363 L38 293 L310 -40 L404 -40 L676 293 Z M356 572 L358 572 L555 329 L555 327 L358 85 L356 85 L159 327 L159 329 L356 572 Z " />
<glyph glyph-name="zero.LT" unicode="&#xe53f;" horiz-adv-x="580" d="M290 668 C111 668 39 586 39 328 C39 71 111 -12 290 -12 C469 -12 541 71 541 328 C541 585 469 668 290 668 L290 668 Z M290 98 C202 98 179 134 179 328 C179 522 202 558 290 558 C378 558 401 522 401 328 C401 134 378 98 290 98 L290 98 Z " />
<glyph glyph-name="five.OP" unicode="&#xe540;" horiz-adv-x="522" d="M194 400 L446 400 L458 516 L64 516 L64 126 L194 126 C204 159 228 176 265 176 C321 176 348 154 348 86 C348 19 325 -4 253 -4 C193 -4 152 -1 71 12 L57 -95 C134 -112 196 -120 263 -120 C400 -120 482 -76 482 85 C482 236 411 290 301 290 C253 290 217 273 196 245 L194 245 L194 400 Z " />
<glyph glyph-name="one.LT" unicode="&#xe541;" horiz-adv-x="580" d="M81 0 L539 0 L539 116 L376 116 L376 664 L64 630 L78 527 L244 527 L244 116 L81 116 L81 0 Z " />
<glyph glyph-name="two.LT" unicode="&#xe542;" horiz-adv-x="580" d="M203 116 C203 170 212 197 321 265 C484 367 507 402 507 505 C507 634 420 665 279 665 C222 665 153 656 80 639 L94 531 C173 544 232 551 279 551 C357 551 376 533 376 498 C376 459 373 444 248 368 C115 287 73 239 73 116 L73 0 L498 0 L498 116 L203 116 Z " />
<glyph glyph-name="three.LT" unicode="&#xe543;" horiz-adv-x="580" d="M414 339 C473 360 499 410 499 478 C499 633 426 665 266 665 C213 665 136 658 66 639 L80 531 C152 545 218 551 266 551 C342 551 369 537 369 472 C369 407 342 393 266 393 L173 393 L173 277 L266 277 C345 277 377 267 377 191 C377 115 345 105 266 105 C217 105 156 109 76 124 L62 16 C140 -2 209 -9 266 -9 C424 -9 511 16 511 185 C511 286 473 320 414 337 L414 339 Z " />
<glyph glyph-name="four.LT" unicode="&#xe544;" horiz-adv-x="580" d="M329 397 L329 239 L165 239 L165 241 L312 647 L180 665 L27 241 L27 123 L329 123 L329 0 L459 0 L459 123 L561 123 L561 239 L459 239 L459 397 L329 397 Z " />
<glyph glyph-name="five.LT" unicode="&#xe545;" horiz-adv-x="580" d="M207 540 L474 540 L486 656 L77 656 L77 266 L207 266 C217 299 238 315 288 315 C352 315 381 294 381 211 C381 128 353 107 276 107 C216 107 172 107 84 123 L70 15 C146 -8 236 -9 286 -9 C427 -9 515 43 515 210 C515 377 433 429 320 429 C278 429 234 418 209 385 L207 385 L207 540 Z " />
<glyph glyph-name="six.LT" unicode="&#xe546;" horiz-adv-x="580" d="M301 554 C360 554 420 544 482 531 L496 639 C433 656 358 668 301 668 C128 668 54 584 54 328 C54 70 128 -12 301 -12 C441 -12 529 35 529 206 C529 377 442 427 314 427 C262 427 222 413 192 395 C192 511 224 554 301 554 L301 554 Z M301 99 C215 99 192 142 192 289 C192 289 222 313 301 313 C367 313 393 291 393 206 C393 121 367 99 301 99 L301 99 Z " />
<glyph glyph-name="seven.LT" unicode="&#xe547;" horiz-adv-x="580" d="M43 458 L175 475 L175 542 L386 542 L386 540 L176 0 L313 0 L522 542 L522 656 L43 656 L43 458 Z " />
<glyph glyph-name="eight.LT" unicode="&#xe548;" horiz-adv-x="580" d="M456 342 C501 380 521 419 521 477 C521 621 438 668 290 668 C142 668 59 621 59 477 C59 391 82 360 124 334 L124 332 C69 299 41 253 41 187 C41 29 137 -12 290 -12 C443 -12 539 29 539 187 C539 269 517 310 456 340 L456 342 Z M290 558 C364 558 387 533 387 477 C387 435 381 407 349 382 L271 394 C222 402 193 421 193 477 C193 533 216 558 290 558 L290 558 Z M290 98 C205 98 180 120 180 186 C180 228 194 259 232 287 L308 274 C380 262 400 241 400 186 C400 120 375 98 290 98 L290 98 Z " />
<glyph glyph-name="nine.LT" unicode="&#xe549;" horiz-adv-x="580" d="M282 102 C223 102 163 112 101 125 L87 17 C150 0 225 -12 282 -12 C455 -12 529 72 529 328 C529 586 455 668 282 668 C142 668 54 621 54 450 C54 279 141 229 269 229 C321 229 361 243 391 261 C391 145 359 102 282 102 L282 102 Z M282 557 C368 557 391 514 391 367 C391 367 361 343 282 343 C216 343 190 365 190 450 C190 535 216 557 282 557 L282 557 Z " />
<glyph glyph-name="zero.OP" unicode="&#xe54a;" horiz-adv-x="536" d="M267 528 C100 528 33 454 33 258 C33 62 100 -12 267 -12 C434 -12 503 62 503 258 C503 454 434 528 267 528 L267 528 Z M267 94 C192 94 167 120 167 258 C167 396 193 422 267 422 C342 422 367 396 367 258 C367 120 342 94 267 94 L267 94 Z " />
<glyph glyph-name="one.OP" unicode="&#xe54c;" horiz-adv-x="327" d="M253 0 L253 522 L10 488 L24 385 L121 385 L121 0 L253 0 Z " />
<glyph glyph-name="two.OP" unicode="&#xe54d;" horiz-adv-x="488" d="M176 116 C176 134 185 155 307 214 C429 273 442 309 442 388 C442 503 377 525 236 525 C184 525 123 519 52 501 L66 393 C146 407 191 411 236 411 C301 411 311 403 311 383 C311 363 307 350 193 293 C63 228 46 171 46 104 L46 0 L440 0 L440 116 L176 116 Z " />
<glyph glyph-name="three.OP" unicode="&#xe54e;" horiz-adv-x="473" d="M335 210 C395 231 418 285 418 350 C418 488 356 525 201 525 C148 525 103 519 26 500 L40 392 C112 406 153 411 201 411 C270 411 288 396 288 338 C288 280 270 265 201 265 L107 265 L107 149 L201 149 C272 149 292 130 292 72 C292 14 272 -5 201 -5 C152 -5 105 -2 36 14 L22 -94 C100 -112 144 -119 201 -119 C354 -119 426 -89 426 63 C426 157 395 191 335 208 L335 210 Z " />
<glyph glyph-name="four.OP" unicode="&#xe54f;" horiz-adv-x="545" d="M313 267 L313 119 L171 119 L171 121 L310 502 L179 524 L34 121 L34 3 L313 3 L313 -109 L443 -109 L443 3 L527 3 L527 119 L443 119 L443 267 L313 267 Z " />
<glyph glyph-name="six.OP" unicode="&#xe551;" horiz-adv-x="554" d="M285 522 C344 522 396 514 458 501 L472 607 C409 624 342 636 285 636 C112 636 46 551 46 313 C46 73 113 -10 286 -10 C426 -10 505 37 505 199 C505 355 427 411 299 411 C256 411 214 400 184 382 C184 487 208 522 285 522 L285 522 Z M286 101 C212 101 184 129 184 276 C184 276 207 297 286 297 C349 297 369 273 369 199 C369 125 349 101 286 101 L286 101 Z " />
<glyph glyph-name="seven.OP" unicode="&#xe552;" horiz-adv-x="504" d="M22 318 L154 335 L154 402 L335 402 L335 400 L142 -110 L279 -110 L470 402 L470 516 L22 516 L22 318 Z " />
<glyph glyph-name="eight.OP" unicode="&#xe553;" horiz-adv-x="574" d="M435 322 C483 361 501 404 501 462 C501 591 425 636 287 636 C149 636 73 591 73 462 C73 378 97 349 139 321 L139 319 C84 285 56 237 56 171 C56 17 149 -10 287 -10 C425 -10 518 17 518 171 C518 249 495 288 435 320 L435 322 Z M287 526 C350 526 367 508 367 462 C367 420 359 399 338 374 L268 384 C221 391 207 416 207 462 C207 508 228 526 287 526 L287 526 Z M287 100 C209 100 195 123 195 171 C195 213 204 233 236 263 L305 252 C366 242 379 222 379 171 C379 123 365 100 287 100 L287 100 Z " />
<glyph glyph-name="nine.OP" unicode="&#xe554;" horiz-adv-x="554" d="M269 -6 C210 -6 158 2 96 15 L82 -91 C145 -108 212 -120 269 -120 C442 -120 508 -35 508 203 C508 443 441 526 268 526 C128 526 49 479 49 317 C49 161 127 105 255 105 C298 105 340 116 370 134 C370 29 346 -6 269 -6 L269 -6 Z M268 415 C342 415 370 387 370 240 C370 240 347 219 268 219 C205 219 185 243 185 317 C185 391 205 415 268 415 L268 415 Z " />
<glyph glyph-name="I.alt" unicode="&#xe788;" horiz-adv-x="420" d="M32 0 L388 0 L388 120 L277 120 L277 536 L384 536 L384 656 L36 656 L36 536 L143 536 L143 120 L32 120 L32 0 Z " />
<glyph glyph-name="breve.cap" unicode="&#xf6a2;" horiz-adv-x="472" d="M72 857 C76 812 91 787 107 771 C126 753 169 737 236 737 C303 737 346 753 365 771 C381 787 396 812 400 857 L308 870 C306 850 297 841 291 837 C283 831 272 828 236 828 C200 828 189 831 181 837 C175 841 166 850 164 870 L72 857 Z " />
<glyph glyph-name="ring.cap" unicode="&#xf6a4;" horiz-adv-x="372" d="M186 866 C214 866 222 857 222 822 C222 787 215 776 186 776 C157 776 150 787 150 822 C150 856 157 866 186 866 L186 866 Z M186 928 C107 928 72 900 72 822 C72 744 107 714 186 714 C265 714 300 744 300 822 C300 900 265 928 186 928 L186 928 Z " />
<glyph glyph-name="circumflex.cap" unicode="&#xf6a5;" horiz-adv-x="466" d="M394 768 L286 866 L180 866 L72 768 L154 725 L232 786 L234 786 L312 725 L394 768 Z " />
<glyph glyph-name="dotaccent.cap" unicode="&#xf6a6;" horiz-adv-x="280" d="M140 874 C76 874 72 870 72 806 C72 742 76 738 140 738 C204 738 208 742 208 806 C208 870 204 874 140 874 L140 874 Z " />
<glyph glyph-name="tilde.cap" unicode="&#xf6a7;" horiz-adv-x="486" d="M326 867 C323 843 316 838 311 836 C305 834 292 834 273 841 L229 858 C182 876 147 873 123 859 C100 845 80 818 72 754 L160 740 C163 764 170 769 175 771 C181 773 193 773 213 766 L257 749 C304 731 340 735 364 749 C387 762 406 788 414 853 L326 867 Z " />
<glyph glyph-name="acute.cap" unicode="&#xf6a8;" horiz-adv-x="311" d="M103 866 L72 727 L160 727 L239 866 L103 866 Z " />
<glyph glyph-name="caron.cap" unicode="&#xf6a9;" horiz-adv-x="466" d="M72 828 L180 730 L286 730 L394 828 L312 871 L234 810 L232 810 L154 871 L72 828 Z " />
<glyph glyph-name="dieresis.cap" unicode="&#xf6aa;" horiz-adv-x="480" d="M138 872 C76 872 72 868 72 806 C72 744 76 740 138 740 C200 740 204 744 204 806 C204 868 200 872 138 872 L138 872 Z M342 872 C280 872 276 868 276 806 C276 744 280 740 342 740 C404 740 408 744 408 806 C408 868 404 872 342 872 L342 872 Z " />
<glyph glyph-name="grave.cap" unicode="&#xf6ab;" horiz-adv-x="311" d="M72 866 L151 727 L239 727 L208 866 L72 866 Z " />
<glyph glyph-name="hungarumlaut.cap" unicode="&#xf6ac;" horiz-adv-x="462" d="M106 866 L72 727 L160 727 L233 866 L106 866 Z M263 866 L229 727 L317 727 L390 866 L263 866 Z " />
<glyph glyph-name="macron.cap" unicode="&#xf6ad;" horiz-adv-x="444" d="M72 854 L72 758 L372 758 L372 854 L72 854 Z " />
<glyph glyph-name="commaaccent" unicode="&#xf6ae;" horiz-adv-x="272" d="M72 -74 L72 -265 L161 -265 L200 -140 L200 -74 L72 -74 Z " />
<glyph glyph-name="fi" unicode="&#xfb01;" horiz-adv-x="636" d="M232 558 C232 590 243 604 276 604 C304 604 344 599 344 599 L356 689 C356 689 293 705 239 705 C142 705 104 670 104 574 L104 492 L32 492 L32 382 L104 382 L104 0 L232 0 L232 382 L324 382 L339 492 L232 492 L232 558 Z M568 492 L440 492 L440 0 L568 0 L568 492 Z M504 702 C440 702 436 698 436 634 C436 570 440 566 504 566 C568 566 572 570 572 634 C572 698 568 702 504 702 L504 702 Z " />
<glyph glyph-name="fl" unicode="&#xfb02;" horiz-adv-x="666" d="M232 558 C232 590 243 604 276 604 C304 604 344 599 344 599 L356 689 C356 689 293 705 239 705 C142 705 104 670 104 574 L104 492 L32 492 L32 382 L104 382 L104 0 L232 0 L232 382 L324 382 L339 492 L232 492 L232 558 Z M560 704 L432 685 L432 124 C432 29 476 -6 547 -6 C583 -6 610 0 635 9 L623 99 C608 96 599 95 591 95 C564 95 560 110 560 136 L560 704 Z " />
</font>
</defs>
</svg>
